找回密码

查看: 1509|回复: 0

[2160p-WEB] 多莉·帕顿:广场上的圣诞节[中文字幕].Dolly.Partons.Christmas.on.the.Square.2020.2160p.NF.WEB-DL.DDP5.1.DV.MKV.x265-DETROIT 11.56GB

[复制链接]
蓝光币
1840
发表于 2023-1-3 03:28:11 | 显示全部楼层 |阅读模式


◎标  题 多莉·帕顿:广场上的圣诞节
◎译  名 多莉·帕顿:小镇圣诞爱 / Christmas on the Square
◎片  名 Dolly Parton's Christmas on The Square
◎年  代 2020
◎产  地 美国
◎类  别 笑剧 / 音乐 / 歌舞
◎语  言 英语
◎上映日期 2020-11-22(美国)
◎IMDb评分 5.2/10 (2865人评价)
◎IMDb链接 https://www.imdb.com/title/tt10627548/
◎豆瓣评分 6.1/10 (106人评价)
◎豆瓣链接 https://movie.douban.com/subject/34607622/
◎导  演 黛比·艾伦 Debbie Allen
◎演  员 多莉·帕顿 Dolly Parton
       克里斯汀·芭伦斯基 Christine Baranski
       特里特·威廉斯 Treat Williams
       詹妮弗·路易斯 Jenifer Lewis
       乔什·塞加拉 Josh Segarra
       珍妮·梅森 Jeanine Mason
       道格拉斯·斯利斯 Douglas Sills
       黄景伟 Alex Wong
       Carol Swarbrick Carol Swarbrick
       斯蒂芬·卡迪尔 Stephen Caudill
◎简  介
  观赏这部穿插 14 首 #桃莉·巴顿原创歌曲的 Netflix 佳节音乐片,享用冬青树摇摆的 #2020 圣诞节。                                    
                                《小镇圣诞爱》描写闪闪发光的天使(桃莉)找上小镇裡的「守财奴」雷吉娜·富勒(克莉丝汀·巴伦斯基饰),引领她展开一趟乐音围绕的救赎之旅。吝啬的田主会在圣诞夜把富勒镇的居民统统逐落发门,还是圣诞精神毕竟会融化她的贪心慾望呢?                                    
                                本片由著名编舞家 #黛比·艾伦执导,桃莉的 #圣诞音乐将感动你的心,陪伴每个家庭欢度佳节。这部令人沉迷的音乐片由桃莉·巴顿、克莉丝汀·巴伦斯基、崔特·威廉斯、吉妮·梅森、乔许·塞嘉拉、玛莉·莲恩·哈斯凯尔,以及众多才华弥漫的明星主演。你预备好了吗?载歌载舞的季节已然来到!
  1. Video
  2. ID                                       : 1
  3. Format                                   : HEVC
  4. Format/Info                              : High Efficiency Video Coding
  5. Format profile                           : Main 10@L5@Main
  6. HDR format                               : Dolby Vision, Version 1.0, dvhe.05.06, BL+RPU
  7. Codec ID                                 : V_MPEGH/ISO/HEVC
  8. Duration                                 : 1 h 38 min
  9. Bit rate                                 : 16.1 Mb/s
  10. Width                                    : 3 840 pixels
  11. Height                                   : 2 160 pixels
  12. Display aspect ratio                     : 16:9
  13. Frame rate mode                          : Constant
  14. Frame rate                               : 23.976 (24000/1001) FPS
  15. Color space                              : YUV
  16. Chroma subsampling                       : 4:2:0
  17. Bit depth                                : 10 bits
  18. Bits/(Pixel*Frame)                       : 0.081
  19. Stream size                              : 11.1 GiB (96%)
  20. Language                                 : English
  21. Default                                  : Yes
  22. Forced                                   : No
  23. Color range                              : Full
  24. Audio
  25. ID                                       : 2
  26. Format                                   : E-AC-3
  27. Format/Info                              : Enhanced AC-3
  28. Commercial name                          : Dolby Digital Plus
  29. Codec ID                                 : A_EAC3
  30. Duration                                 : 1 h 38 min
  31. Bit rate mode                            : Constant
  32. Bit rate                                 : 640 kb/s
  33. Channel(s)                               : 6 channels
  34. Channel layout                           : L R C LFE Ls Rs
  35. Sampling rate                            : 48.0 kHz
  36. Frame rate                               : 31.250 FPS (1536 SPF)
  37. Compression mode                         : Lossy
  38. Stream size                              : 453 MiB (4%)
  39. Language                                 : English
  40. Service kind                             : Complete Main
  41. Default                                  : Yes
  42. Forced                                   : No
  43. Text #1
  44. ID                                       : 3
  45. Format                                   : UTF-8
  46. Codec ID                                 : S_TEXT/UTF8
  47. Codec ID/Info                            : UTF-8 Plain Text
  48. Duration                                 : 1 h 32 min
  49. Bit rate                                 : 45 b/s
  50. Frame rate                               : 0.159 FPS
  51. Count of elements                        : 889
  52. Stream size                              : 31.1 KiB (0%)
  53. Language                                 : English
  54. Default                                  : No
  55. Forced                                   : No
  56. Text #2
  57. ID                                       : 4
  58. Format                                   : UTF-8
  59. Codec ID                                 : S_TEXT/UTF8
  60. Codec ID/Info                            : UTF-8 Plain Text
  61. Duration                                 : 1 h 38 min
  62. Bit rate                                 : 96 b/s
  63. Frame rate                               : 0.296 FPS
  64. Count of elements                        : 1748
  65. Stream size                              : 69.3 KiB (0%)
  66. Title                                    : SDH
  67. Language                                 : English
  68. Default                                  : No
  69. Forced                                   : No
  70. Text #3
  71. ID                                       : 5
  72. Format                                   : UTF-8
  73. Codec ID                                 : S_TEXT/UTF8
  74. Codec ID/Info                            : UTF-8 Plain Text
  75. Duration                                 : 1 h 38 min
  76. Bit rate                                 : 123 b/s
  77. Frame rate                               : 0.269 FPS
  78. Count of elements                        : 1591
  79. Stream size                              : 89.1 KiB (0%)
  80. Language                                 : Arabic
  81. Default                                  : No
  82. Forced                                   : No
  83. Text #4
  84. ID                                       : 6
  85. Format                                   : UTF-8
  86. Codec ID                                 : S_TEXT/UTF8
  87. Codec ID/Info                            : UTF-8 Plain Text
  88. Duration                                 : 1 h 38 min
  89. Bit rate                                 : 73 b/s
  90. Frame rate                               : 0.265 FPS
  91. Count of elements                        : 1570
  92. Stream size                              : 52.9 KiB (0%)
  93. Language                                 : Czech
  94. Default                                  : No
  95. Forced                                   : No
  96. Text #5
  97. ID                                       : 7
  98. Format                                   : UTF-8
  99. Codec ID                                 : S_TEXT/UTF8
  100. Codec ID/Info                            : UTF-8 Plain Text
  101. Duration                                 : 1 h 38 min
  102. Bit rate                                 : 74 b/s
  103. Frame rate                               : 0.236 FPS
  104. Count of elements                        : 1394
  105. Stream size                              : 53.7 KiB (0%)
  106. Language                                 : Danish
  107. Default                                  : No
  108. Forced                                   : No
  109. Text #6
  110. ID                                       : 8
  111. Format                                   : UTF-8
  112. Codec ID                                 : S_TEXT/UTF8
  113. Codec ID/Info                            : UTF-8 Plain Text
  114. Duration                                 : 1 h 38 min
  115. Bit rate                                 : 81 b/s
  116. Frame rate                               : 0.257 FPS
  117. Count of elements                        : 1520
  118. Stream size                              : 58.7 KiB (0%)
  119. Language                                 : German
  120. Default                                  : No
  121. Forced                                   : No
  122. Text #7
  123. ID                                       : 9
  124. Format                                   : UTF-8
  125. Codec ID                                 : S_TEXT/UTF8
  126. Codec ID/Info                            : UTF-8 Plain Text
  127. Duration                                 : 1 h 38 min
  128. Bit rate                                 : 126 b/s
  129. Frame rate                               : 0.269 FPS
  130. Count of elements                        : 1591
  131. Stream size                              : 91.2 KiB (0%)
  132. Language                                 : Greek
  133. Default                                  : No
  134. Forced                                   : No
  135. Text #8
  136. ID                                       : 10
  137. Format                                   : UTF-8
  138. Codec ID                                 : S_TEXT/UTF8
  139. Codec ID/Info                            : UTF-8 Plain Text
  140. Duration                                 : 1 h 38 min
  141. Bit rate                                 : 72 b/s
  142. Frame rate                               : 0.266 FPS
  143. Count of elements                        : 1573
  144. Stream size                              : 52.1 KiB (0%)
  145. Title                                    : Latin American
  146. Language                                 : Spanish (Latin America)
  147. Default                                  : No
  148. Forced                                   : No
  149. Text #9
  150. ID                                       : 11
  151. Format                                   : UTF-8
  152. Codec ID                                 : S_TEXT/UTF8
  153. Codec ID/Info                            : UTF-8 Plain Text
  154. Duration                                 : 1 h 38 min
  155. Bit rate                                 : 72 b/s
  156. Frame rate                               : 0.266 FPS
  157. Count of elements                        : 1572
  158. Stream size                              : 52.3 KiB (0%)
  159. Language                                 : Spanish (ES)
  160. Default                                  : No
  161. Forced                                   : No
  162. Text #10
  163. ID                                       : 12
  164. Format                                   : UTF-8
  165. Codec ID                                 : S_TEXT/UTF8
  166. Codec ID/Info                            : UTF-8 Plain Text
  167. Duration                                 : 1 h 38 min
  168. Bit rate                                 : 76 b/s
  169. Frame rate                               : 0.264 FPS
  170. Count of elements                        : 1564
  171. Stream size                              : 55.0 KiB (0%)
  172. Language                                 : Finnish
  173. Default                                  : No
  174. Forced                                   : No
  175. Text #11
  176. ID                                       : 13
  177. Format                                   : UTF-8
  178. Codec ID                                 : S_TEXT/UTF8
  179. Codec ID/Info                            : UTF-8 Plain Text
  180. Duration                                 : 1 h 38 min
  181. Bit rate                                 : 77 b/s
  182. Frame rate                               : 0.268 FPS
  183. Count of elements                        : 1586
  184. Stream size                              : 56.2 KiB (0%)
  185. Language                                 : French
  186. Default                                  : No
  187. Forced                                   : No
  188. Text #12
  189. ID                                       : 14
  190. Format                                   : UTF-8
  191. Codec ID                                 : S_TEXT/UTF8
  192. Codec ID/Info                            : UTF-8 Plain Text
  193. Duration                                 : 1 h 38 min
  194. Bit rate                                 : 111 b/s
  195. Frame rate                               : 0.261 FPS
  196. Count of elements                        : 1546
  197. Stream size                              : 80.2 KiB (0%)
  198. Language                                 : Hebrew
  199. Default                                  : No
  200. Forced                                   : No
  201. Text #13
  202. ID                                       : 15
  203. Format                                   : UTF-8
  204. Codec ID                                 : S_TEXT/UTF8
  205. Codec ID/Info                            : UTF-8 Plain Text
  206. Duration                                 : 1 h 38 min
  207. Bit rate                                 : 68 b/s
  208. Frame rate                               : 0.266 FPS
  209. Count of elements                        : 1572
  210. Stream size                              : 49.3 KiB (0%)
  211. Language                                 : Croatian
  212. Default                                  : No
  213. Forced                                   : No
  214. Text #14
  215. ID                                       : 16
  216. Format                                   : UTF-8
  217. Codec ID                                 : S_TEXT/UTF8
  218. Codec ID/Info                            : UTF-8 Plain Text
  219. Duration                                 : 1 h 38 min
  220. Bit rate                                 : 76 b/s
  221. Frame rate                               : 0.258 FPS
  222. Count of elements                        : 1525
  223. Stream size                              : 55.2 KiB (0%)
  224. Language                                 : Hungarian
  225. Default                                  : No
  226. Forced                                   : No
  227. Text #15
  228. ID                                       : 17
  229. Format                                   : UTF-8
  230. Codec ID                                 : S_TEXT/UTF8
  231. Codec ID/Info                            : UTF-8 Plain Text
  232. Duration                                 : 1 h 38 min
  233. Bit rate                                 : 71 b/s
  234. Frame rate                               : 0.269 FPS
  235. Count of elements                        : 1590
  236. Stream size                              : 51.3 KiB (0%)
  237. Language                                 : Indonesian
  238. Default                                  : No
  239. Forced                                   : No
  240. Text #16
  241. ID                                       : 18
  242. Format                                   : UTF-8
  243. Codec ID                                 : S_TEXT/UTF8
  244. Codec ID/Info                            : UTF-8 Plain Text
  245. Duration                                 : 1 h 38 min
  246. Bit rate                                 : 71 b/s
  247. Frame rate                               : 0.266 FPS
  248. Count of elements                        : 1572
  249. Stream size                              : 51.8 KiB (0%)
  250. Language                                 : Italian
  251. Default                                  : No
  252. Forced                                   : No
  253. Text #17
  254. ID                                       : 19
  255. Format                                   : UTF-8
  256. Codec ID                                 : S_TEXT/UTF8
  257. Codec ID/Info                            : UTF-8 Plain Text
  258. Duration                                 : 1 h 38 min
  259. Bit rate                                 : 71 b/s
  260. Frame rate                               : 0.261 FPS
  261. Count of elements                        : 1545
  262. Stream size                              : 51.7 KiB (0%)
  263. Language                                 : Japanese
  264. Default                                  : No
  265. Forced                                   : No
  266. Text #18
  267. ID                                       : 20
  268. Format                                   : UTF-8
  269. Codec ID                                 : S_TEXT/UTF8
  270. Codec ID/Info                            : UTF-8 Plain Text
  271. Duration                                 : 1 h 38 min
  272. Bit rate                                 : 88 b/s
  273. Frame rate                               : 0.270 FPS
  274. Count of elements                        : 1597
  275. Stream size                              : 63.9 KiB (0%)
  276. Language                                 : Korean
  277. Default                                  : No
  278. Forced                                   : No
  279. Text #19
  280. ID                                       : 21
  281. Format                                   : UTF-8
  282. Codec ID                                 : S_TEXT/UTF8
  283. Codec ID/Info                            : UTF-8 Plain Text
  284. Duration                                 : 1 h 38 min
  285. Bit rate                                 : 77 b/s
  286. Frame rate                               : 0.269 FPS
  287. Count of elements                        : 1592
  288. Stream size                              : 55.8 KiB (0%)
  289. Language                                 : Malay
  290. Default                                  : No
  291. Forced                                   : No
  292. Text #20
  293. ID                                       : 22
  294. Format                                   : UTF-8
  295. Codec ID                                 : S_TEXT/UTF8
  296. Codec ID/Info                            : UTF-8 Plain Text
  297. Duration                                 : 1 h 38 min
  298. Bit rate                                 : 71 b/s
  299. Frame rate                               : 0.254 FPS
  300. Count of elements                        : 1500
  301. Stream size                              : 52.0 KiB (0%)
  302. Language                                 : Norwegian Bokmal
  303. Default                                  : No
  304. Forced                                   : No
  305. Text #21
  306. ID                                       : 23
  307. Format                                   : UTF-8
  308. Codec ID                                 : S_TEXT/UTF8
  309. Codec ID/Info                            : UTF-8 Plain Text
  310. Duration                                 : 1 h 38 min
  311. Bit rate                                 : 68 b/s
  312. Frame rate                               : 0.207 FPS
  313. Count of elements                        : 1227
  314. Stream size                              : 49.6 KiB (0%)
  315. Language                                 : Dutch
  316. Default                                  : No
  317. Forced                                   : No
  318. Text #22
  319. ID                                       : 24
  320. Format                                   : UTF-8
  321. Codec ID                                 : S_TEXT/UTF8
  322. Codec ID/Info                            : UTF-8 Plain Text
  323. Duration                                 : 1 h 38 min
  324. Bit rate                                 : 69 b/s
  325. Frame rate                               : 0.263 FPS
  326. Count of elements                        : 1556
  327. Stream size                              : 50.2 KiB (0%)
  328. Language                                 : Polish
  329. Default                                  : No
  330. Forced                                   : No
  331. Text #23
  332. ID                                       : 25
  333. Format                                   : UTF-8
  334. Codec ID                                 : S_TEXT/UTF8
  335. Codec ID/Info                            : UTF-8 Plain Text
  336. Duration                                 : 1 h 38 min
  337. Bit rate                                 : 76 b/s
  338. Frame rate                               : 0.267 FPS
  339. Count of elements                        : 1579
  340. Stream size                              : 55.1 KiB (0%)
  341. Title                                    : Brazilian
  342. Language                                 : Portuguese (BR)
  343. Default                                  : No
  344. Forced                                   : No
  345. Text #24
  346. ID                                       : 26
  347. Format                                   : UTF-8
  348. Codec ID                                 : S_TEXT/UTF8
  349. Codec ID/Info                            : UTF-8 Plain Text
  350. Duration                                 : 1 h 38 min
  351. Bit rate                                 : 79 b/s
  352. Frame rate                               : 0.266 FPS
  353. Count of elements                        : 1574
  354. Stream size                              : 57.3 KiB (0%)
  355. Language                                 : Portuguese (PT)
  356. Default                                  : No
  357. Forced                                   : No
  358. Text #25
  359. ID                                       : 27
  360. Format                                   : UTF-8
  361. Codec ID                                 : S_TEXT/UTF8
  362. Codec ID/Info                            : UTF-8 Plain Text
  363. Duration                                 : 1 h 38 min
  364. Bit rate                                 : 80 b/s
  365. Frame rate                               : 0.255 FPS
  366. Count of elements                        : 1511
  367. Stream size                              : 58.3 KiB (0%)
  368. Language                                 : Romanian
  369. Default                                  : No
  370. Forced                                   : No
  371. Text #26
  372. ID                                       : 28
  373. Format                                   : UTF-8
  374. Codec ID                                 : S_TEXT/UTF8
  375. Codec ID/Info                            : UTF-8 Plain Text
  376. Duration                                 : 1 h 38 min
  377. Bit rate                                 : 109 b/s
  378. Frame rate                               : 0.268 FPS
  379. Count of elements                        : 1583
  380. Stream size                              : 79.4 KiB (0%)
  381. Language                                 : Russian
  382. Default                                  : No
  383. Forced                                   : No
  384. Text #27
  385. ID                                       : 29
  386. Format                                   : UTF-8
  387. Codec ID                                 : S_TEXT/UTF8
  388. Codec ID/Info                            : UTF-8 Plain Text
  389. Duration                                 : 1 h 38 min
  390. Bit rate                                 : 70 b/s
  391. Frame rate                               : 0.225 FPS
  392. Count of elements                        : 1331
  393. Stream size                              : 50.8 KiB (0%)
  394. Language                                 : Swedish
  395. Default                                  : No
  396. Forced                                   : No
  397. Text #28
  398. ID                                       : 30
  399. Format                                   : UTF-8
  400. Codec ID                                 : S_TEXT/UTF8
  401. Codec ID/Info                            : UTF-8 Plain Text
  402. Duration                                 : 1 h 38 min
  403. Bit rate                                 : 187 b/s
  404. Frame rate                               : 0.269 FPS
  405. Count of elements                        : 1594
  406. Stream size                              : 136 KiB (0%)
  407. Language                                 : Thai
  408. Default                                  : No
  409. Forced                                   : No
  410. Text #29
  411. ID                                       : 31
  412. Format                                   : UTF-8
  413. Codec ID                                 : S_TEXT/UTF8
  414. Codec ID/Info                            : UTF-8 Plain Text
  415. Duration                                 : 1 h 38 min
  416. Bit rate                                 : 73 b/s
  417. Frame rate                               : 0.262 FPS
  418. Count of elements                        : 1553
  419. Stream size                              : 52.8 KiB (0%)
  420. Language                                 : Turkish
  421. Default                                  : No
  422. Forced                                   : No
  423. Text #30
  424. ID                                       : 32
  425. Format                                   : UTF-8
  426. Codec ID                                 : S_TEXT/UTF8
  427. Codec ID/Info                            : UTF-8 Plain Text
  428. Duration                                 : 1 h 38 min
  429. Bit rate                                 : 120 b/s
  430. Frame rate                               : 0.260 FPS
  431. Count of elements                        : 1538
  432. Stream size                              : 87.0 KiB (0%)
  433. Language                                 : Ukrainian
  434. Default                                  : No
  435. Forced                                   : No
  436. Text #31
  437. ID                                       : 33
  438. Format                                   : UTF-8
  439. Codec ID                                 : S_TEXT/UTF8
  440. Codec ID/Info                            : UTF-8 Plain Text
  441. Duration                                 : 1 h 38 min
  442. Bit rate                                 : 109 b/s
  443. Frame rate                               : 0.269 FPS
  444. Count of elements                        : 1593
  445. Stream size                              : 79.2 KiB (0%)
  446. Language                                 : Vietnamese
  447. Default                                  : No
  448. Forced                                   : No
  449. Text #32
  450. ID                                       : 34
  451. Format                                   : UTF-8
  452. Codec ID                                 : S_TEXT/UTF8
  453. Codec ID/Info                            : UTF-8 Plain Text
  454. Duration                                 : 1 h 38 min
  455. Bit rate                                 : 72 b/s
  456. Frame rate                               : 0.292 FPS
  457. Count of elements                        : 1726
  458. Stream size                              : 52.6 KiB (0%)
  459. Title                                    : Simplified
  460. Language                                 : Chinese (Simplied)
  461. Default                                  : No
  462. Forced                                   : No
  463. Text #33
  464. ID                                       : 35
  465. Format                                   : UTF-8
  466. Codec ID                                 : S_TEXT/UTF8
  467. Codec ID/Info                            : UTF-8 Plain Text
  468. Duration                                 : 1 h 38 min
  469. Bit rate                                 : 67 b/s
  470. Frame rate                               : 0.269 FPS
  471. Count of elements                        : 1594
  472. Stream size                              : 49.1 KiB (0%)
  473. Title                                    : Traditional
  474. Language                                 : Chinese (Traditional)
  475. Default                                  : No
  476. Forced                                   : No
  477. Menu
  478. 01:38:32.000                             : en:End Credits
复制代码











多莉·帕顿:广场上的圣诞节[中笔墨幕].Dolly.Partons.Christmas.on.the.Square.2020.2160p.NF.WEB-DL.DDP5.1.DV.MKV.x265-DETROIT 11.56GB

Dolly.Partons.Christmas.on.the.Square.2020.2160p.NF.WEB-DL.DDP5.1.DV.MKV.x265-DE.torrent

15.14 KB, 下载次数: 6, 下载积分: 蓝光币 -2

回复

使用道具 举报

懒得打字嘛,点击右侧快捷回复 【右侧内容,后台自定义】
您需要登录后才可以回帖 登录 | 立即加入

本版积分规则

Copyright © 2024 Comsenz Inc. Powered by 蓝光电影网

本站内容由用户自主分享和转载自互联网,转载目的在于传递更多信息,并不代表本网赞同其观点和对其真实性负责。

如有侵权、违反国家法律政策行为,请联系我们,我们会第一时间及时清除和处理!

举报反馈邮箱:4k1080.com@gmail.com

快速回复 返回顶部 返回列表