找回密码

查看: 1506|回复: 0

[2160p-WEB] 多莉·帕顿:广场上的圣诞节[中文字幕].Dolly.Partons.Christmas.on.the.Square.2020.2160p.NF.WEB-DL.x265.10bit.SDR.DDP5.1-DETROIT 9.22GB

[复制链接]
蓝光币
1848
发表于 2023-1-3 03:28:12 | 显示全部楼层 |阅读模式


◎标  题 多莉·帕顿:广场上的圣诞节
◎译  名 多莉·帕顿:小镇圣诞爱 / Christmas on the Square
◎片  名 Dolly Parton's Christmas on The Square
◎年  代 2020
◎产  地 美国
◎类  别 笑剧 / 音乐 / 歌舞
◎语  言 英语
◎上映日期 2020-11-22(美国)
◎IMDb评分 5.2/10 (2865人评价)
◎IMDb链接 https://www.imdb.com/title/tt10627548/
◎豆瓣评分 6.1/10 (106人评价)
◎豆瓣链接 https://movie.douban.com/subject/34607622/
◎导  演 黛比·艾伦 Debbie Allen
◎演  员 多莉·帕顿 Dolly Parton
       克里斯汀·芭伦斯基 Christine Baranski
       特里特·威廉斯 Treat Williams
       詹妮弗·路易斯 Jenifer Lewis
       乔什·塞加拉 Josh Segarra
       珍妮·梅森 Jeanine Mason
       道格拉斯·斯利斯 Douglas Sills
       黄景伟 Alex Wong
       Carol Swarbrick Carol Swarbrick
       斯蒂芬·卡迪尔 Stephen Caudill
◎简  介
  观赏这部穿插 14 首 #桃莉·巴顿原创歌曲的 Netflix 佳节音乐片,享用冬青树摇摆的 #2020 圣诞节。                                    
                                《小镇圣诞爱》描写闪闪发光的天使(桃莉)找上小镇裡的「守财奴」雷吉娜·富勒(克莉丝汀·巴伦斯基饰),引领她展开一趟乐音围绕的救赎之旅。吝啬的田主会在圣诞夜把富勒镇的居民统统逐落发门,还是圣诞精神毕竟会融化她的贪心慾望呢?                                    
                                本片由著名编舞家 #黛比·艾伦执导,桃莉的 #圣诞音乐将感动你的心,陪伴每个家庭欢度佳节。这部令人沉迷的音乐片由桃莉·巴顿、克莉丝汀·巴伦斯基、崔特·威廉斯、吉妮·梅森、乔许·塞嘉拉、玛莉·莲恩·哈斯凯尔,以及众多才华弥漫的明星主演。你预备好了吗?载歌载舞的季节已然来到!
  1. Video
  2. ID                                       : 1
  3. Format                                   : HEVC
  4. Format/Info                              : High Efficiency Video Coding
  5. Format profile                           : Main 10@L5@Main
  6. Codec ID                                 : V_MPEGH/ISO/HEVC
  7. Duration                                 : 1 h 38 min
  8. Bit rate                                 : 12.7 Mb/s
  9. Width                                    : 3 840 pixels
  10. Height                                   : 2 160 pixels
  11. Display aspect ratio                     : 16:9
  12. Frame rate mode                          : Constant
  13. Frame rate                               : 23.976 (24000/1001) FPS
  14. Color space                              : YUV
  15. Chroma subsampling                       : 4:2:0
  16. Bit depth                                : 10 bits
  17. Bits/(Pixel*Frame)                       : 0.064
  18. Stream size                              : 8.77 GiB (95%)
  19. Language                                 : English
  20. Default                                  : Yes
  21. Forced                                   : No
  22. Color range                              : Limited
  23. Color primaries                          : BT.709
  24. Transfer characteristics                 : BT.709
  25. Matrix coefficients                      : BT.709
  26. Audio
  27. ID                                       : 2
  28. Format                                   : E-AC-3
  29. Format/Info                              : Enhanced AC-3
  30. Commercial name                          : Dolby Digital Plus
  31. Codec ID                                 : A_EAC3
  32. Duration                                 : 1 h 38 min
  33. Bit rate mode                            : Constant
  34. Bit rate                                 : 640 kb/s
  35. Channel(s)                               : 6 channels
  36. Channel layout                           : L R C LFE Ls Rs
  37. Sampling rate                            : 48.0 kHz
  38. Frame rate                               : 31.250 FPS (1536 SPF)
  39. Compression mode                         : Lossy
  40. Stream size                              : 453 MiB (5%)
  41. Language                                 : English
  42. Service kind                             : Complete Main
  43. Default                                  : Yes
  44. Forced                                   : No
  45. Text #1
  46. ID                                       : 3
  47. Format                                   : UTF-8
  48. Codec ID                                 : S_TEXT/UTF8
  49. Codec ID/Info                            : UTF-8 Plain Text
  50. Duration                                 : 1 h 32 min
  51. Bit rate                                 : 45 b/s
  52. Frame rate                               : 0.159 FPS
  53. Count of elements                        : 889
  54. Stream size                              : 31.1 KiB (0%)
  55. Language                                 : English
  56. Default                                  : No
  57. Forced                                   : No
  58. Text #2
  59. ID                                       : 4
  60. Format                                   : UTF-8
  61. Codec ID                                 : S_TEXT/UTF8
  62. Codec ID/Info                            : UTF-8 Plain Text
  63. Duration                                 : 1 h 38 min
  64. Bit rate                                 : 96 b/s
  65. Frame rate                               : 0.296 FPS
  66. Count of elements                        : 1748
  67. Stream size                              : 69.3 KiB (0%)
  68. Title                                    : SDH
  69. Language                                 : English
  70. Default                                  : No
  71. Forced                                   : No
  72. Text #3
  73. ID                                       : 5
  74. Format                                   : UTF-8
  75. Codec ID                                 : S_TEXT/UTF8
  76. Codec ID/Info                            : UTF-8 Plain Text
  77. Duration                                 : 1 h 38 min
  78. Bit rate                                 : 123 b/s
  79. Frame rate                               : 0.269 FPS
  80. Count of elements                        : 1591
  81. Stream size                              : 89.1 KiB (0%)
  82. Language                                 : Arabic
  83. Default                                  : No
  84. Forced                                   : No
  85. Text #4
  86. ID                                       : 6
  87. Format                                   : UTF-8
  88. Codec ID                                 : S_TEXT/UTF8
  89. Codec ID/Info                            : UTF-8 Plain Text
  90. Duration                                 : 1 h 38 min
  91. Bit rate                                 : 73 b/s
  92. Frame rate                               : 0.265 FPS
  93. Count of elements                        : 1570
  94. Stream size                              : 52.9 KiB (0%)
  95. Language                                 : Czech
  96. Default                                  : No
  97. Forced                                   : No
  98. Text #5
  99. ID                                       : 7
  100. Format                                   : UTF-8
  101. Codec ID                                 : S_TEXT/UTF8
  102. Codec ID/Info                            : UTF-8 Plain Text
  103. Duration                                 : 1 h 38 min
  104. Bit rate                                 : 74 b/s
  105. Frame rate                               : 0.236 FPS
  106. Count of elements                        : 1394
  107. Stream size                              : 53.7 KiB (0%)
  108. Language                                 : Danish
  109. Default                                  : No
  110. Forced                                   : No
  111. Text #6
  112. ID                                       : 8
  113. Format                                   : UTF-8
  114. Codec ID                                 : S_TEXT/UTF8
  115. Codec ID/Info                            : UTF-8 Plain Text
  116. Duration                                 : 1 h 38 min
  117. Bit rate                                 : 81 b/s
  118. Frame rate                               : 0.257 FPS
  119. Count of elements                        : 1520
  120. Stream size                              : 58.7 KiB (0%)
  121. Language                                 : German
  122. Default                                  : No
  123. Forced                                   : No
  124. Text #7
  125. ID                                       : 9
  126. Format                                   : UTF-8
  127. Codec ID                                 : S_TEXT/UTF8
  128. Codec ID/Info                            : UTF-8 Plain Text
  129. Duration                                 : 1 h 38 min
  130. Bit rate                                 : 126 b/s
  131. Frame rate                               : 0.269 FPS
  132. Count of elements                        : 1591
  133. Stream size                              : 91.2 KiB (0%)
  134. Language                                 : Greek
  135. Default                                  : No
  136. Forced                                   : No
  137. Text #8
  138. ID                                       : 10
  139. Format                                   : UTF-8
  140. Codec ID                                 : S_TEXT/UTF8
  141. Codec ID/Info                            : UTF-8 Plain Text
  142. Duration                                 : 1 h 38 min
  143. Bit rate                                 : 72 b/s
  144. Frame rate                               : 0.266 FPS
  145. Count of elements                        : 1573
  146. Stream size                              : 52.1 KiB (0%)
  147. Title                                    : Latin American
  148. Language                                 : Spanish (Latin America)
  149. Default                                  : No
  150. Forced                                   : No
  151. Text #9
  152. ID                                       : 11
  153. Format                                   : UTF-8
  154. Codec ID                                 : S_TEXT/UTF8
  155. Codec ID/Info                            : UTF-8 Plain Text
  156. Duration                                 : 1 h 38 min
  157. Bit rate                                 : 72 b/s
  158. Frame rate                               : 0.266 FPS
  159. Count of elements                        : 1572
  160. Stream size                              : 52.3 KiB (0%)
  161. Language                                 : Spanish (ES)
  162. Default                                  : No
  163. Forced                                   : No
  164. Text #10
  165. ID                                       : 12
  166. Format                                   : UTF-8
  167. Codec ID                                 : S_TEXT/UTF8
  168. Codec ID/Info                            : UTF-8 Plain Text
  169. Duration                                 : 1 h 38 min
  170. Bit rate                                 : 76 b/s
  171. Frame rate                               : 0.264 FPS
  172. Count of elements                        : 1564
  173. Stream size                              : 55.0 KiB (0%)
  174. Language                                 : Finnish
  175. Default                                  : No
  176. Forced                                   : No
  177. Text #11
  178. ID                                       : 13
  179. Format                                   : UTF-8
  180. Codec ID                                 : S_TEXT/UTF8
  181. Codec ID/Info                            : UTF-8 Plain Text
  182. Duration                                 : 1 h 38 min
  183. Bit rate                                 : 77 b/s
  184. Frame rate                               : 0.268 FPS
  185. Count of elements                        : 1586
  186. Stream size                              : 56.2 KiB (0%)
  187. Language                                 : French
  188. Default                                  : No
  189. Forced                                   : No
  190. Text #12
  191. ID                                       : 14
  192. Format                                   : UTF-8
  193. Codec ID                                 : S_TEXT/UTF8
  194. Codec ID/Info                            : UTF-8 Plain Text
  195. Duration                                 : 1 h 38 min
  196. Bit rate                                 : 111 b/s
  197. Frame rate                               : 0.261 FPS
  198. Count of elements                        : 1546
  199. Stream size                              : 80.2 KiB (0%)
  200. Language                                 : Hebrew
  201. Default                                  : No
  202. Forced                                   : No
  203. Text #13
  204. ID                                       : 15
  205. Format                                   : UTF-8
  206. Codec ID                                 : S_TEXT/UTF8
  207. Codec ID/Info                            : UTF-8 Plain Text
  208. Duration                                 : 1 h 38 min
  209. Bit rate                                 : 68 b/s
  210. Frame rate                               : 0.266 FPS
  211. Count of elements                        : 1572
  212. Stream size                              : 49.3 KiB (0%)
  213. Language                                 : Croatian
  214. Default                                  : No
  215. Forced                                   : No
  216. Text #14
  217. ID                                       : 16
  218. Format                                   : UTF-8
  219. Codec ID                                 : S_TEXT/UTF8
  220. Codec ID/Info                            : UTF-8 Plain Text
  221. Duration                                 : 1 h 38 min
  222. Bit rate                                 : 76 b/s
  223. Frame rate                               : 0.258 FPS
  224. Count of elements                        : 1525
  225. Stream size                              : 55.2 KiB (0%)
  226. Language                                 : Hungarian
  227. Default                                  : No
  228. Forced                                   : No
  229. Text #15
  230. ID                                       : 17
  231. Format                                   : UTF-8
  232. Codec ID                                 : S_TEXT/UTF8
  233. Codec ID/Info                            : UTF-8 Plain Text
  234. Duration                                 : 1 h 38 min
  235. Bit rate                                 : 71 b/s
  236. Frame rate                               : 0.269 FPS
  237. Count of elements                        : 1590
  238. Stream size                              : 51.3 KiB (0%)
  239. Language                                 : Indonesian
  240. Default                                  : No
  241. Forced                                   : No
  242. Text #16
  243. ID                                       : 18
  244. Format                                   : UTF-8
  245. Codec ID                                 : S_TEXT/UTF8
  246. Codec ID/Info                            : UTF-8 Plain Text
  247. Duration                                 : 1 h 38 min
  248. Bit rate                                 : 71 b/s
  249. Frame rate                               : 0.266 FPS
  250. Count of elements                        : 1572
  251. Stream size                              : 51.8 KiB (0%)
  252. Language                                 : Italian
  253. Default                                  : No
  254. Forced                                   : No
  255. Text #17
  256. ID                                       : 19
  257. Format                                   : UTF-8
  258. Codec ID                                 : S_TEXT/UTF8
  259. Codec ID/Info                            : UTF-8 Plain Text
  260. Duration                                 : 1 h 38 min
  261. Bit rate                                 : 71 b/s
  262. Frame rate                               : 0.261 FPS
  263. Count of elements                        : 1545
  264. Stream size                              : 51.7 KiB (0%)
  265. Language                                 : Japanese
  266. Default                                  : No
  267. Forced                                   : No
  268. Text #18
  269. ID                                       : 20
  270. Format                                   : UTF-8
  271. Codec ID                                 : S_TEXT/UTF8
  272. Codec ID/Info                            : UTF-8 Plain Text
  273. Duration                                 : 1 h 38 min
  274. Bit rate                                 : 88 b/s
  275. Frame rate                               : 0.270 FPS
  276. Count of elements                        : 1597
  277. Stream size                              : 63.9 KiB (0%)
  278. Language                                 : Korean
  279. Default                                  : No
  280. Forced                                   : No
  281. Text #19
  282. ID                                       : 21
  283. Format                                   : UTF-8
  284. Codec ID                                 : S_TEXT/UTF8
  285. Codec ID/Info                            : UTF-8 Plain Text
  286. Duration                                 : 1 h 38 min
  287. Bit rate                                 : 77 b/s
  288. Frame rate                               : 0.269 FPS
  289. Count of elements                        : 1592
  290. Stream size                              : 55.8 KiB (0%)
  291. Language                                 : Malay
  292. Default                                  : No
  293. Forced                                   : No
  294. Text #20
  295. ID                                       : 22
  296. Format                                   : UTF-8
  297. Codec ID                                 : S_TEXT/UTF8
  298. Codec ID/Info                            : UTF-8 Plain Text
  299. Duration                                 : 1 h 38 min
  300. Bit rate                                 : 71 b/s
  301. Frame rate                               : 0.254 FPS
  302. Count of elements                        : 1500
  303. Stream size                              : 52.0 KiB (0%)
  304. Language                                 : Norwegian Bokmal
  305. Default                                  : No
  306. Forced                                   : No
  307. Text #21
  308. ID                                       : 23
  309. Format                                   : UTF-8
  310. Codec ID                                 : S_TEXT/UTF8
  311. Codec ID/Info                            : UTF-8 Plain Text
  312. Duration                                 : 1 h 38 min
  313. Bit rate                                 : 68 b/s
  314. Frame rate                               : 0.207 FPS
  315. Count of elements                        : 1227
  316. Stream size                              : 49.6 KiB (0%)
  317. Language                                 : Dutch
  318. Default                                  : No
  319. Forced                                   : No
  320. Text #22
  321. ID                                       : 24
  322. Format                                   : UTF-8
  323. Codec ID                                 : S_TEXT/UTF8
  324. Codec ID/Info                            : UTF-8 Plain Text
  325. Duration                                 : 1 h 38 min
  326. Bit rate                                 : 69 b/s
  327. Frame rate                               : 0.263 FPS
  328. Count of elements                        : 1556
  329. Stream size                              : 50.2 KiB (0%)
  330. Language                                 : Polish
  331. Default                                  : No
  332. Forced                                   : No
  333. Text #23
  334. ID                                       : 25
  335. Format                                   : UTF-8
  336. Codec ID                                 : S_TEXT/UTF8
  337. Codec ID/Info                            : UTF-8 Plain Text
  338. Duration                                 : 1 h 38 min
  339. Bit rate                                 : 76 b/s
  340. Frame rate                               : 0.267 FPS
  341. Count of elements                        : 1579
  342. Stream size                              : 55.1 KiB (0%)
  343. Title                                    : Brazilian
  344. Language                                 : Portuguese (BR)
  345. Default                                  : No
  346. Forced                                   : No
  347. Text #24
  348. ID                                       : 26
  349. Format                                   : UTF-8
  350. Codec ID                                 : S_TEXT/UTF8
  351. Codec ID/Info                            : UTF-8 Plain Text
  352. Duration                                 : 1 h 38 min
  353. Bit rate                                 : 79 b/s
  354. Frame rate                               : 0.266 FPS
  355. Count of elements                        : 1574
  356. Stream size                              : 57.3 KiB (0%)
  357. Language                                 : Portuguese (PT)
  358. Default                                  : No
  359. Forced                                   : No
  360. Text #25
  361. ID                                       : 27
  362. Format                                   : UTF-8
  363. Codec ID                                 : S_TEXT/UTF8
  364. Codec ID/Info                            : UTF-8 Plain Text
  365. Duration                                 : 1 h 38 min
  366. Bit rate                                 : 80 b/s
  367. Frame rate                               : 0.255 FPS
  368. Count of elements                        : 1511
  369. Stream size                              : 58.3 KiB (0%)
  370. Language                                 : Romanian
  371. Default                                  : No
  372. Forced                                   : No
  373. Text #26
  374. ID                                       : 28
  375. Format                                   : UTF-8
  376. Codec ID                                 : S_TEXT/UTF8
  377. Codec ID/Info                            : UTF-8 Plain Text
  378. Duration                                 : 1 h 38 min
  379. Bit rate                                 : 109 b/s
  380. Frame rate                               : 0.268 FPS
  381. Count of elements                        : 1583
  382. Stream size                              : 79.4 KiB (0%)
  383. Language                                 : Russian
  384. Default                                  : No
  385. Forced                                   : No
  386. Text #27
  387. ID                                       : 29
  388. Format                                   : UTF-8
  389. Codec ID                                 : S_TEXT/UTF8
  390. Codec ID/Info                            : UTF-8 Plain Text
  391. Duration                                 : 1 h 38 min
  392. Bit rate                                 : 70 b/s
  393. Frame rate                               : 0.225 FPS
  394. Count of elements                        : 1331
  395. Stream size                              : 50.8 KiB (0%)
  396. Language                                 : Swedish
  397. Default                                  : No
  398. Forced                                   : No
  399. Text #28
  400. ID                                       : 30
  401. Format                                   : UTF-8
  402. Codec ID                                 : S_TEXT/UTF8
  403. Codec ID/Info                            : UTF-8 Plain Text
  404. Duration                                 : 1 h 38 min
  405. Bit rate                                 : 187 b/s
  406. Frame rate                               : 0.269 FPS
  407. Count of elements                        : 1594
  408. Stream size                              : 136 KiB (0%)
  409. Language                                 : Thai
  410. Default                                  : No
  411. Forced                                   : No
  412. Text #29
  413. ID                                       : 31
  414. Format                                   : UTF-8
  415. Codec ID                                 : S_TEXT/UTF8
  416. Codec ID/Info                            : UTF-8 Plain Text
  417. Duration                                 : 1 h 38 min
  418. Bit rate                                 : 73 b/s
  419. Frame rate                               : 0.262 FPS
  420. Count of elements                        : 1553
  421. Stream size                              : 52.8 KiB (0%)
  422. Language                                 : Turkish
  423. Default                                  : No
  424. Forced                                   : No
  425. Text #30
  426. ID                                       : 32
  427. Format                                   : UTF-8
  428. Codec ID                                 : S_TEXT/UTF8
  429. Codec ID/Info                            : UTF-8 Plain Text
  430. Duration                                 : 1 h 38 min
  431. Bit rate                                 : 120 b/s
  432. Frame rate                               : 0.260 FPS
  433. Count of elements                        : 1538
  434. Stream size                              : 87.0 KiB (0%)
  435. Language                                 : Ukrainian
  436. Default                                  : No
  437. Forced                                   : No
  438. Text #31
  439. ID                                       : 33
  440. Format                                   : UTF-8
  441. Codec ID                                 : S_TEXT/UTF8
  442. Codec ID/Info                            : UTF-8 Plain Text
  443. Duration                                 : 1 h 38 min
  444. Bit rate                                 : 109 b/s
  445. Frame rate                               : 0.269 FPS
  446. Count of elements                        : 1593
  447. Stream size                              : 79.2 KiB (0%)
  448. Language                                 : Vietnamese
  449. Default                                  : No
  450. Forced                                   : No
  451. Text #32
  452. ID                                       : 34
  453. Format                                   : UTF-8
  454. Codec ID                                 : S_TEXT/UTF8
  455. Codec ID/Info                            : UTF-8 Plain Text
  456. Duration                                 : 1 h 38 min
  457. Bit rate                                 : 72 b/s
  458. Frame rate                               : 0.292 FPS
  459. Count of elements                        : 1726
  460. Stream size                              : 52.6 KiB (0%)
  461. Title                                    : Simplified
  462. Language                                 : Chinese (Simplied)
  463. Default                                  : No
  464. Forced                                   : No
  465. Text #33
  466. ID                                       : 35
  467. Format                                   : UTF-8
  468. Codec ID                                 : S_TEXT/UTF8
  469. Codec ID/Info                            : UTF-8 Plain Text
  470. Duration                                 : 1 h 38 min
  471. Bit rate                                 : 67 b/s
  472. Frame rate                               : 0.269 FPS
  473. Count of elements                        : 1594
  474. Stream size                              : 49.1 KiB (0%)
  475. Title                                    : Traditional
  476. Language                                 : Chinese (Traditional)
  477. Default                                  : No
  478. Forced                                   : No
  479. Menu
  480. 01:38:32.000                             : en:End Credits
复制代码











多莉·帕顿:广场上的圣诞节[中笔墨幕].Dolly.Partons.Christmas.on.the.Square.2020.2160p.NF.WEB-DL.x265.10bit.SDR.DDP5.1-DETROIT 9.22GB

Dolly.Partons.Christmas.on.the.Square.2020.2160p.NF.WEB-DL.x265.10bit.SDR.DDP5.1.torrent

23.75 KB, 下载次数: 5, 下载积分: 蓝光币 -2

回复

使用道具 举报

懒得打字嘛,点击右侧快捷回复 【右侧内容,后台自定义】
您需要登录后才可以回帖 登录 | 立即加入

本版积分规则

Copyright © 2024 Comsenz Inc. Powered by 蓝光电影网

本站内容由用户自主分享和转载自互联网,转载目的在于传递更多信息,并不代表本网赞同其观点和对其真实性负责。

如有侵权、违反国家法律政策行为,请联系我们,我们会第一时间及时清除和处理!

举报反馈邮箱:4k1080.com@gmail.com

快速回复 返回顶部 返回列表