找回密码

查看: 1215|回复: 0

[2160p-WEB] 我不是男闺蜜[中文字幕].Friendzone.2021.FRENCH.2160p.NF.WEB-DL.x265.10bit.SDR.DDP5.1-BROZONED 9.40GB

[复制链接]
蓝光币
1840
发表于 2023-1-3 03:28:12 | 显示全部楼层 |阅读模式


◎标  题 我不是男闺蜜
◎片  名 Friendzone
◎年  代 2021
◎产  地 法国
◎类  别 笑剧 / 恋爱
◎语  言 法语
◎上映日期 2021-09-29(法国)
◎IMDb评分 5.9/10 (3706人评价)
◎IMDb链接 https://www.imdb.com/title/tt14700948/
◎豆瓣评分 6.2/10 (232人评价)
◎豆瓣链接 https://movie.douban.com/subject/35580150/
◎片  长 88分钟
◎演  员 马农·阿泽姆 Manon Azem
◎简  介
  Hopeful romantic Thibault believes his luck could change when sparks fly between him and Rose. But can he go from bestie to boyfriend.
  1. Video
  2. ID                                       : 1
  3. Format                                   : HEVC
  4. Format/Info                              : High Efficiency Video Coding
  5. Format profile                           : Main 10@L5@Main
  6. Codec ID                                 : V_MPEGH/ISO/HEVC
  7. Duration                                 : 1 h 28 min
  8. Bit rate                                 : 14.5 Mb/s
  9. Width                                    : 3 840 pixels
  10. Height                                   : 2 160 pixels
  11. Display aspect ratio                     : 16:9
  12. Frame rate mode                          : Constant
  13. Frame rate                               : 25.000 FPS
  14. Color space                              : YUV
  15. Chroma subsampling                       : 4:2:0
  16. Bit depth                                : 10 bits
  17. Bits/(Pixel*Frame)                       : 0.070
  18. Stream size                              : 9.00 GiB (96%)
  19. Language                                 : French
  20. Default                                  : Yes
  21. Forced                                   : No
  22. Color range                              : Limited
  23. Color primaries                          : BT.709
  24. Transfer characteristics                 : BT.709
  25. Matrix coefficients                      : BT.709
  26. Audio
  27. ID                                       : 2
  28. Format                                   : E-AC-3
  29. Format/Info                              : Enhanced AC-3
  30. Commercial name                          : Dolby Digital Plus
  31. Codec ID                                 : A_EAC3
  32. Duration                                 : 1 h 28 min
  33. Bit rate mode                            : Constant
  34. Bit rate                                 : 640 kb/s
  35. Channel(s)                               : 6 channels
  36. Channel layout                           : L R C LFE Ls Rs
  37. Sampling rate                            : 48.0 kHz
  38. Frame rate                               : 31.250 FPS (1536 SPF)
  39. Compression mode                         : Lossy
  40. Stream size                              : 406 MiB (4%)
  41. Language                                 : French
  42. Service kind                             : Complete Main
  43. Default                                  : Yes
  44. Forced                                   : No
  45. Text #1
  46. ID                                       : 3
  47. Format                                   : UTF-8
  48. Codec ID                                 : S_TEXT/UTF8
  49. Codec ID/Info                            : UTF-8 Plain Text
  50. Duration                                 : 1 h 24 min
  51. Bit rate                                 : 59 b/s
  52. Frame rate                               : 0.256 FPS
  53. Count of elements                        : 1295
  54. Stream size                              : 37.0 KiB (0%)
  55. Language                                 : French
  56. Default                                  : No
  57. Forced                                   : No
  58. Text #2
  59. ID                                       : 4
  60. Format                                   : UTF-8
  61. Codec ID                                 : S_TEXT/UTF8
  62. Codec ID/Info                            : UTF-8 Plain Text
  63. Duration                                 : 1 h 24 min
  64. Bit rate                                 : 66 b/s
  65. Frame rate                               : 0.283 FPS
  66. Count of elements                        : 1441
  67. Stream size                              : 41.1 KiB (0%)
  68. Title                                    : SDH
  69. Language                                 : French
  70. Default                                  : No
  71. Forced                                   : No
  72. Text #3
  73. ID                                       : 5
  74. Format                                   : UTF-8
  75. Codec ID                                 : S_TEXT/UTF8
  76. Codec ID/Info                            : UTF-8 Plain Text
  77. Duration                                 : 1 h 27 min
  78. Bit rate                                 : 81 b/s
  79. Frame rate                               : 0.244 FPS
  80. Count of elements                        : 1278
  81. Stream size                              : 52.0 KiB (0%)
  82. Language                                 : Arabic
  83. Default                                  : No
  84. Forced                                   : No
  85. Text #4
  86. ID                                       : 6
  87. Format                                   : UTF-8
  88. Codec ID                                 : S_TEXT/UTF8
  89. Codec ID/Info                            : UTF-8 Plain Text
  90. Duration                                 : 1 h 27 min
  91. Bit rate                                 : 46 b/s
  92. Frame rate                               : 0.232 FPS
  93. Count of elements                        : 1218
  94. Stream size                              : 30.0 KiB (0%)
  95. Language                                 : Czech
  96. Default                                  : No
  97. Forced                                   : No
  98. Text #5
  99. ID                                       : 7
  100. Format                                   : UTF-8
  101. Codec ID                                 : S_TEXT/UTF8
  102. Codec ID/Info                            : UTF-8 Plain Text
  103. Duration                                 : 1 h 27 min
  104. Bit rate                                 : 43 b/s
  105. Frame rate                               : 0.225 FPS
  106. Count of elements                        : 1182
  107. Stream size                              : 28.1 KiB (0%)
  108. Language                                 : Danish
  109. Default                                  : No
  110. Forced                                   : No
  111. Text #6
  112. ID                                       : 8
  113. Format                                   : UTF-8
  114. Codec ID                                 : S_TEXT/UTF8
  115. Codec ID/Info                            : UTF-8 Plain Text
  116. Duration                                 : 1 h 27 min
  117. Bit rate                                 : 46 b/s
  118. Frame rate                               : 0.204 FPS
  119. Count of elements                        : 1069
  120. Stream size                              : 29.8 KiB (0%)
  121. Language                                 : German
  122. Default                                  : No
  123. Forced                                   : No
  124. Text #7
  125. ID                                       : 9
  126. Format                                   : UTF-8
  127. Codec ID                                 : S_TEXT/UTF8
  128. Codec ID/Info                            : UTF-8 Plain Text
  129. Duration                                 : 1 h 27 min
  130. Bit rate                                 : 79 b/s
  131. Frame rate                               : 0.230 FPS
  132. Count of elements                        : 1208
  133. Stream size                              : 50.6 KiB (0%)
  134. Language                                 : Greek
  135. Default                                  : No
  136. Forced                                   : No
  137. Text #8
  138. ID                                       : 10
  139. Format                                   : UTF-8
  140. Codec ID                                 : S_TEXT/UTF8
  141. Codec ID/Info                            : UTF-8 Plain Text
  142. Duration                                 : 1 h 27 min
  143. Bit rate                                 : 44 b/s
  144. Frame rate                               : 0.239 FPS
  145. Count of elements                        : 1253
  146. Stream size                              : 28.5 KiB (0%)
  147. Language                                 : English
  148. Default                                  : No
  149. Forced                                   : No
  150. Text #9
  151. ID                                       : 11
  152. Format                                   : UTF-8
  153. Codec ID                                 : S_TEXT/UTF8
  154. Codec ID/Info                            : UTF-8 Plain Text
  155. Duration                                 : 1 h 27 min
  156. Bit rate                                 : 60 b/s
  157. Frame rate                               : 0.282 FPS
  158. Count of elements                        : 1479
  159. Stream size                              : 38.7 KiB (0%)
  160. Title                                    : SDH
  161. Language                                 : English
  162. Default                                  : No
  163. Forced                                   : No
  164. Text #10
  165. ID                                       : 12
  166. Format                                   : UTF-8
  167. Codec ID                                 : S_TEXT/UTF8
  168. Codec ID/Info                            : UTF-8 Plain Text
  169. Duration                                 : 1 h 27 min
  170. Bit rate                                 : 45 b/s
  171. Frame rate                               : 0.229 FPS
  172. Count of elements                        : 1204
  173. Stream size                              : 29.2 KiB (0%)
  174. Title                                    : Latin American
  175. Language                                 : Spanish (Latin America)
  176. Default                                  : No
  177. Forced                                   : No
  178. Text #11
  179. ID                                       : 13
  180. Format                                   : UTF-8
  181. Codec ID                                 : S_TEXT/UTF8
  182. Codec ID/Info                            : UTF-8 Plain Text
  183. Duration                                 : 1 h 27 min
  184. Bit rate                                 : 44 b/s
  185. Frame rate                               : 0.233 FPS
  186. Count of elements                        : 1225
  187. Stream size                              : 28.5 KiB (0%)
  188. Language                                 : Spanish (ES)
  189. Default                                  : No
  190. Forced                                   : No
  191. Text #12
  192. ID                                       : 14
  193. Format                                   : UTF-8
  194. Codec ID                                 : S_TEXT/UTF8
  195. Codec ID/Info                            : UTF-8 Plain Text
  196. Duration                                 : 1 h 27 min
  197. Bit rate                                 : 43 b/s
  198. Frame rate                               : 0.155 FPS
  199. Count of elements                        : 815
  200. Stream size                              : 27.8 KiB (0%)
  201. Language                                 : Finnish
  202. Default                                  : No
  203. Forced                                   : No
  204. Text #13
  205. ID                                       : 15
  206. Format                                   : UTF-8
  207. Codec ID                                 : S_TEXT/UTF8
  208. Codec ID/Info                            : UTF-8 Plain Text
  209. Duration                                 : 1 h 27 min
  210. Bit rate                                 : 76 b/s
  211. Frame rate                               : 0.245 FPS
  212. Count of elements                        : 1285
  213. Stream size                              : 49.2 KiB (0%)
  214. Language                                 : Hebrew
  215. Default                                  : No
  216. Forced                                   : No
  217. Text #14
  218. ID                                       : 16
  219. Format                                   : UTF-8
  220. Codec ID                                 : S_TEXT/UTF8
  221. Codec ID/Info                            : UTF-8 Plain Text
  222. Duration                                 : 1 h 27 min
  223. Bit rate                                 : 40 b/s
  224. Frame rate                               : 0.208 FPS
  225. Count of elements                        : 1094
  226. Stream size                              : 26.2 KiB (0%)
  227. Language                                 : Croatian
  228. Default                                  : No
  229. Forced                                   : No
  230. Text #15
  231. ID                                       : 17
  232. Format                                   : UTF-8
  233. Codec ID                                 : S_TEXT/UTF8
  234. Codec ID/Info                            : UTF-8 Plain Text
  235. Duration                                 : 1 h 27 min
  236. Bit rate                                 : 47 b/s
  237. Frame rate                               : 0.208 FPS
  238. Count of elements                        : 1090
  239. Stream size                              : 30.5 KiB (0%)
  240. Language                                 : Hungarian
  241. Default                                  : No
  242. Forced                                   : No
  243. Text #16
  244. ID                                       : 18
  245. Format                                   : UTF-8
  246. Codec ID                                 : S_TEXT/UTF8
  247. Codec ID/Info                            : UTF-8 Plain Text
  248. Duration                                 : 1 h 27 min
  249. Bit rate                                 : 46 b/s
  250. Frame rate                               : 0.231 FPS
  251. Count of elements                        : 1210
  252. Stream size                              : 29.5 KiB (0%)
  253. Language                                 : Indonesian
  254. Default                                  : No
  255. Forced                                   : No
  256. Text #17
  257. ID                                       : 19
  258. Format                                   : UTF-8
  259. Codec ID                                 : S_TEXT/UTF8
  260. Codec ID/Info                            : UTF-8 Plain Text
  261. Duration                                 : 1 h 27 min
  262. Bit rate                                 : 46 b/s
  263. Frame rate                               : 0.222 FPS
  264. Count of elements                        : 1163
  265. Stream size                              : 29.5 KiB (0%)
  266. Language                                 : Italian
  267. Default                                  : No
  268. Forced                                   : No
  269. Text #18
  270. ID                                       : 20
  271. Format                                   : UTF-8
  272. Codec ID                                 : S_TEXT/UTF8
  273. Codec ID/Info                            : UTF-8 Plain Text
  274. Duration                                 : 1 h 27 min
  275. Bit rate                                 : 44 b/s
  276. Frame rate                               : 0.214 FPS
  277. Count of elements                        : 1123
  278. Stream size                              : 28.6 KiB (0%)
  279. Language                                 : Japanese
  280. Default                                  : No
  281. Forced                                   : No
  282. Text #19
  283. ID                                       : 21
  284. Format                                   : UTF-8
  285. Codec ID                                 : S_TEXT/UTF8
  286. Codec ID/Info                            : UTF-8 Plain Text
  287. Duration                                 : 1 h 27 min
  288. Bit rate                                 : 67 b/s
  289. Frame rate                               : 0.246 FPS
  290. Count of elements                        : 1289
  291. Stream size                              : 42.9 KiB (0%)
  292. Language                                 : Korean
  293. Default                                  : No
  294. Forced                                   : No
  295. Text #20
  296. ID                                       : 22
  297. Format                                   : UTF-8
  298. Codec ID                                 : S_TEXT/UTF8
  299. Codec ID/Info                            : UTF-8 Plain Text
  300. Duration                                 : 1 h 27 min
  301. Bit rate                                 : 46 b/s
  302. Frame rate                               : 0.245 FPS
  303. Count of elements                        : 1284
  304. Stream size                              : 29.6 KiB (0%)
  305. Language                                 : Malay
  306. Default                                  : No
  307. Forced                                   : No
  308. Text #21
  309. ID                                       : 23
  310. Format                                   : UTF-8
  311. Codec ID                                 : S_TEXT/UTF8
  312. Codec ID/Info                            : UTF-8 Plain Text
  313. Duration                                 : 1 h 25 min
  314. Bit rate                                 : 49 b/s
  315. Frame rate                               : 0.183 FPS
  316. Count of elements                        : 939
  317. Stream size                              : 31.3 KiB (0%)
  318. Language                                 : Norwegian Bokmal
  319. Default                                  : No
  320. Forced                                   : No
  321. Text #22
  322. ID                                       : 24
  323. Format                                   : UTF-8
  324. Codec ID                                 : S_TEXT/UTF8
  325. Codec ID/Info                            : UTF-8 Plain Text
  326. Duration                                 : 1 h 25 min
  327. Bit rate                                 : 44 b/s
  328. Frame rate                               : 0.221 FPS
  329. Count of elements                        : 1134
  330. Stream size                              : 28.0 KiB (0%)
  331. Language                                 : Dutch
  332. Default                                  : No
  333. Forced                                   : No
  334. Text #23
  335. ID                                       : 25
  336. Format                                   : UTF-8
  337. Codec ID                                 : S_TEXT/UTF8
  338. Codec ID/Info                            : UTF-8 Plain Text
  339. Duration                                 : 1 h 27 min
  340. Bit rate                                 : 44 b/s
  341. Frame rate                               : 0.242 FPS
  342. Count of elements                        : 1268
  343. Stream size                              : 28.3 KiB (0%)
  344. Language                                 : Polish
  345. Default                                  : No
  346. Forced                                   : No
  347. Text #24
  348. ID                                       : 26
  349. Format                                   : UTF-8
  350. Codec ID                                 : S_TEXT/UTF8
  351. Codec ID/Info                            : UTF-8 Plain Text
  352. Duration                                 : 1 h 27 min
  353. Bit rate                                 : 44 b/s
  354. Frame rate                               : 0.242 FPS
  355. Count of elements                        : 1269
  356. Stream size                              : 28.5 KiB (0%)
  357. Title                                    : Brazilian
  358. Language                                 : Portuguese (BR)
  359. Default                                  : No
  360. Forced                                   : No
  361. Text #25
  362. ID                                       : 27
  363. Format                                   : UTF-8
  364. Codec ID                                 : S_TEXT/UTF8
  365. Codec ID/Info                            : UTF-8 Plain Text
  366. Duration                                 : 1 h 25 min
  367. Bit rate                                 : 48 b/s
  368. Frame rate                               : 0.185 FPS
  369. Count of elements                        : 951
  370. Stream size                              : 30.3 KiB (0%)
  371. Language                                 : Portuguese (PT)
  372. Default                                  : No
  373. Forced                                   : No
  374. Text #26
  375. ID                                       : 28
  376. Format                                   : UTF-8
  377. Codec ID                                 : S_TEXT/UTF8
  378. Codec ID/Info                            : UTF-8 Plain Text
  379. Duration                                 : 1 h 27 min
  380. Bit rate                                 : 50 b/s
  381. Frame rate                               : 0.241 FPS
  382. Count of elements                        : 1264
  383. Stream size                              : 32.2 KiB (0%)
  384. Language                                 : Romanian
  385. Default                                  : No
  386. Forced                                   : No
  387. Text #27
  388. ID                                       : 29
  389. Format                                   : UTF-8
  390. Codec ID                                 : S_TEXT/UTF8
  391. Codec ID/Info                            : UTF-8 Plain Text
  392. Duration                                 : 1 h 27 min
  393. Bit rate                                 : 71 b/s
  394. Frame rate                               : 0.231 FPS
  395. Count of elements                        : 1212
  396. Stream size                              : 45.9 KiB (0%)
  397. Language                                 : Russian
  398. Default                                  : No
  399. Forced                                   : No
  400. Text #28
  401. ID                                       : 30
  402. Format                                   : UTF-8
  403. Codec ID                                 : S_TEXT/UTF8
  404. Codec ID/Info                            : UTF-8 Plain Text
  405. Duration                                 : 1 h 27 min
  406. Bit rate                                 : 48 b/s
  407. Frame rate                               : 0.218 FPS
  408. Count of elements                        : 1142
  409. Stream size                              : 31.1 KiB (0%)
  410. Language                                 : Swedish
  411. Default                                  : No
  412. Forced                                   : No
  413. Text #29
  414. ID                                       : 31
  415. Format                                   : UTF-8
  416. Codec ID                                 : S_TEXT/UTF8
  417. Codec ID/Info                            : UTF-8 Plain Text
  418. Duration                                 : 1 h 27 min
  419. Bit rate                                 : 121 b/s
  420. Frame rate                               : 0.245 FPS
  421. Count of elements                        : 1284
  422. Stream size                              : 77.7 KiB (0%)
  423. Language                                 : Thai
  424. Default                                  : No
  425. Forced                                   : No
  426. Text #30
  427. ID                                       : 32
  428. Format                                   : UTF-8
  429. Codec ID                                 : S_TEXT/UTF8
  430. Codec ID/Info                            : UTF-8 Plain Text
  431. Duration                                 : 1 h 27 min
  432. Bit rate                                 : 46 b/s
  433. Frame rate                               : 0.227 FPS
  434. Count of elements                        : 1190
  435. Stream size                              : 30.0 KiB (0%)
  436. Language                                 : Turkish
  437. Default                                  : No
  438. Forced                                   : No
  439. Text #31
  440. ID                                       : 33
  441. Format                                   : UTF-8
  442. Codec ID                                 : S_TEXT/UTF8
  443. Codec ID/Info                            : UTF-8 Plain Text
  444. Duration                                 : 1 h 27 min
  445. Bit rate                                 : 74 b/s
  446. Frame rate                               : 0.242 FPS
  447. Count of elements                        : 1271
  448. Stream size                              : 48.0 KiB (0%)
  449. Language                                 : Ukrainian
  450. Default                                  : No
  451. Forced                                   : No
  452. Text #32
  453. ID                                       : 34
  454. Format                                   : UTF-8
  455. Codec ID                                 : S_TEXT/UTF8
  456. Codec ID/Info                            : UTF-8 Plain Text
  457. Duration                                 : 1 h 27 min
  458. Bit rate                                 : 69 b/s
  459. Frame rate                               : 0.216 FPS
  460. Count of elements                        : 1136
  461. Stream size                              : 44.3 KiB (0%)
  462. Language                                 : Vietnamese
  463. Default                                  : No
  464. Forced                                   : No
  465. Text #33
  466. ID                                       : 35
  467. Format                                   : UTF-8
  468. Codec ID                                 : S_TEXT/UTF8
  469. Codec ID/Info                            : UTF-8 Plain Text
  470. Duration                                 : 1 h 27 min
  471. Bit rate                                 : 53 b/s
  472. Frame rate                               : 0.245 FPS
  473. Count of elements                        : 1284
  474. Stream size                              : 34.0 KiB (0%)
  475. Title                                    : Simplified
  476. Language                                 : Chinese (Simplied)
  477. Default                                  : No
  478. Forced                                   : No
  479. Text #34
  480. ID                                       : 36
  481. Format                                   : UTF-8
  482. Codec ID                                 : S_TEXT/UTF8
  483. Codec ID/Info                            : UTF-8 Plain Text
  484. Duration                                 : 1 h 27 min
  485. Bit rate                                 : 46 b/s
  486. Frame rate                               : 0.245 FPS
  487. Count of elements                        : 1284
  488. Stream size                              : 29.7 KiB (0%)
  489. Title                                    : Traditional
  490. Language                                 : Chinese (Traditional)
  491. Default                                  : No
  492. Forced                                   : No
  493. Menu
  494. 01:25:36.000                             : en:End Credits
复制代码











回复

使用道具 举报

懒得打字嘛,点击右侧快捷回复 【右侧内容,后台自定义】
您需要登录后才可以回帖 登录 | 立即加入

本版积分规则

Copyright © 2024 Comsenz Inc. Powered by 蓝光电影网

本站内容由用户自主分享和转载自互联网,转载目的在于传递更多信息,并不代表本网赞同其观点和对其真实性负责。

如有侵权、违反国家法律政策行为,请联系我们,我们会第一时间及时清除和处理!

举报反馈邮箱:4k1080.com@gmail.com

快速回复 返回顶部 返回列表