找回密码

查看: 1820|回复: 0

[2160p-WEB] 肖恩·门德斯:巡回演唱会纪实[中文字幕].Shawn.Mendes.Live.in.Concert.2020.2160p.NF.WEB-DL.x265.10bit.HDR.DDP5.1.Atmos-ENDISNEAR 10.30GB

[复制链接]
蓝光币
1840
发表于 2023-1-3 03:28:13 | 显示全部楼层 |阅读模式


◎标  题 肖恩·门德斯:巡回演唱会纪实
◎片  名 Shawn Mendes: Live in Concert
◎年  代 2020
◎产  地 加拿大 / 美国
◎类  别 音乐
◎语  言 英语
◎上映日期 2020-11-25(美国收集)
◎IMDb评分 7.2/10 (345人评价)
◎IMDb链接 https://www.imdb.com/title/tt13528990/
◎豆瓣评分 7.5/10 (83人评价)
◎豆瓣链接 https://movie.douban.com/subject/35266608/
◎片  长 87分钟
◎导  演 保罗·达格代尔 Paul Dugdale
◎演  员 肖恩·蒙德兹 Shawn Mendes
◎简  介
  Netfilx于11月25日上线Shawn Mendes: The Tour在多伦多罗杰斯中心的演唱会纪实。
  1. Video
  2. ID                                       : 1
  3. Format                                   : HEVC
  4. Format/Info                              : High Efficiency Video Coding
  5. Format profile                           : Main 10@L5@Main
  6. HDR format                               : Dolby Vision, Version 1.0, dvhe.08.06, BL+RPU, HDR10 compatible / SMPTE ST 2086, HDR10 compatible
  7. Codec ID                                 : V_MPEGH/ISO/HEVC
  8. Duration                                 : 1 h 27 min
  9. Bit rate                                 : 16.2 Mb/s
  10. Width                                    : 3 840 pixels
  11. Height                                   : 2 160 pixels
  12. Display aspect ratio                     : 16:9
  13. Frame rate mode                          : Constant
  14. Frame rate                               : 23.976 (24000/1001) FPS
  15. Color space                              : YUV
  16. Chroma subsampling                       : 4:2:0 (Type 2)
  17. Bit depth                                : 10 bits
  18. Bits/(Pixel*Frame)                       : 0.081
  19. Stream size                              : 9.84 GiB (95%)
  20. Language                                 : English
  21. Default                                  : Yes
  22. Forced                                   : No
  23. Color range                              : Limited
  24. Color primaries                          : BT.2020
  25. Transfer characteristics                 : PQ
  26. Matrix coefficients                      : BT.2020 non-constant
  27. Mastering display color primaries        : Display P3
  28. Mastering display luminance              : min: 0.0001 cd/m2, max: 1000 cd/m2
  29. Maximum Content Light Level              : 1218 cd/m2
  30. Maximum Frame-Average Light Level        : 172 cd/m2
  31. Audio
  32. ID                                       : 2
  33. Format                                   : E-AC-3 JOC
  34. Format/Info                              : Enhanced AC-3 with Joint Object Coding
  35. Commercial name                          : Dolby Digital Plus with Dolby Atmos
  36. Codec ID                                 : A_EAC3
  37. Duration                                 : 1 h 27 min
  38. Bit rate mode                            : Constant
  39. Bit rate                                 : 768 kb/s
  40. Channel(s)                               : 6 channels
  41. Channel layout                           : L R C LFE Ls Rs
  42. Sampling rate                            : 48.0 kHz
  43. Frame rate                               : 31.250 FPS (1536 SPF)
  44. Compression mode                         : Lossy
  45. Stream size                              : 478 MiB (5%)
  46. Language                                 : English
  47. Service kind                             : Complete Main
  48. Default                                  : Yes
  49. Forced                                   : No
  50. Complexity index                         : 16
  51. Number of dynamic objects                : 15
  52. Bed channel count                        : 1 channel
  53. Bed channel configuration                : LFE
  54. Text #1
  55. ID                                       : 3
  56. Format                                   : UTF-8
  57. Codec ID                                 : S_TEXT/UTF8
  58. Codec ID/Info                            : UTF-8 Plain Text
  59. Duration                                 : 1 h 22 min
  60. Bit rate                                 : 9 b/s
  61. Frame rate                               : 0.048 FPS
  62. Count of elements                        : 234
  63. Stream size                              : 5.63 KiB (0%)
  64. Language                                 : English
  65. Default                                  : No
  66. Forced                                   : No
  67. Text #2
  68. ID                                       : 4
  69. Format                                   : UTF-8
  70. Codec ID                                 : S_TEXT/UTF8
  71. Codec ID/Info                            : UTF-8 Plain Text
  72. Duration                                 : 1 h 24 min
  73. Bit rate                                 : 80 b/s
  74. Frame rate                               : 0.236 FPS
  75. Count of elements                        : 1195
  76. Stream size                              : 49.8 KiB (0%)
  77. Title                                    : SDH
  78. Language                                 : English
  79. Default                                  : No
  80. Forced                                   : No
  81. Text #3
  82. ID                                       : 5
  83. Format                                   : UTF-8
  84. Codec ID                                 : S_TEXT/UTF8
  85. Codec ID/Info                            : UTF-8 Plain Text
  86. Duration                                 : 1 h 26 min
  87. Bit rate                                 : 17 b/s
  88. Frame rate                               : 0.053 FPS
  89. Count of elements                        : 273
  90. Stream size                              : 11.2 KiB (0%)
  91. Language                                 : Arabic
  92. Default                                  : No
  93. Forced                                   : No
  94. Text #4
  95. ID                                       : 6
  96. Format                                   : UTF-8
  97. Codec ID                                 : S_TEXT/UTF8
  98. Codec ID/Info                            : UTF-8 Plain Text
  99. Duration                                 : 1 h 26 min
  100. Bit rate                                 : 8 b/s
  101. Frame rate                               : 0.054 FPS
  102. Count of elements                        : 280
  103. Stream size                              : 5.53 KiB (0%)
  104. Language                                 : Czech
  105. Default                                  : No
  106. Forced                                   : No
  107. Text #5
  108. ID                                       : 7
  109. Format                                   : UTF-8
  110. Codec ID                                 : S_TEXT/UTF8
  111. Codec ID/Info                            : UTF-8 Plain Text
  112. Duration                                 : 1 h 26 min
  113. Bit rate                                 : 7 b/s
  114. Frame rate                               : 0.042 FPS
  115. Count of elements                        : 217
  116. Stream size                              : 4.62 KiB (0%)
  117. Language                                 : Danish
  118. Default                                  : No
  119. Forced                                   : No
  120. Text #6
  121. ID                                       : 8
  122. Format                                   : UTF-8
  123. Codec ID                                 : S_TEXT/UTF8
  124. Codec ID/Info                            : UTF-8 Plain Text
  125. Duration                                 : 1 h 26 min
  126. Bit rate                                 : 6 b/s
  127. Frame rate                               : 0.045 FPS
  128. Count of elements                        : 236
  129. Stream size                              : 4.43 KiB (0%)
  130. Language                                 : German
  131. Default                                  : No
  132. Forced                                   : No
  133. Text #7
  134. ID                                       : 9
  135. Format                                   : UTF-8
  136. Codec ID                                 : S_TEXT/UTF8
  137. Codec ID/Info                            : UTF-8 Plain Text
  138. Duration                                 : 1 h 26 min
  139. Bit rate                                 : 14 b/s
  140. Frame rate                               : 0.052 FPS
  141. Count of elements                        : 271
  142. Stream size                              : 9.34 KiB (0%)
  143. Language                                 : Greek
  144. Default                                  : No
  145. Forced                                   : No
  146. Text #8
  147. ID                                       : 10
  148. Format                                   : UTF-8
  149. Codec ID                                 : S_TEXT/UTF8
  150. Codec ID/Info                            : UTF-8 Plain Text
  151. Duration                                 : 1 h 26 min
  152. Bit rate                                 : 8 b/s
  153. Frame rate                               : 0.047 FPS
  154. Count of elements                        : 245
  155. Stream size                              : 5.11 KiB (0%)
  156. Title                                    : Latin American
  157. Language                                 : Spanish (Latin America)
  158. Default                                  : No
  159. Forced                                   : No
  160. Text #9
  161. ID                                       : 11
  162. Format                                   : UTF-8
  163. Codec ID                                 : S_TEXT/UTF8
  164. Codec ID/Info                            : UTF-8 Plain Text
  165. Duration                                 : 1 h 26 min
  166. Bit rate                                 : 8 b/s
  167. Frame rate                               : 0.048 FPS
  168. Count of elements                        : 248
  169. Stream size                              : 5.35 KiB (0%)
  170. Language                                 : Spanish (ES)
  171. Default                                  : No
  172. Forced                                   : No
  173. Text #10
  174. ID                                       : 12
  175. Format                                   : UTF-8
  176. Codec ID                                 : S_TEXT/UTF8
  177. Codec ID/Info                            : UTF-8 Plain Text
  178. Duration                                 : 1 h 26 min
  179. Bit rate                                 : 7 b/s
  180. Frame rate                               : 0.043 FPS
  181. Count of elements                        : 221
  182. Stream size                              : 4.80 KiB (0%)
  183. Language                                 : Finnish
  184. Default                                  : No
  185. Forced                                   : No
  186. Text #11
  187. ID                                       : 13
  188. Format                                   : UTF-8
  189. Codec ID                                 : S_TEXT/UTF8
  190. Codec ID/Info                            : UTF-8 Plain Text
  191. Duration                                 : 1 h 26 min
  192. Bit rate                                 : 7 b/s
  193. Frame rate                               : 0.043 FPS
  194. Count of elements                        : 223
  195. Stream size                              : 4.83 KiB (0%)
  196. Language                                 : French
  197. Default                                  : No
  198. Forced                                   : No
  199. Text #12
  200. ID                                       : 14
  201. Format                                   : UTF-8
  202. Codec ID                                 : S_TEXT/UTF8
  203. Codec ID/Info                            : UTF-8 Plain Text
  204. Duration                                 : 1 h 26 min
  205. Bit rate                                 : 16 b/s
  206. Frame rate                               : 0.052 FPS
  207. Count of elements                        : 269
  208. Stream size                              : 10.4 KiB (0%)
  209. Language                                 : Hebrew
  210. Default                                  : No
  211. Forced                                   : No
  212. Text #13
  213. ID                                       : 15
  214. Format                                   : UTF-8
  215. Codec ID                                 : S_TEXT/UTF8
  216. Codec ID/Info                            : UTF-8 Plain Text
  217. Duration                                 : 1 h 26 min
  218. Bit rate                                 : 7 b/s
  219. Frame rate                               : 0.045 FPS
  220. Count of elements                        : 231
  221. Stream size                              : 4.47 KiB (0%)
  222. Language                                 : Croatian
  223. Default                                  : No
  224. Forced                                   : No
  225. Text #14
  226. ID                                       : 16
  227. Format                                   : UTF-8
  228. Codec ID                                 : S_TEXT/UTF8
  229. Codec ID/Info                            : UTF-8 Plain Text
  230. Duration                                 : 1 h 26 min
  231. Bit rate                                 : 8 b/s
  232. Frame rate                               : 0.045 FPS
  233. Count of elements                        : 232
  234. Stream size                              : 5.63 KiB (0%)
  235. Language                                 : Hungarian
  236. Default                                  : No
  237. Forced                                   : No
  238. Text #15
  239. ID                                       : 17
  240. Format                                   : UTF-8
  241. Codec ID                                 : S_TEXT/UTF8
  242. Codec ID/Info                            : UTF-8 Plain Text
  243. Duration                                 : 1 h 26 min
  244. Bit rate                                 : 9 b/s
  245. Frame rate                               : 0.046 FPS
  246. Count of elements                        : 241
  247. Stream size                              : 5.74 KiB (0%)
  248. Language                                 : Indonesian
  249. Default                                  : No
  250. Forced                                   : No
  251. Text #16
  252. ID                                       : 18
  253. Format                                   : UTF-8
  254. Codec ID                                 : S_TEXT/UTF8
  255. Codec ID/Info                            : UTF-8 Plain Text
  256. Duration                                 : 1 h 26 min
  257. Bit rate                                 : 8 b/s
  258. Frame rate                               : 0.053 FPS
  259. Count of elements                        : 274
  260. Stream size                              : 5.22 KiB (0%)
  261. Language                                 : Italian
  262. Default                                  : No
  263. Forced                                   : No
  264. Text #17
  265. ID                                       : 19
  266. Format                                   : UTF-8
  267. Codec ID                                 : S_TEXT/UTF8
  268. Codec ID/Info                            : UTF-8 Plain Text
  269. Duration                                 : 1 h 26 min
  270. Bit rate                                 : 11 b/s
  271. Frame rate                               : 0.050 FPS
  272. Count of elements                        : 258
  273. Stream size                              : 7.52 KiB (0%)
  274. Language                                 : Japanese
  275. Default                                  : No
  276. Forced                                   : No
  277. Text #18
  278. ID                                       : 20
  279. Format                                   : UTF-8
  280. Codec ID                                 : S_TEXT/UTF8
  281. Codec ID/Info                            : UTF-8 Plain Text
  282. Duration                                 : 1 h 26 min
  283. Bit rate                                 : 12 b/s
  284. Frame rate                               : 0.055 FPS
  285. Count of elements                        : 284
  286. Stream size                              : 8.02 KiB (0%)
  287. Language                                 : Korean
  288. Default                                  : No
  289. Forced                                   : No
  290. Text #19
  291. ID                                       : 21
  292. Format                                   : UTF-8
  293. Codec ID                                 : S_TEXT/UTF8
  294. Codec ID/Info                            : UTF-8 Plain Text
  295. Duration                                 : 1 h 26 min
  296. Bit rate                                 : 7 b/s
  297. Frame rate                               : 0.042 FPS
  298. Count of elements                        : 218
  299. Stream size                              : 4.57 KiB (0%)
  300. Language                                 : Malay
  301. Default                                  : No
  302. Forced                                   : No
  303. Text #20
  304. ID                                       : 22
  305. Format                                   : UTF-8
  306. Codec ID                                 : S_TEXT/UTF8
  307. Codec ID/Info                            : UTF-8 Plain Text
  308. Duration                                 : 1 h 26 min
  309. Bit rate                                 : 6 b/s
  310. Frame rate                               : 0.042 FPS
  311. Count of elements                        : 217
  312. Stream size                              : 4.41 KiB (0%)
  313. Language                                 : Norwegian Bokmal
  314. Default                                  : No
  315. Forced                                   : No
  316. Text #21
  317. ID                                       : 23
  318. Format                                   : UTF-8
  319. Codec ID                                 : S_TEXT/UTF8
  320. Codec ID/Info                            : UTF-8 Plain Text
  321. Duration                                 : 1 h 26 min
  322. Bit rate                                 : 6 b/s
  323. Frame rate                               : 0.030 FPS
  324. Count of elements                        : 155
  325. Stream size                              : 4.12 KiB (0%)
  326. Language                                 : Dutch
  327. Default                                  : No
  328. Forced                                   : No
  329. Text #22
  330. ID                                       : 24
  331. Format                                   : UTF-8
  332. Codec ID                                 : S_TEXT/UTF8
  333. Codec ID/Info                            : UTF-8 Plain Text
  334. Duration                                 : 1 h 26 min
  335. Bit rate                                 : 7 b/s
  336. Frame rate                               : 0.045 FPS
  337. Count of elements                        : 236
  338. Stream size                              : 4.90 KiB (0%)
  339. Language                                 : Polish
  340. Default                                  : No
  341. Forced                                   : No
  342. Text #23
  343. ID                                       : 25
  344. Format                                   : UTF-8
  345. Codec ID                                 : S_TEXT/UTF8
  346. Codec ID/Info                            : UTF-8 Plain Text
  347. Duration                                 : 1 h 26 min
  348. Bit rate                                 : 7 b/s
  349. Frame rate                               : 0.045 FPS
  350. Count of elements                        : 232
  351. Stream size                              : 4.96 KiB (0%)
  352. Title                                    : Brazilian
  353. Language                                 : Portuguese (BR)
  354. Default                                  : No
  355. Forced                                   : No
  356. Text #24
  357. ID                                       : 26
  358. Format                                   : UTF-8
  359. Codec ID                                 : S_TEXT/UTF8
  360. Codec ID/Info                            : UTF-8 Plain Text
  361. Duration                                 : 1 h 26 min
  362. Bit rate                                 : 7 b/s
  363. Frame rate                               : 0.044 FPS
  364. Count of elements                        : 230
  365. Stream size                              : 4.93 KiB (0%)
  366. Language                                 : Portuguese (PT)
  367. Default                                  : No
  368. Forced                                   : No
  369. Text #25
  370. ID                                       : 27
  371. Format                                   : UTF-8
  372. Codec ID                                 : S_TEXT/UTF8
  373. Codec ID/Info                            : UTF-8 Plain Text
  374. Duration                                 : 1 h 26 min
  375. Bit rate                                 : 8 b/s
  376. Frame rate                               : 0.043 FPS
  377. Count of elements                        : 224
  378. Stream size                              : 5.50 KiB (0%)
  379. Language                                 : Romanian
  380. Default                                  : No
  381. Forced                                   : No
  382. Text #26
  383. ID                                       : 28
  384. Format                                   : UTF-8
  385. Codec ID                                 : S_TEXT/UTF8
  386. Codec ID/Info                            : UTF-8 Plain Text
  387. Duration                                 : 1 h 26 min
  388. Bit rate                                 : 14 b/s
  389. Frame rate                               : 0.053 FPS
  390. Count of elements                        : 275
  391. Stream size                              : 9.27 KiB (0%)
  392. Language                                 : Russian
  393. Default                                  : No
  394. Forced                                   : No
  395. Text #27
  396. ID                                       : 29
  397. Format                                   : UTF-8
  398. Codec ID                                 : S_TEXT/UTF8
  399. Codec ID/Info                            : UTF-8 Plain Text
  400. Duration                                 : 1 h 26 min
  401. Bit rate                                 : 7 b/s
  402. Frame rate                               : 0.041 FPS
  403. Count of elements                        : 212
  404. Stream size                              : 4.44 KiB (0%)
  405. Language                                 : Swedish
  406. Default                                  : No
  407. Forced                                   : No
  408. Text #28
  409. ID                                       : 30
  410. Format                                   : UTF-8
  411. Codec ID                                 : S_TEXT/UTF8
  412. Codec ID/Info                            : UTF-8 Plain Text
  413. Duration                                 : 1 h 26 min
  414. Bit rate                                 : 26 b/s
  415. Frame rate                               : 0.053 FPS
  416. Count of elements                        : 277
  417. Stream size                              : 16.5 KiB (0%)
  418. Language                                 : Thai
  419. Default                                  : No
  420. Forced                                   : No
  421. Text #29
  422. ID                                       : 31
  423. Format                                   : UTF-8
  424. Codec ID                                 : S_TEXT/UTF8
  425. Codec ID/Info                            : UTF-8 Plain Text
  426. Duration                                 : 1 h 26 min
  427. Bit rate                                 : 8 b/s
  428. Frame rate                               : 0.043 FPS
  429. Count of elements                        : 222
  430. Stream size                              : 5.23 KiB (0%)
  431. Language                                 : Turkish
  432. Default                                  : No
  433. Forced                                   : No
  434. Text #30
  435. ID                                       : 32
  436. Format                                   : UTF-8
  437. Codec ID                                 : S_TEXT/UTF8
  438. Codec ID/Info                            : UTF-8 Plain Text
  439. Duration                                 : 1 h 26 min
  440. Bit rate                                 : 15 b/s
  441. Frame rate                               : 0.052 FPS
  442. Count of elements                        : 269
  443. Stream size                              : 9.52 KiB (0%)
  444. Language                                 : Ukrainian
  445. Default                                  : No
  446. Forced                                   : No
  447. Text #31
  448. ID                                       : 33
  449. Format                                   : UTF-8
  450. Codec ID                                 : S_TEXT/UTF8
  451. Codec ID/Info                            : UTF-8 Plain Text
  452. Duration                                 : 1 h 26 min
  453. Bit rate                                 : 11 b/s
  454. Frame rate                               : 0.042 FPS
  455. Count of elements                        : 216
  456. Stream size                              : 7.55 KiB (0%)
  457. Language                                 : Vietnamese
  458. Default                                  : No
  459. Forced                                   : No
  460. Text #32
  461. ID                                       : 34
  462. Format                                   : UTF-8
  463. Codec ID                                 : S_TEXT/UTF8
  464. Codec ID/Info                            : UTF-8 Plain Text
  465. Duration                                 : 1 h 26 min
  466. Bit rate                                 : 11 b/s
  467. Frame rate                               : 0.054 FPS
  468. Count of elements                        : 278
  469. Stream size                              : 7.31 KiB (0%)
  470. Title                                    : Simplified
  471. Language                                 : Chinese (Simplied)
  472. Default                                  : No
  473. Forced                                   : No
  474. Text #33
  475. ID                                       : 35
  476. Format                                   : UTF-8
  477. Codec ID                                 : S_TEXT/UTF8
  478. Codec ID/Info                            : UTF-8 Plain Text
  479. Duration                                 : 1 h 26 min
  480. Bit rate                                 : 11 b/s
  481. Frame rate                               : 0.055 FPS
  482. Count of elements                        : 284
  483. Stream size                              : 7.14 KiB (0%)
  484. Title                                    : Traditional
  485. Language                                 : Chinese (Traditional)
  486. Default                                  : No
  487. Forced                                   : No
  488. Menu
  489. 01:26:44.000                             : en:End Credits
复制代码











肖恩·门德斯:巡回演唱会纪实[中笔墨幕].Shawn.Mendes.Live.in.Concert.2020.2160p.NF.WEB-DL.x265.10bit.HDR.DDP5.1.Atmos-ENDISNEAR 10.30GB

Shawn.Mendes.Live.in.Concert.2020.2160p.NF.WEB-DL.x265.10bit.HDR.DDP5.1.Atmos-EN.torrent

13.58 KB, 下载次数: 22, 下载积分: 蓝光币 -2

回复

使用道具 举报

懒得打字嘛,点击右侧快捷回复 【右侧内容,后台自定义】
您需要登录后才可以回帖 登录 | 立即加入

本版积分规则

Copyright © 2024 Comsenz Inc. Powered by 蓝光电影网

本站内容由用户自主分享和转载自互联网,转载目的在于传递更多信息,并不代表本网赞同其观点和对其真实性负责。

如有侵权、违反国家法律政策行为,请联系我们,我们会第一时间及时清除和处理!

举报反馈邮箱:4k1080.com@gmail.com

快速回复 返回顶部 返回列表