找回密码

查看: 1429|回复: 0

[2160p-WEB] 魔爪入室[中文字幕].Intrusion.2021.2160p.NF.WEB-DL.DDP5.1.Atmos.DV.MKV.x265-COPiUM 12.04GB

[复制链接]
蓝光币
1848
发表于 2023-1-3 03:28:14 | 显示全部楼层 |阅读模式


◎标  题 魔爪入室
◎译  名 入室惊魂
◎片  名 Intrusion
◎年  代 2021
◎产  地 美国
◎类  别 剧情 / 惊悚
◎语  言 英语
◎上映日期 2021-09-22(美国收集)
◎IMDb评分 5.2/10 (17945人评价)
◎IMDb链接 https://www.imdb.com/title/tt5563324/
◎豆瓣评分 4.7/10 (814人评价)
◎豆瓣链接 https://movie.douban.com/subject/35576387/
◎片  长 92分钟
◎导  演 亚当·萨尔基 Adam Salky
◎编  剧 克里斯·斯帕林 Chris Sparling
◎演  员 罗根·马歇尔-格林 Logan Marshall-Green
       芙蕾达·平托 Freida Pinto
       罗伯特·约翰·伯克 Robert John Burke
       萨拉·明妮奇 Sarah Minnich
       哈耶斯·哈格罗夫 Hayes Hargrove
       克林特·奥本钦 Clint Obenchain
◎简  介
  一对佳耦搬到小镇居住,有人私行闯入他们的家。妻子自此捕风捉影,似乎身旁一切人都是还有图谋。
  1. Video
  2. ID                                       : 1
  3. Format                                   : HEVC
  4. Format/Info                              : High Efficiency Video Coding
  5. Format profile                           : Main 10@L5@Main
  6. HDR format                               : Dolby Vision, Version 1.0, dvhe.05.06, BL+RPU
  7. Codec ID                                 : V_MPEGH/ISO/HEVC
  8. Duration                                 : 1 h 34 min
  9. Bit rate                                 : 17.6 Mb/s
  10. Width                                    : 3 840 pixels
  11. Height                                   : 2 160 pixels
  12. Display aspect ratio                     : 16:9
  13. Frame rate mode                          : Constant
  14. Frame rate                               : 24.000 FPS
  15. Color space                              : YUV
  16. Chroma subsampling                       : 4:2:0
  17. Bit depth                                : 10 bits
  18. Bits/(Pixel*Frame)                       : 0.088
  19. Stream size                              : 11.5 GiB (96%)
  20. Language                                 : English
  21. Default                                  : Yes
  22. Forced                                   : No
  23. Color range                              : Full
  24. Audio
  25. ID                                       : 2
  26. Format                                   : E-AC-3 JOC
  27. Format/Info                              : Enhanced AC-3 with Joint Object Coding
  28. Commercial name                          : Dolby Digital Plus with Dolby Atmos
  29. Codec ID                                 : A_EAC3
  30. Duration                                 : 1 h 34 min
  31. Bit rate mode                            : Constant
  32. Bit rate                                 : 768 kb/s
  33. Channel(s)                               : 6 channels
  34. Channel layout                           : L R C LFE Ls Rs
  35. Sampling rate                            : 48.0 kHz
  36. Frame rate                               : 31.250 FPS (1536 SPF)
  37. Compression mode                         : Lossy
  38. Stream size                              : 517 MiB (4%)
  39. Language                                 : English
  40. Service kind                             : Complete Main
  41. Default                                  : Yes
  42. Forced                                   : No
  43. Complexity index                         : 16
  44. Number of dynamic objects                : 15
  45. Bed channel count                        : 1 channel
  46. Bed channel configuration                : LFE
  47. Text #1
  48. ID                                       : 3
  49. Format                                   : UTF-8
  50. Codec ID                                 : S_TEXT/UTF8
  51. Codec ID/Info                            : UTF-8 Plain Text
  52. Duration                                 : 1 h 23 min
  53. Bit rate                                 : 38 b/s
  54. Frame rate                               : 0.151 FPS
  55. Count of elements                        : 753
  56. Stream size                              : 23.3 KiB (0%)
  57. Language                                 : English
  58. Default                                  : No
  59. Forced                                   : No
  60. Text #2
  61. ID                                       : 4
  62. Format                                   : UTF-8
  63. Codec ID                                 : S_TEXT/UTF8
  64. Codec ID/Info                            : UTF-8 Plain Text
  65. Duration                                 : 1 h 31 min
  66. Bit rate                                 : 46 b/s
  67. Frame rate                               : 0.200 FPS
  68. Count of elements                        : 1095
  69. Stream size                              : 31.4 KiB (0%)
  70. Title                                    : SDH
  71. Language                                 : English
  72. Default                                  : No
  73. Forced                                   : No
  74. Text #3
  75. ID                                       : 5
  76. Format                                   : UTF-8
  77. Codec ID                                 : S_TEXT/UTF8
  78. Codec ID/Info                            : UTF-8 Plain Text
  79. Duration                                 : 1 h 32 min
  80. Bit rate                                 : 56 b/s
  81. Frame rate                               : 0.135 FPS
  82. Count of elements                        : 748
  83. Stream size                              : 38.3 KiB (0%)
  84. Language                                 : Arabic
  85. Default                                  : No
  86. Forced                                   : No
  87. Text #4
  88. ID                                       : 6
  89. Format                                   : UTF-8
  90. Codec ID                                 : S_TEXT/UTF8
  91. Codec ID/Info                            : UTF-8 Plain Text
  92. Duration                                 : 1 h 32 min
  93. Bit rate                                 : 29 b/s
  94. Frame rate                               : 0.130 FPS
  95. Count of elements                        : 719
  96. Stream size                              : 20.2 KiB (0%)
  97. Language                                 : Czech
  98. Default                                  : No
  99. Forced                                   : No
  100. Text #5
  101. ID                                       : 7
  102. Format                                   : UTF-8
  103. Codec ID                                 : S_TEXT/UTF8
  104. Codec ID/Info                            : UTF-8 Plain Text
  105. Duration                                 : 1 h 32 min
  106. Bit rate                                 : 29 b/s
  107. Frame rate                               : 0.121 FPS
  108. Count of elements                        : 671
  109. Stream size                              : 20.2 KiB (0%)
  110. Language                                 : Danish
  111. Default                                  : No
  112. Forced                                   : No
  113. Text #6
  114. ID                                       : 8
  115. Format                                   : UTF-8
  116. Codec ID                                 : S_TEXT/UTF8
  117. Codec ID/Info                            : UTF-8 Plain Text
  118. Duration                                 : 1 h 32 min
  119. Bit rate                                 : 31 b/s
  120. Frame rate                               : 0.128 FPS
  121. Count of elements                        : 706
  122. Stream size                              : 21.2 KiB (0%)
  123. Language                                 : German
  124. Default                                  : No
  125. Forced                                   : No
  126. Text #7
  127. ID                                       : 9
  128. Format                                   : UTF-8
  129. Codec ID                                 : S_TEXT/UTF8
  130. Codec ID/Info                            : UTF-8 Plain Text
  131. Duration                                 : 1 h 32 min
  132. Bit rate                                 : 49 b/s
  133. Frame rate                               : 0.131 FPS
  134. Count of elements                        : 727
  135. Stream size                              : 33.6 KiB (0%)
  136. Language                                 : Greek
  137. Default                                  : No
  138. Forced                                   : No
  139. Text #8
  140. ID                                       : 10
  141. Format                                   : UTF-8
  142. Codec ID                                 : S_TEXT/UTF8
  143. Codec ID/Info                            : UTF-8 Plain Text
  144. Duration                                 : 1 h 32 min
  145. Bit rate                                 : 29 b/s
  146. Frame rate                               : 0.138 FPS
  147. Count of elements                        : 764
  148. Stream size                              : 20.2 KiB (0%)
  149. Title                                    : Latin American
  150. Language                                 : Spanish (Latin America)
  151. Default                                  : No
  152. Forced                                   : No
  153. Text #9
  154. ID                                       : 11
  155. Format                                   : UTF-8
  156. Codec ID                                 : S_TEXT/UTF8
  157. Codec ID/Info                            : UTF-8 Plain Text
  158. Duration                                 : 1 h 32 min
  159. Bit rate                                 : 27 b/s
  160. Frame rate                               : 0.139 FPS
  161. Count of elements                        : 773
  162. Stream size                              : 18.9 KiB (0%)
  163. Language                                 : Spanish (ES)
  164. Default                                  : No
  165. Forced                                   : No
  166. Text #10
  167. ID                                       : 12
  168. Format                                   : UTF-8
  169. Codec ID                                 : S_TEXT/UTF8
  170. Codec ID/Info                            : UTF-8 Plain Text
  171. Duration                                 : 1 h 32 min
  172. Bit rate                                 : 28 b/s
  173. Frame rate                               : 0.107 FPS
  174. Count of elements                        : 593
  175. Stream size                              : 19.0 KiB (0%)
  176. Language                                 : Finnish
  177. Default                                  : No
  178. Forced                                   : No
  179. Text #11
  180. ID                                       : 13
  181. Format                                   : UTF-8
  182. Codec ID                                 : S_TEXT/UTF8
  183. Codec ID/Info                            : UTF-8 Plain Text
  184. Duration                                 : 1 h 32 min
  185. Bit rate                                 : 32 b/s
  186. Frame rate                               : 0.133 FPS
  187. Count of elements                        : 734
  188. Stream size                              : 21.7 KiB (0%)
  189. Language                                 : fil
  190. Default                                  : No
  191. Forced                                   : No
  192. Text #12
  193. ID                                       : 14
  194. Format                                   : UTF-8
  195. Codec ID                                 : S_TEXT/UTF8
  196. Codec ID/Info                            : UTF-8 Plain Text
  197. Duration                                 : 1 h 32 min
  198. Bit rate                                 : 30 b/s
  199. Frame rate                               : 0.127 FPS
  200. Count of elements                        : 703
  201. Stream size                              : 20.9 KiB (0%)
  202. Language                                 : French
  203. Default                                  : No
  204. Forced                                   : No
  205. Text #13
  206. ID                                       : 15
  207. Format                                   : UTF-8
  208. Codec ID                                 : S_TEXT/UTF8
  209. Codec ID/Info                            : UTF-8 Plain Text
  210. Duration                                 : 1 h 32 min
  211. Bit rate                                 : 51 b/s
  212. Frame rate                               : 0.133 FPS
  213. Count of elements                        : 737
  214. Stream size                              : 34.6 KiB (0%)
  215. Language                                 : Hebrew
  216. Default                                  : No
  217. Forced                                   : No
  218. Text #14
  219. ID                                       : 16
  220. Format                                   : UTF-8
  221. Codec ID                                 : S_TEXT/UTF8
  222. Codec ID/Info                            : UTF-8 Plain Text
  223. Duration                                 : 1 h 32 min
  224. Bit rate                                 : 28 b/s
  225. Frame rate                               : 0.129 FPS
  226. Count of elements                        : 714
  227. Stream size                              : 19.0 KiB (0%)
  228. Language                                 : Croatian
  229. Default                                  : No
  230. Forced                                   : No
  231. Text #15
  232. ID                                       : 17
  233. Format                                   : UTF-8
  234. Codec ID                                 : S_TEXT/UTF8
  235. Codec ID/Info                            : UTF-8 Plain Text
  236. Duration                                 : 1 h 32 min
  237. Bit rate                                 : 29 b/s
  238. Frame rate                               : 0.130 FPS
  239. Count of elements                        : 722
  240. Stream size                              : 19.9 KiB (0%)
  241. Language                                 : Hungarian
  242. Default                                  : No
  243. Forced                                   : No
  244. Text #16
  245. ID                                       : 18
  246. Format                                   : UTF-8
  247. Codec ID                                 : S_TEXT/UTF8
  248. Codec ID/Info                            : UTF-8 Plain Text
  249. Duration                                 : 1 h 32 min
  250. Bit rate                                 : 30 b/s
  251. Frame rate                               : 0.137 FPS
  252. Count of elements                        : 759
  253. Stream size                              : 20.9 KiB (0%)
  254. Language                                 : Indonesian
  255. Default                                  : No
  256. Forced                                   : No
  257. Text #17
  258. ID                                       : 19
  259. Format                                   : UTF-8
  260. Codec ID                                 : S_TEXT/UTF8
  261. Codec ID/Info                            : UTF-8 Plain Text
  262. Duration                                 : 1 h 32 min
  263. Bit rate                                 : 31 b/s
  264. Frame rate                               : 0.123 FPS
  265. Count of elements                        : 679
  266. Stream size                              : 21.2 KiB (0%)
  267. Language                                 : Italian
  268. Default                                  : No
  269. Forced                                   : No
  270. Text #18
  271. ID                                       : 20
  272. Format                                   : UTF-8
  273. Codec ID                                 : S_TEXT/UTF8
  274. Codec ID/Info                            : UTF-8 Plain Text
  275. Duration                                 : 1 h 32 min
  276. Bit rate                                 : 32 b/s
  277. Frame rate                               : 0.136 FPS
  278. Count of elements                        : 754
  279. Stream size                              : 21.7 KiB (0%)
  280. Language                                 : Japanese
  281. Default                                  : No
  282. Forced                                   : No
  283. Text #19
  284. ID                                       : 21
  285. Format                                   : UTF-8
  286. Codec ID                                 : S_TEXT/UTF8
  287. Codec ID/Info                            : UTF-8 Plain Text
  288. Duration                                 : 1 h 32 min
  289. Bit rate                                 : 38 b/s
  290. Frame rate                               : 0.135 FPS
  291. Count of elements                        : 746
  292. Stream size                              : 26.2 KiB (0%)
  293. Language                                 : Korean
  294. Default                                  : No
  295. Forced                                   : No
  296. Text #20
  297. ID                                       : 22
  298. Format                                   : UTF-8
  299. Codec ID                                 : S_TEXT/UTF8
  300. Codec ID/Info                            : UTF-8 Plain Text
  301. Duration                                 : 1 h 27 min
  302. Bit rate                                 : 31 b/s
  303. Frame rate                               : 0.140 FPS
  304. Count of elements                        : 734
  305. Stream size                              : 20.3 KiB (0%)
  306. Language                                 : Malay
  307. Default                                  : No
  308. Forced                                   : No
  309. Text #21
  310. ID                                       : 23
  311. Format                                   : UTF-8
  312. Codec ID                                 : S_TEXT/UTF8
  313. Codec ID/Info                            : UTF-8 Plain Text
  314. Duration                                 : 1 h 32 min
  315. Bit rate                                 : 27 b/s
  316. Frame rate                               : 0.125 FPS
  317. Count of elements                        : 693
  318. Stream size                              : 18.4 KiB (0%)
  319. Language                                 : Norwegian Bokmal
  320. Default                                  : No
  321. Forced                                   : No
  322. Text #22
  323. ID                                       : 24
  324. Format                                   : UTF-8
  325. Codec ID                                 : S_TEXT/UTF8
  326. Codec ID/Info                            : UTF-8 Plain Text
  327. Duration                                 : 1 h 32 min
  328. Bit rate                                 : 27 b/s
  329. Frame rate                               : 0.115 FPS
  330. Count of elements                        : 637
  331. Stream size                              : 18.5 KiB (0%)
  332. Language                                 : Dutch
  333. Default                                  : No
  334. Forced                                   : No
  335. Text #23
  336. ID                                       : 25
  337. Format                                   : UTF-8
  338. Codec ID                                 : S_TEXT/UTF8
  339. Codec ID/Info                            : UTF-8 Plain Text
  340. Duration                                 : 1 h 32 min
  341. Bit rate                                 : 29 b/s
  342. Frame rate                               : 0.133 FPS
  343. Count of elements                        : 734
  344. Stream size                              : 20.1 KiB (0%)
  345. Language                                 : Polish
  346. Default                                  : No
  347. Forced                                   : No
  348. Text #24
  349. ID                                       : 26
  350. Format                                   : UTF-8
  351. Codec ID                                 : S_TEXT/UTF8
  352. Codec ID/Info                            : UTF-8 Plain Text
  353. Duration                                 : 1 h 32 min
  354. Bit rate                                 : 30 b/s
  355. Frame rate                               : 0.137 FPS
  356. Count of elements                        : 761
  357. Stream size                              : 20.8 KiB (0%)
  358. Title                                    : Brazilian
  359. Language                                 : Portuguese (BR)
  360. Default                                  : No
  361. Forced                                   : No
  362. Text #25
  363. ID                                       : 27
  364. Format                                   : UTF-8
  365. Codec ID                                 : S_TEXT/UTF8
  366. Codec ID/Info                            : UTF-8 Plain Text
  367. Duration                                 : 1 h 32 min
  368. Bit rate                                 : 30 b/s
  369. Frame rate                               : 0.133 FPS
  370. Count of elements                        : 737
  371. Stream size                              : 20.9 KiB (0%)
  372. Language                                 : Portuguese (PT)
  373. Default                                  : No
  374. Forced                                   : No
  375. Text #26
  376. ID                                       : 28
  377. Format                                   : UTF-8
  378. Codec ID                                 : S_TEXT/UTF8
  379. Codec ID/Info                            : UTF-8 Plain Text
  380. Duration                                 : 1 h 32 min
  381. Bit rate                                 : 36 b/s
  382. Frame rate                               : 0.129 FPS
  383. Count of elements                        : 716
  384. Stream size                              : 24.5 KiB (0%)
  385. Language                                 : Romanian
  386. Default                                  : No
  387. Forced                                   : No
  388. Text #27
  389. ID                                       : 29
  390. Format                                   : UTF-8
  391. Codec ID                                 : S_TEXT/UTF8
  392. Codec ID/Info                            : UTF-8 Plain Text
  393. Duration                                 : 1 h 32 min
  394. Bit rate                                 : 47 b/s
  395. Frame rate                               : 0.134 FPS
  396. Count of elements                        : 742
  397. Stream size                              : 32.2 KiB (0%)
  398. Language                                 : Russian
  399. Default                                  : No
  400. Forced                                   : No
  401. Text #28
  402. ID                                       : 30
  403. Format                                   : UTF-8
  404. Codec ID                                 : S_TEXT/UTF8
  405. Codec ID/Info                            : UTF-8 Plain Text
  406. Duration                                 : 1 h 32 min
  407. Bit rate                                 : 29 b/s
  408. Frame rate                               : 0.119 FPS
  409. Count of elements                        : 661
  410. Stream size                              : 20.1 KiB (0%)
  411. Language                                 : Swedish
  412. Default                                  : No
  413. Forced                                   : No
  414. Text #29
  415. ID                                       : 31
  416. Format                                   : UTF-8
  417. Codec ID                                 : S_TEXT/UTF8
  418. Codec ID/Info                            : UTF-8 Plain Text
  419. Duration                                 : 1 h 32 min
  420. Bit rate                                 : 81 b/s
  421. Frame rate                               : 0.133 FPS
  422. Count of elements                        : 735
  423. Stream size                              : 55.1 KiB (0%)
  424. Language                                 : Thai
  425. Default                                  : No
  426. Forced                                   : No
  427. Text #30
  428. ID                                       : 32
  429. Format                                   : UTF-8
  430. Codec ID                                 : S_TEXT/UTF8
  431. Codec ID/Info                            : UTF-8 Plain Text
  432. Duration                                 : 1 h 32 min
  433. Bit rate                                 : 29 b/s
  434. Frame rate                               : 0.134 FPS
  435. Count of elements                        : 742
  436. Stream size                              : 20.3 KiB (0%)
  437. Language                                 : Turkish
  438. Default                                  : No
  439. Forced                                   : No
  440. Text #31
  441. ID                                       : 33
  442. Format                                   : UTF-8
  443. Codec ID                                 : S_TEXT/UTF8
  444. Codec ID/Info                            : UTF-8 Plain Text
  445. Duration                                 : 1 h 32 min
  446. Bit rate                                 : 47 b/s
  447. Frame rate                               : 0.132 FPS
  448. Count of elements                        : 729
  449. Stream size                              : 32.3 KiB (0%)
  450. Language                                 : Ukrainian
  451. Default                                  : No
  452. Forced                                   : No
  453. Text #32
  454. ID                                       : 34
  455. Format                                   : UTF-8
  456. Codec ID                                 : S_TEXT/UTF8
  457. Codec ID/Info                            : UTF-8 Plain Text
  458. Duration                                 : 1 h 32 min
  459. Bit rate                                 : 43 b/s
  460. Frame rate                               : 0.132 FPS
  461. Count of elements                        : 730
  462. Stream size                              : 29.6 KiB (0%)
  463. Language                                 : Vietnamese
  464. Default                                  : No
  465. Forced                                   : No
  466. Text #33
  467. ID                                       : 35
  468. Format                                   : UTF-8
  469. Codec ID                                 : S_TEXT/UTF8
  470. Codec ID/Info                            : UTF-8 Plain Text
  471. Duration                                 : 1 h 32 min
  472. Bit rate                                 : 34 b/s
  473. Frame rate                               : 0.133 FPS
  474. Count of elements                        : 736
  475. Stream size                              : 23.3 KiB (0%)
  476. Title                                    : Simplified
  477. Language                                 : Chinese (Simplied)
  478. Default                                  : No
  479. Forced                                   : No
  480. Text #34
  481. ID                                       : 36
  482. Format                                   : UTF-8
  483. Codec ID                                 : S_TEXT/UTF8
  484. Codec ID/Info                            : UTF-8 Plain Text
  485. Duration                                 : 1 h 32 min
  486. Bit rate                                 : 32 b/s
  487. Frame rate                               : 0.134 FPS
  488. Count of elements                        : 741
  489. Stream size                              : 21.8 KiB (0%)
  490. Title                                    : Traditional
  491. Language                                 : Chinese (Traditional)
  492. Default                                  : No
  493. Forced                                   : No
  494. Menu
  495. 01:28:04.000                             : en:End Credits
复制代码











回复

使用道具 举报

懒得打字嘛,点击右侧快捷回复 【右侧内容,后台自定义】
您需要登录后才可以回帖 登录 | 立即加入

本版积分规则

Copyright © 2024 Comsenz Inc. Powered by 蓝光电影网

本站内容由用户自主分享和转载自互联网,转载目的在于传递更多信息,并不代表本网赞同其观点和对其真实性负责。

如有侵权、违反国家法律政策行为,请联系我们,我们会第一时间及时清除和处理!

举报反馈邮箱:4k1080.com@gmail.com

快速回复 返回顶部 返回列表