找回密码

查看: 2154|回复: 15

[2160p-WEB] 哨兵行动[中文字幕].Sentinelle.2021.FRENCH.2160p.NF.WEB-DL.x265.10bit.SDR.DDP5.1-COPiUM 10.35GB

[复制链接]
蓝光币
1848
发表于 2023-1-3 03:28:14 | 显示全部楼层 |阅读模式


◎标  题 尖兵行动
◎片  名 Sentinelle
◎年  代 2021
◎产  地 法国
◎类  别 行动
◎语  言 法语
◎上映日期 2021-03-05(美国收集)
◎IMDb评分 4.8/10 (8065人评价)
◎IMDb链接 https://www.imdb.com/title/tt11734264/
◎豆瓣评分 5.1/10 (1149人评价)
◎豆瓣链接 https://movie.douban.com/subject/35366857/
◎片  长 80分钟
◎导  演 朱利安·勒克莱克 Julien Leclercq
◎编  剧 朱利安·勒克莱克 Julien Leclercq
◎演  员 欧嘉·柯瑞兰寇 Olga Kurylenko
       玛丽莲·利马 Marilyn Lima
       卡罗尔·威尔斯 Carole Weyers
◎简  介
  一位练习有素的法国兵士在战役使命中受创而被送回故乡,她将操纵自己极具杀伤力的技术,追捕阿谁危险她妹妹的男人。
  1. Video
  2. ID                                       : 1
  3. Format                                   : HEVC
  4. Format/Info                              : High Efficiency Video Coding
  5. Format profile                           : Main 10@L5@Main
  6. Codec ID                                 : V_MPEGH/ISO/HEVC
  7. Duration                                 : 1 h 20 min
  8. Bit rate                                 : 17.7 Mb/s
  9. Width                                    : 3 840 pixels
  10. Height                                   : 2 160 pixels
  11. Display aspect ratio                     : 16:9
  12. Frame rate mode                          : Constant
  13. Frame rate                               : 24.000 FPS
  14. Color space                              : YUV
  15. Chroma subsampling                       : 4:2:0
  16. Bit depth                                : 10 bits
  17. Bits/(Pixel*Frame)                       : 0.089
  18. Stream size                              : 9.99 GiB (96%)
  19. Language                                 : French
  20. Default                                  : Yes
  21. Forced                                   : No
  22. Color range                              : Limited
  23. Color primaries                          : BT.709
  24. Transfer characteristics                 : BT.709
  25. Matrix coefficients                      : BT.709
  26. Audio
  27. ID                                       : 2
  28. Format                                   : E-AC-3
  29. Format/Info                              : Enhanced AC-3
  30. Commercial name                          : Dolby Digital Plus
  31. Codec ID                                 : A_EAC3
  32. Duration                                 : 1 h 20 min
  33. Bit rate mode                            : Constant
  34. Bit rate                                 : 640 kb/s
  35. Channel(s)                               : 6 channels
  36. Channel layout                           : L R C LFE Ls Rs
  37. Sampling rate                            : 48.0 kHz
  38. Frame rate                               : 31.250 FPS (1536 SPF)
  39. Compression mode                         : Lossy
  40. Stream size                              : 369 MiB (3%)
  41. Language                                 : French
  42. Service kind                             : Complete Main
  43. Default                                  : Yes
  44. Forced                                   : No
  45. Text #1
  46. ID                                       : 3
  47. Format                                   : UTF-8
  48. Codec ID                                 : S_TEXT/UTF8
  49. Codec ID/Info                            : UTF-8 Plain Text
  50. Duration                                 : 1 h 12 min
  51. Bit rate                                 : 2 b/s
  52. Frame rate                               : 0.015 FPS
  53. Count of elements                        : 63
  54. Stream size                              : 1.55 KiB (0%)
  55. Title                                    : Forced
  56. Language                                 : French
  57. Default                                  : Yes
  58. Forced                                   : Yes
  59. Text #2
  60. ID                                       : 4
  61. Format                                   : UTF-8
  62. Codec ID                                 : S_TEXT/UTF8
  63. Codec ID/Info                            : UTF-8 Plain Text
  64. Duration                                 : 1 h 12 min
  65. Bit rate                                 : 22 b/s
  66. Frame rate                               : 0.103 FPS
  67. Count of elements                        : 449
  68. Stream size                              : 12.0 KiB (0%)
  69. Language                                 : French
  70. Default                                  : No
  71. Forced                                   : No
  72. Text #3
  73. ID                                       : 5
  74. Format                                   : UTF-8
  75. Codec ID                                 : S_TEXT/UTF8
  76. Codec ID/Info                            : UTF-8 Plain Text
  77. Duration                                 : 1 h 14 min
  78. Bit rate                                 : 31 b/s
  79. Frame rate                               : 0.149 FPS
  80. Count of elements                        : 660
  81. Stream size                              : 17.1 KiB (0%)
  82. Title                                    : SDH
  83. Language                                 : French
  84. Default                                  : No
  85. Forced                                   : No
  86. Text #4
  87. ID                                       : 6
  88. Format                                   : UTF-8
  89. Codec ID                                 : S_TEXT/UTF8
  90. Codec ID/Info                            : UTF-8 Plain Text
  91. Duration                                 : 1 h 19 min
  92. Bit rate                                 : 32 b/s
  93. Frame rate                               : 0.092 FPS
  94. Count of elements                        : 437
  95. Stream size                              : 18.7 KiB (0%)
  96. Language                                 : Arabic
  97. Default                                  : No
  98. Forced                                   : No
  99. Text #5
  100. ID                                       : 7
  101. Format                                   : UTF-8
  102. Codec ID                                 : S_TEXT/UTF8
  103. Codec ID/Info                            : UTF-8 Plain Text
  104. Duration                                 : 1 h 19 min
  105. Bit rate                                 : 18 b/s
  106. Frame rate                               : 0.091 FPS
  107. Count of elements                        : 435
  108. Stream size                              : 10.5 KiB (0%)
  109. Language                                 : Czech
  110. Default                                  : No
  111. Forced                                   : No
  112. Text #6
  113. ID                                       : 8
  114. Format                                   : UTF-8
  115. Codec ID                                 : S_TEXT/UTF8
  116. Codec ID/Info                            : UTF-8 Plain Text
  117. Duration                                 : 1 h 19 min
  118. Bit rate                                 : 18 b/s
  119. Frame rate                               : 0.087 FPS
  120. Count of elements                        : 415
  121. Stream size                              : 10.6 KiB (0%)
  122. Language                                 : Danish
  123. Default                                  : No
  124. Forced                                   : No
  125. Text #7
  126. ID                                       : 9
  127. Format                                   : UTF-8
  128. Codec ID                                 : S_TEXT/UTF8
  129. Codec ID/Info                            : UTF-8 Plain Text
  130. Duration                                 : 1 h 19 min
  131. Bit rate                                 : 18 b/s
  132. Frame rate                               : 0.092 FPS
  133. Count of elements                        : 437
  134. Stream size                              : 10.9 KiB (0%)
  135. Language                                 : German
  136. Default                                  : No
  137. Forced                                   : No
  138. Text #8
  139. ID                                       : 10
  140. Format                                   : UTF-8
  141. Codec ID                                 : S_TEXT/UTF8
  142. Codec ID/Info                            : UTF-8 Plain Text
  143. Duration                                 : 1 h 19 min
  144. Bit rate                                 : 31 b/s
  145. Frame rate                               : 0.094 FPS
  146. Count of elements                        : 447
  147. Stream size                              : 18.2 KiB (0%)
  148. Language                                 : Greek
  149. Default                                  : No
  150. Forced                                   : No
  151. Text #9
  152. ID                                       : 11
  153. Format                                   : UTF-8
  154. Codec ID                                 : S_TEXT/UTF8
  155. Codec ID/Info                            : UTF-8 Plain Text
  156. Duration                                 : 1 h 13 min
  157. Bit rate                                 : 24 b/s
  158. Frame rate                               : 0.110 FPS
  159. Count of elements                        : 484
  160. Stream size                              : 13.4 KiB (0%)
  161. Language                                 : English
  162. Default                                  : No
  163. Forced                                   : No
  164. Text #10
  165. ID                                       : 12
  166. Format                                   : UTF-8
  167. Codec ID                                 : S_TEXT/UTF8
  168. Codec ID/Info                            : UTF-8 Plain Text
  169. Duration                                 : 1 h 13 min
  170. Bit rate                                 : 20 b/s
  171. Frame rate                               : 0.099 FPS
  172. Count of elements                        : 435
  173. Stream size                              : 10.8 KiB (0%)
  174. Language                                 : English
  175. Default                                  : No
  176. Forced                                   : No
  177. Text #11
  178. ID                                       : 13
  179. Format                                   : UTF-8
  180. Codec ID                                 : S_TEXT/UTF8
  181. Codec ID/Info                            : UTF-8 Plain Text
  182. Duration                                 : 1 h 15 min
  183. Bit rate                                 : 32 b/s
  184. Frame rate                               : 0.146 FPS
  185. Count of elements                        : 658
  186. Stream size                              : 17.9 KiB (0%)
  187. Title                                    : SDH
  188. Language                                 : English
  189. Default                                  : No
  190. Forced                                   : No
  191. Text #12
  192. ID                                       : 14
  193. Format                                   : UTF-8
  194. Codec ID                                 : S_TEXT/UTF8
  195. Codec ID/Info                            : UTF-8 Plain Text
  196. Duration                                 : 1 h 19 min
  197. Bit rate                                 : 18 b/s
  198. Frame rate                               : 0.092 FPS
  199. Count of elements                        : 440
  200. Stream size                              : 10.5 KiB (0%)
  201. Title                                    : Latin American
  202. Language                                 : Spanish (Latin America)
  203. Default                                  : No
  204. Forced                                   : No
  205. Text #13
  206. ID                                       : 15
  207. Format                                   : UTF-8
  208. Codec ID                                 : S_TEXT/UTF8
  209. Codec ID/Info                            : UTF-8 Plain Text
  210. Duration                                 : 1 h 19 min
  211. Bit rate                                 : 17 b/s
  212. Frame rate                               : 0.093 FPS
  213. Count of elements                        : 444
  214. Stream size                              : 10.4 KiB (0%)
  215. Language                                 : Spanish (ES)
  216. Default                                  : No
  217. Forced                                   : No
  218. Text #14
  219. ID                                       : 16
  220. Format                                   : UTF-8
  221. Codec ID                                 : S_TEXT/UTF8
  222. Codec ID/Info                            : UTF-8 Plain Text
  223. Duration                                 : 1 h 19 min
  224. Bit rate                                 : 17 b/s
  225. Frame rate                               : 0.084 FPS
  226. Count of elements                        : 401
  227. Stream size                              : 10.3 KiB (0%)
  228. Language                                 : Finnish
  229. Default                                  : No
  230. Forced                                   : No
  231. Text #15
  232. ID                                       : 17
  233. Format                                   : UTF-8
  234. Codec ID                                 : S_TEXT/UTF8
  235. Codec ID/Info                            : UTF-8 Plain Text
  236. Duration                                 : 1 h 19 min
  237. Bit rate                                 : 19 b/s
  238. Frame rate                               : 0.093 FPS
  239. Count of elements                        : 442
  240. Stream size                              : 11.2 KiB (0%)
  241. Language                                 : fil
  242. Default                                  : No
  243. Forced                                   : No
  244. Text #16
  245. ID                                       : 18
  246. Format                                   : UTF-8
  247. Codec ID                                 : S_TEXT/UTF8
  248. Codec ID/Info                            : UTF-8 Plain Text
  249. Duration                                 : 1 h 19 min
  250. Bit rate                                 : 30 b/s
  251. Frame rate                               : 0.097 FPS
  252. Count of elements                        : 463
  253. Stream size                              : 17.6 KiB (0%)
  254. Language                                 : Hebrew
  255. Default                                  : No
  256. Forced                                   : No
  257. Text #17
  258. ID                                       : 19
  259. Format                                   : UTF-8
  260. Codec ID                                 : S_TEXT/UTF8
  261. Codec ID/Info                            : UTF-8 Plain Text
  262. Duration                                 : 1 h 19 min
  263. Bit rate                                 : 17 b/s
  264. Frame rate                               : 0.089 FPS
  265. Count of elements                        : 425
  266. Stream size                              : 9.97 KiB (0%)
  267. Language                                 : Croatian
  268. Default                                  : No
  269. Forced                                   : No
  270. Text #18
  271. ID                                       : 20
  272. Format                                   : UTF-8
  273. Codec ID                                 : S_TEXT/UTF8
  274. Codec ID/Info                            : UTF-8 Plain Text
  275. Duration                                 : 1 h 19 min
  276. Bit rate                                 : 18 b/s
  277. Frame rate                               : 0.092 FPS
  278. Count of elements                        : 441
  279. Stream size                              : 10.5 KiB (0%)
  280. Language                                 : Hungarian
  281. Default                                  : No
  282. Forced                                   : No
  283. Text #19
  284. ID                                       : 21
  285. Format                                   : UTF-8
  286. Codec ID                                 : S_TEXT/UTF8
  287. Codec ID/Info                            : UTF-8 Plain Text
  288. Duration                                 : 1 h 19 min
  289. Bit rate                                 : 18 b/s
  290. Frame rate                               : 0.095 FPS
  291. Count of elements                        : 453
  292. Stream size                              : 10.7 KiB (0%)
  293. Language                                 : Indonesian
  294. Default                                  : No
  295. Forced                                   : No
  296. Text #20
  297. ID                                       : 22
  298. Format                                   : UTF-8
  299. Codec ID                                 : S_TEXT/UTF8
  300. Codec ID/Info                            : UTF-8 Plain Text
  301. Duration                                 : 1 h 19 min
  302. Bit rate                                 : 18 b/s
  303. Frame rate                               : 0.090 FPS
  304. Count of elements                        : 430
  305. Stream size                              : 10.7 KiB (0%)
  306. Language                                 : Italian
  307. Default                                  : No
  308. Forced                                   : No
  309. Text #21
  310. ID                                       : 23
  311. Format                                   : UTF-8
  312. Codec ID                                 : S_TEXT/UTF8
  313. Codec ID/Info                            : UTF-8 Plain Text
  314. Duration                                 : 1 h 19 min
  315. Bit rate                                 : 18 b/s
  316. Frame rate                               : 0.091 FPS
  317. Count of elements                        : 432
  318. Stream size                              : 10.5 KiB (0%)
  319. Language                                 : Japanese
  320. Default                                  : No
  321. Forced                                   : No
  322. Text #22
  323. ID                                       : 24
  324. Format                                   : UTF-8
  325. Codec ID                                 : S_TEXT/UTF8
  326. Codec ID/Info                            : UTF-8 Plain Text
  327. Duration                                 : 1 h 19 min
  328. Bit rate                                 : 23 b/s
  329. Frame rate                               : 0.095 FPS
  330. Count of elements                        : 451
  331. Stream size                              : 13.8 KiB (0%)
  332. Language                                 : Korean
  333. Default                                  : No
  334. Forced                                   : No
  335. Text #23
  336. ID                                       : 25
  337. Format                                   : UTF-8
  338. Codec ID                                 : S_TEXT/UTF8
  339. Codec ID/Info                            : UTF-8 Plain Text
  340. Duration                                 : 1 h 19 min
  341. Bit rate                                 : 18 b/s
  342. Frame rate                               : 0.091 FPS
  343. Count of elements                        : 436
  344. Stream size                              : 10.9 KiB (0%)
  345. Language                                 : Malay
  346. Default                                  : No
  347. Forced                                   : No
  348. Text #24
  349. ID                                       : 26
  350. Format                                   : UTF-8
  351. Codec ID                                 : S_TEXT/UTF8
  352. Codec ID/Info                            : UTF-8 Plain Text
  353. Duration                                 : 1 h 19 min
  354. Bit rate                                 : 17 b/s
  355. Frame rate                               : 0.087 FPS
  356. Count of elements                        : 417
  357. Stream size                              : 10.3 KiB (0%)
  358. Language                                 : Norwegian Bokmal
  359. Default                                  : No
  360. Forced                                   : No
  361. Text #25
  362. ID                                       : 27
  363. Format                                   : UTF-8
  364. Codec ID                                 : S_TEXT/UTF8
  365. Codec ID/Info                            : UTF-8 Plain Text
  366. Duration                                 : 1 h 19 min
  367. Bit rate                                 : 17 b/s
  368. Frame rate                               : 0.085 FPS
  369. Count of elements                        : 407
  370. Stream size                              : 10.0 KiB (0%)
  371. Language                                 : Dutch
  372. Default                                  : No
  373. Forced                                   : No
  374. Text #26
  375. ID                                       : 28
  376. Format                                   : UTF-8
  377. Codec ID                                 : S_TEXT/UTF8
  378. Codec ID/Info                            : UTF-8 Plain Text
  379. Duration                                 : 1 h 19 min
  380. Bit rate                                 : 17 b/s
  381. Frame rate                               : 0.091 FPS
  382. Count of elements                        : 433
  383. Stream size                              : 9.99 KiB (0%)
  384. Language                                 : Polish
  385. Default                                  : No
  386. Forced                                   : No
  387. Text #27
  388. ID                                       : 29
  389. Format                                   : UTF-8
  390. Codec ID                                 : S_TEXT/UTF8
  391. Codec ID/Info                            : UTF-8 Plain Text
  392. Duration                                 : 1 h 19 min
  393. Bit rate                                 : 17 b/s
  394. Frame rate                               : 0.093 FPS
  395. Count of elements                        : 442
  396. Stream size                              : 10.4 KiB (0%)
  397. Title                                    : Brazilian
  398. Language                                 : Portuguese (BR)
  399. Default                                  : No
  400. Forced                                   : No
  401. Text #28
  402. ID                                       : 30
  403. Format                                   : UTF-8
  404. Codec ID                                 : S_TEXT/UTF8
  405. Codec ID/Info                            : UTF-8 Plain Text
  406. Duration                                 : 1 h 19 min
  407. Bit rate                                 : 18 b/s
  408. Frame rate                               : 0.094 FPS
  409. Count of elements                        : 450
  410. Stream size                              : 10.6 KiB (0%)
  411. Language                                 : Portuguese (PT)
  412. Default                                  : No
  413. Forced                                   : No
  414. Text #29
  415. ID                                       : 31
  416. Format                                   : UTF-8
  417. Codec ID                                 : S_TEXT/UTF8
  418. Codec ID/Info                            : UTF-8 Plain Text
  419. Duration                                 : 1 h 19 min
  420. Bit rate                                 : 21 b/s
  421. Frame rate                               : 0.091 FPS
  422. Count of elements                        : 433
  423. Stream size                              : 12.5 KiB (0%)
  424. Language                                 : Romanian
  425. Default                                  : No
  426. Forced                                   : No
  427. Text #30
  428. ID                                       : 32
  429. Format                                   : UTF-8
  430. Codec ID                                 : S_TEXT/UTF8
  431. Codec ID/Info                            : UTF-8 Plain Text
  432. Duration                                 : 1 h 19 min
  433. Bit rate                                 : 27 b/s
  434. Frame rate                               : 0.084 FPS
  435. Count of elements                        : 403
  436. Stream size                              : 15.8 KiB (0%)
  437. Language                                 : Russian
  438. Default                                  : No
  439. Forced                                   : No
  440. Text #31
  441. ID                                       : 33
  442. Format                                   : UTF-8
  443. Codec ID                                 : S_TEXT/UTF8
  444. Codec ID/Info                            : UTF-8 Plain Text
  445. Duration                                 : 1 h 19 min
  446. Bit rate                                 : 18 b/s
  447. Frame rate                               : 0.082 FPS
  448. Count of elements                        : 392
  449. Stream size                              : 10.9 KiB (0%)
  450. Language                                 : Swedish
  451. Default                                  : No
  452. Forced                                   : No
  453. Text #32
  454. ID                                       : 34
  455. Format                                   : UTF-8
  456. Codec ID                                 : S_TEXT/UTF8
  457. Codec ID/Info                            : UTF-8 Plain Text
  458. Duration                                 : 1 h 19 min
  459. Bit rate                                 : 48 b/s
  460. Frame rate                               : 0.093 FPS
  461. Count of elements                        : 442
  462. Stream size                              : 28.5 KiB (0%)
  463. Language                                 : Thai
  464. Default                                  : No
  465. Forced                                   : No
  466. Text #33
  467. ID                                       : 35
  468. Format                                   : UTF-8
  469. Codec ID                                 : S_TEXT/UTF8
  470. Codec ID/Info                            : UTF-8 Plain Text
  471. Duration                                 : 1 h 19 min
  472. Bit rate                                 : 19 b/s
  473. Frame rate                               : 0.092 FPS
  474. Count of elements                        : 439
  475. Stream size                              : 11.2 KiB (0%)
  476. Language                                 : Turkish
  477. Default                                  : No
  478. Forced                                   : No
  479. Text #34
  480. ID                                       : 36
  481. Format                                   : UTF-8
  482. Codec ID                                 : S_TEXT/UTF8
  483. Codec ID/Info                            : UTF-8 Plain Text
  484. Duration                                 : 1 h 13 min
  485. Bit rate                                 : 34 b/s
  486. Frame rate                               : 0.106 FPS
  487. Count of elements                        : 467
  488. Stream size                              : 18.4 KiB (0%)
  489. Language                                 : Ukrainian
  490. Default                                  : No
  491. Forced                                   : No
  492. Text #35
  493. ID                                       : 37
  494. Format                                   : UTF-8
  495. Codec ID                                 : S_TEXT/UTF8
  496. Codec ID/Info                            : UTF-8 Plain Text
  497. Duration                                 : 1 h 19 min
  498. Bit rate                                 : 26 b/s
  499. Frame rate                               : 0.092 FPS
  500. Count of elements                        : 441
  501. Stream size                              : 15.7 KiB (0%)
  502. Language                                 : Vietnamese
  503. Default                                  : No
  504. Forced                                   : No
  505. Text #36
  506. ID                                       : 38
  507. Format                                   : UTF-8
  508. Codec ID                                 : S_TEXT/UTF8
  509. Codec ID/Info                            : UTF-8 Plain Text
  510. Duration                                 : 1 h 19 min
  511. Bit rate                                 : 21 b/s
  512. Frame rate                               : 0.094 FPS
  513. Count of elements                        : 447
  514. Stream size                              : 12.4 KiB (0%)
  515. Title                                    : Simplified
  516. Language                                 : Chinese (Simplied)
  517. Default                                  : No
  518. Forced                                   : No
  519. Text #37
  520. ID                                       : 39
  521. Format                                   : UTF-8
  522. Codec ID                                 : S_TEXT/UTF8
  523. Codec ID/Info                            : UTF-8 Plain Text
  524. Duration                                 : 1 h 19 min
  525. Bit rate                                 : 19 b/s
  526. Frame rate                               : 0.093 FPS
  527. Count of elements                        : 443
  528. Stream size                              : 11.6 KiB (0%)
  529. Title                                    : Traditional
  530. Language                                 : Chinese (Traditional)
  531. Default                                  : No
  532. Forced                                   : No
  533. Menu
  534. 01:15:28.000                             : en:End Credits
复制代码











回复

使用道具 举报

蓝光币
100
发表于 2023-1-3 18:33:07 | 显示全部楼层
謝謝分享,但 影片種子是不是弄錯了,下載時是另外一部片子的名字
回复

使用道具 举报

蓝光币
84
发表于 2023-1-5 18:11:34 | 显示全部楼层

謝謝分享
回复

使用道具 举报

蓝光币
474
发表于 2023-1-5 19:28:12 | 显示全部楼层

既然你诚信诚意的推荐了,那我就勉为其难的看看吧!蓝光电影网不走平凡路。
回复

使用道具 举报

蓝光币
11
发表于 2023-10-10 00:32:38 | 显示全部楼层

楼主太厉害了!楼主,电影应该很好看我觉得蓝光电影网真是个好地方!
回复

使用道具 举报

蓝光币
11
发表于 2023-10-10 08:00:19 | 显示全部楼层

这东西我收了!谢谢楼主!蓝光电影网真好!
回复

使用道具 举报

蓝光币
11
发表于 2023-10-13 07:43:26 | 显示全部楼层
感谢楼主的无私分享。
回复

使用道具 举报

蓝光币
11
发表于 2023-10-15 18:47:27 | 显示全部楼层

既然你诚信诚意的推荐了,那我就勉为其难的看看吧!蓝光电影网不走平凡路。
回复

使用道具 举报

蓝光币
11
发表于 2023-10-16 08:14:11 | 显示全部楼层

这个帖子不回对不起自己!我想我是一天也不能离开蓝光电影网。
回复

使用道具 举报

蓝光币
11
发表于 2023-10-26 11:08:34 | 显示全部楼层
感谢楼主的无私分享
回复

使用道具 举报

懒得打字嘛,点击右侧快捷回复 【右侧内容,后台自定义】
您需要登录后才可以回帖 登录 | 立即加入

本版积分规则

Copyright © 2024 Comsenz Inc. Powered by 蓝光电影网

本站内容由用户自主分享和转载自互联网,转载目的在于传递更多信息,并不代表本网赞同其观点和对其真实性负责。

如有侵权、违反国家法律政策行为,请联系我们,我们会第一时间及时清除和处理!

举报反馈邮箱:4k1080.com@gmail.com

快速回复 返回顶部 返回列表