找回密码

查看: 1386|回复: 0

[2160p-WEB] 小恶魔[中文字幕].Little.Evil.2017.2160p.NF.WEB-DL.x265.10bit.SDR.DDP5.1-CRFW 8.04GB

[复制链接]
蓝光币
1848
发表于 2023-1-3 03:28:14 | 显示全部楼层 |阅读模式


◎标  题 小恶魔
◎片  名 Little Evil
◎年  代 2017
◎产  地 美国
◎类  别 笑剧 / 可骇
◎语  言 英语
◎上映日期 2017-09-01(美国)
◎IMDb评分 5.7/10 (21930人评价)
◎IMDb链接 https://www.imdb.com/title/tt2937366/
◎豆瓣评分 5.5/10 (1010人评价)
◎豆瓣链接 https://movie.douban.com/subject/26941837/
◎片  长 95分钟
◎导  演 艾利·克雷格 Eli Craig
◎编  剧 艾利·克雷格 Eli Craig
◎演  员 伊万杰琳·莉莉 Evangeline Lilly
       亚当·斯科特 Adam Scott
       莎莉·菲尔德 Sally Field
       克兰西·布朗 Clancy Brown
       凯尔·柏海莫 Kyle Bornheimer
       卡拉·盖洛 Carla Gallo
       泰勒·莱伯恩 Tyler Labine
       唐纳德·法森 Donald Faison
       布里奇异·埃弗里特 Bridget Everett
       克里斯·德埃利亚 Chris D'Elia
       欧文·阿特拉斯 Owen Atlas
       汉克·哈里斯 Hank Harris
       萨莎·威廉斯 Sasha Craig
       克里斯托弗·米勒 Christopher Mele
       布拉德·威廉姆斯 Brad Williams
       肖恩·韦斯顿·萨克 Shawn Weston Thacker
       迪伦·克拉克 Dylan Clark
       杰森·迈克尔·伯曼 Jason Michael Berman
       马可·贝尔崔米 Marco Beltrami
       布兰登·罗伯茨 Brandon Roberts
       马库斯·特朗普 Marcus Trumpp
◎简  介
  故事报告盖瑞(斯科特饰)和一个有六岁儿子的女人(莉莉饰)成婚,顺遂成为孩子继父的他却发现继子具有撒旦魔鬼的品行,他的麻烦也随之而来。
  1. Video
  2. ID                                       : 1
  3. Format                                   : HEVC
  4. Format/Info                              : High Efficiency Video Coding
  5. Format profile                           : Main 10@L5@Main
  6. Codec ID                                 : V_MPEGH/ISO/HEVC
  7. Duration                                 : 1 h 34 min
  8. Bit rate                                 : 11.5 Mb/s
  9. Width                                    : 3 840 pixels
  10. Height                                   : 2 160 pixels
  11. Display aspect ratio                     : 16:9
  12. Frame rate mode                          : Constant
  13. Frame rate                               : 23.976 (24000/1001) FPS
  14. Color space                              : YUV
  15. Chroma subsampling                       : 4:2:0
  16. Bit depth                                : 10 bits
  17. Bits/(Pixel*Frame)                       : 0.058
  18. Stream size                              : 7.62 GiB (95%)
  19. Default                                  : Yes
  20. Forced                                   : No
  21. Color range                              : Limited
  22. Color primaries                          : BT.709
  23. Transfer characteristics                 : BT.709
  24. Matrix coefficients                      : BT.709
  25. Audio
  26. ID                                       : 2
  27. Format                                   : E-AC-3
  28. Format/Info                              : Enhanced AC-3
  29. Commercial name                          : Dolby Digital Plus
  30. Codec ID                                 : A_EAC3
  31. Duration                                 : 1 h 34 min
  32. Bit rate mode                            : Constant
  33. Bit rate                                 : 640 kb/s
  34. Channel(s)                               : 6 channels
  35. Channel layout                           : L R C LFE Ls Rs
  36. Sampling rate                            : 48.0 kHz
  37. Frame rate                               : 31.250 FPS (1536 SPF)
  38. Compression mode                         : Lossy
  39. Stream size                              : 434 MiB (5%)
  40. Language                                 : English
  41. Service kind                             : Complete Main
  42. Default                                  : Yes
  43. Forced                                   : No
  44. Text #1
  45. ID                                       : 3
  46. Format                                   : UTF-8
  47. Codec ID                                 : S_TEXT/UTF8
  48. Codec ID/Info                            : UTF-8 Plain Text
  49. Duration                                 : 1 h 29 min
  50. Bit rate                                 : 83 b/s
  51. Frame rate                               : 0.281 FPS
  52. Count of elements                        : 1509
  53. Stream size                              : 54.5 KiB (0%)
  54. Language                                 : English
  55. Default                                  : No
  56. Forced                                   : No
  57. Text #2
  58. ID                                       : 4
  59. Format                                   : UTF-8
  60. Codec ID                                 : S_TEXT/UTF8
  61. Codec ID/Info                            : UTF-8 Plain Text
  62. Duration                                 : 1 h 30 min
  63. Bit rate                                 : 87 b/s
  64. Frame rate                               : 0.305 FPS
  65. Count of elements                        : 1656
  66. Stream size                              : 58.1 KiB (0%)
  67. Title                                    : SDH
  68. Language                                 : English
  69. Default                                  : No
  70. Forced                                   : No
  71. Text #3
  72. ID                                       : 5
  73. Format                                   : UTF-8
  74. Codec ID                                 : S_TEXT/UTF8
  75. Codec ID/Info                            : UTF-8 Plain Text
  76. Duration                                 : 1 h 28 min
  77. Bit rate                                 : 116 b/s
  78. Frame rate                               : 0.275 FPS
  79. Count of elements                        : 1460
  80. Stream size                              : 75.2 KiB (0%)
  81. Language                                 : Arabic
  82. Default                                  : No
  83. Forced                                   : No
  84. Text #4
  85. ID                                       : 6
  86. Format                                   : UTF-8
  87. Codec ID                                 : S_TEXT/UTF8
  88. Codec ID/Info                            : UTF-8 Plain Text
  89. Duration                                 : 1 h 28 min
  90. Bit rate                                 : 66 b/s
  91. Frame rate                               : 0.243 FPS
  92. Count of elements                        : 1288
  93. Stream size                              : 43.3 KiB (0%)
  94. Language                                 : Danish
  95. Default                                  : No
  96. Forced                                   : No
  97. Text #5
  98. ID                                       : 7
  99. Format                                   : UTF-8
  100. Codec ID                                 : S_TEXT/UTF8
  101. Codec ID/Info                            : UTF-8 Plain Text
  102. Duration                                 : 1 h 28 min
  103. Bit rate                                 : 78 b/s
  104. Frame rate                               : 0.267 FPS
  105. Count of elements                        : 1416
  106. Stream size                              : 51.1 KiB (0%)
  107. Language                                 : German
  108. Default                                  : No
  109. Forced                                   : No
  110. Text #6
  111. ID                                       : 8
  112. Format                                   : UTF-8
  113. Codec ID                                 : S_TEXT/UTF8
  114. Codec ID/Info                            : UTF-8 Plain Text
  115. Duration                                 : 1 h 28 min
  116. Bit rate                                 : 125 b/s
  117. Frame rate                               : 0.266 FPS
  118. Count of elements                        : 1412
  119. Stream size                              : 81.8 KiB (0%)
  120. Language                                 : Greek
  121. Default                                  : No
  122. Forced                                   : No
  123. Text #7
  124. ID                                       : 9
  125. Format                                   : UTF-8
  126. Codec ID                                 : S_TEXT/UTF8
  127. Codec ID/Info                            : UTF-8 Plain Text
  128. Duration                                 : 1 h 28 min
  129. Bit rate                                 : 70 b/s
  130. Frame rate                               : 0.273 FPS
  131. Count of elements                        : 1449
  132. Stream size                              : 46.0 KiB (0%)
  133. Title                                    : Latin American
  134. Language                                 : Spanish (Latin America)
  135. Default                                  : No
  136. Forced                                   : No
  137. Text #8
  138. ID                                       : 10
  139. Format                                   : UTF-8
  140. Codec ID                                 : S_TEXT/UTF8
  141. Codec ID/Info                            : UTF-8 Plain Text
  142. Duration                                 : 1 h 28 min
  143. Bit rate                                 : 73 b/s
  144. Frame rate                               : 0.274 FPS
  145. Count of elements                        : 1457
  146. Stream size                              : 47.5 KiB (0%)
  147. Title                                    : European
  148. Language                                 : Spanish (ES)
  149. Default                                  : No
  150. Forced                                   : No
  151. Text #9
  152. ID                                       : 11
  153. Format                                   : UTF-8
  154. Codec ID                                 : S_TEXT/UTF8
  155. Codec ID/Info                            : UTF-8 Plain Text
  156. Duration                                 : 1 h 28 min
  157. Bit rate                                 : 64 b/s
  158. Frame rate                               : 0.234 FPS
  159. Count of elements                        : 1243
  160. Stream size                              : 42.0 KiB (0%)
  161. Language                                 : Finnish
  162. Default                                  : No
  163. Forced                                   : No
  164. Text #10
  165. ID                                       : 12
  166. Format                                   : UTF-8
  167. Codec ID                                 : S_TEXT/UTF8
  168. Codec ID/Info                            : UTF-8 Plain Text
  169. Duration                                 : 1 h 28 min
  170. Bit rate                                 : 69 b/s
  171. Frame rate                               : 0.266 FPS
  172. Count of elements                        : 1412
  173. Stream size                              : 44.7 KiB (0%)
  174. Language                                 : French
  175. Default                                  : No
  176. Forced                                   : No
  177. Text #11
  178. ID                                       : 13
  179. Format                                   : UTF-8
  180. Codec ID                                 : S_TEXT/UTF8
  181. Codec ID/Info                            : UTF-8 Plain Text
  182. Duration                                 : 1 h 28 min
  183. Bit rate                                 : 119 b/s
  184. Frame rate                               : 0.268 FPS
  185. Count of elements                        : 1425
  186. Stream size                              : 77.4 KiB (0%)
  187. Language                                 : Hebrew
  188. Default                                  : No
  189. Forced                                   : No
  190. Text #12
  191. ID                                       : 14
  192. Format                                   : UTF-8
  193. Codec ID                                 : S_TEXT/UTF8
  194. Codec ID/Info                            : UTF-8 Plain Text
  195. Duration                                 : 1 h 28 min
  196. Bit rate                                 : 72 b/s
  197. Frame rate                               : 0.267 FPS
  198. Count of elements                        : 1416
  199. Stream size                              : 46.7 KiB (0%)
  200. Language                                 : Italian
  201. Default                                  : No
  202. Forced                                   : No
  203. Text #13
  204. ID                                       : 15
  205. Format                                   : UTF-8
  206. Codec ID                                 : S_TEXT/UTF8
  207. Codec ID/Info                            : UTF-8 Plain Text
  208. Duration                                 : 1 h 33 min
  209. Bit rate                                 : 59 b/s
  210. Frame rate                               : 0.263 FPS
  211. Count of elements                        : 1480
  212. Stream size                              : 40.8 KiB (0%)
  213. Language                                 : Japanese
  214. Default                                  : No
  215. Forced                                   : No
  216. Text #14
  217. ID                                       : 16
  218. Format                                   : UTF-8
  219. Codec ID                                 : S_TEXT/UTF8
  220. Codec ID/Info                            : UTF-8 Plain Text
  221. Duration                                 : 1 h 28 min
  222. Bit rate                                 : 79 b/s
  223. Frame rate                               : 0.275 FPS
  224. Count of elements                        : 1462
  225. Stream size                              : 51.7 KiB (0%)
  226. Language                                 : Korean
  227. Default                                  : No
  228. Forced                                   : No
  229. Text #15
  230. ID                                       : 17
  231. Format                                   : UTF-8
  232. Codec ID                                 : S_TEXT/UTF8
  233. Codec ID/Info                            : UTF-8 Plain Text
  234. Duration                                 : 1 h 28 min
  235. Bit rate                                 : 61 b/s
  236. Frame rate                               : 0.227 FPS
  237. Count of elements                        : 1207
  238. Stream size                              : 39.9 KiB (0%)
  239. Language                                 : Norwegian Bokmal
  240. Default                                  : No
  241. Forced                                   : No
  242. Text #16
  243. ID                                       : 18
  244. Format                                   : UTF-8
  245. Codec ID                                 : S_TEXT/UTF8
  246. Codec ID/Info                            : UTF-8 Plain Text
  247. Duration                                 : 1 h 28 min
  248. Bit rate                                 : 66 b/s
  249. Frame rate                               : 0.226 FPS
  250. Count of elements                        : 1198
  251. Stream size                              : 43.1 KiB (0%)
  252. Language                                 : Dutch
  253. Default                                  : No
  254. Forced                                   : No
  255. Text #17
  256. ID                                       : 19
  257. Format                                   : UTF-8
  258. Codec ID                                 : S_TEXT/UTF8
  259. Codec ID/Info                            : UTF-8 Plain Text
  260. Duration                                 : 1 h 28 min
  261. Bit rate                                 : 54 b/s
  262. Frame rate                               : 0.264 FPS
  263. Count of elements                        : 1404
  264. Stream size                              : 35.4 KiB (0%)
  265. Language                                 : Polish
  266. Default                                  : No
  267. Forced                                   : No
  268. Text #18
  269. ID                                       : 20
  270. Format                                   : UTF-8
  271. Codec ID                                 : S_TEXT/UTF8
  272. Codec ID/Info                            : UTF-8 Plain Text
  273. Duration                                 : 1 h 28 min
  274. Bit rate                                 : 72 b/s
  275. Frame rate                               : 0.271 FPS
  276. Count of elements                        : 1438
  277. Stream size                              : 46.9 KiB (0%)
  278. Title                                    : Brazilian
  279. Language                                 : Portuguese (BR)
  280. Default                                  : No
  281. Forced                                   : No
  282. Text #19
  283. ID                                       : 21
  284. Format                                   : UTF-8
  285. Codec ID                                 : S_TEXT/UTF8
  286. Codec ID/Info                            : UTF-8 Plain Text
  287. Duration                                 : 1 h 28 min
  288. Bit rate                                 : 76 b/s
  289. Frame rate                               : 0.274 FPS
  290. Count of elements                        : 1457
  291. Stream size                              : 49.4 KiB (0%)
  292. Title                                    : European
  293. Language                                 : Portuguese (PT)
  294. Default                                  : No
  295. Forced                                   : No
  296. Text #20
  297. ID                                       : 22
  298. Format                                   : UTF-8
  299. Codec ID                                 : S_TEXT/UTF8
  300. Codec ID/Info                            : UTF-8 Plain Text
  301. Duration                                 : 1 h 28 min
  302. Bit rate                                 : 77 b/s
  303. Frame rate                               : 0.273 FPS
  304. Count of elements                        : 1451
  305. Stream size                              : 50.1 KiB (0%)
  306. Language                                 : Romanian
  307. Default                                  : No
  308. Forced                                   : No
  309. Text #21
  310. ID                                       : 23
  311. Format                                   : UTF-8
  312. Codec ID                                 : S_TEXT/UTF8
  313. Codec ID/Info                            : UTF-8 Plain Text
  314. Duration                                 : 1 h 30 min
  315. Bit rate                                 : 68 b/s
  316. Frame rate                               : 0.232 FPS
  317. Count of elements                        : 1259
  318. Stream size                              : 45.3 KiB (0%)
  319. Language                                 : Swedish
  320. Default                                  : No
  321. Forced                                   : No
  322. Text #22
  323. ID                                       : 24
  324. Format                                   : UTF-8
  325. Codec ID                                 : S_TEXT/UTF8
  326. Codec ID/Info                            : UTF-8 Plain Text
  327. Duration                                 : 1 h 28 min
  328. Bit rate                                 : 191 b/s
  329. Frame rate                               : 0.275 FPS
  330. Count of elements                        : 1461
  331. Stream size                              : 124 KiB (0%)
  332. Language                                 : Thai
  333. Default                                  : No
  334. Forced                                   : No
  335. Text #23
  336. ID                                       : 25
  337. Format                                   : UTF-8
  338. Codec ID                                 : S_TEXT/UTF8
  339. Codec ID/Info                            : UTF-8 Plain Text
  340. Duration                                 : 1 h 28 min
  341. Bit rate                                 : 74 b/s
  342. Frame rate                               : 0.284 FPS
  343. Count of elements                        : 1508
  344. Stream size                              : 48.5 KiB (0%)
  345. Language                                 : Turkish
  346. Default                                  : No
  347. Forced                                   : No
  348. Text #24
  349. ID                                       : 26
  350. Format                                   : UTF-8
  351. Codec ID                                 : S_TEXT/UTF8
  352. Codec ID/Info                            : UTF-8 Plain Text
  353. Duration                                 : 1 h 33 min
  354. Bit rate                                 : 65 b/s
  355. Frame rate                               : 0.259 FPS
  356. Count of elements                        : 1457
  357. Stream size                              : 44.9 KiB (0%)
  358. Title                                    : Simplified
  359. Language                                 : Chinese (Simplied)
  360. Default                                  : No
  361. Forced                                   : No
  362. Text #25
  363. ID                                       : 27
  364. Format                                   : UTF-8
  365. Codec ID                                 : S_TEXT/UTF8
  366. Codec ID/Info                            : UTF-8 Plain Text
  367. Duration                                 : 1 h 28 min
  368. Bit rate                                 : 70 b/s
  369. Frame rate                               : 0.274 FPS
  370. Count of elements                        : 1457
  371. Stream size                              : 45.8 KiB (0%)
  372. Title                                    : Traditional
  373. Language                                 : Chinese (Traditional)
  374. Default                                  : No
  375. Forced                                   : No
  376. Menu
  377. 00:00:00.000                             : en:Part 01
  378. 01:30:49.450                             : en:Credits
复制代码











相关帖子

回复

使用道具 举报

懒得打字嘛,点击右侧快捷回复 【右侧内容,后台自定义】
您需要登录后才可以回帖 登录 | 立即加入

本版积分规则

Copyright © 2024 Comsenz Inc. Powered by 蓝光电影网

本站内容由用户自主分享和转载自互联网,转载目的在于传递更多信息,并不代表本网赞同其观点和对其真实性负责。

如有侵权、违反国家法律政策行为,请联系我们,我们会第一时间及时清除和处理!

举报反馈邮箱:4k1080.com@gmail.com

快速回复 返回顶部 返回列表