找回密码

查看: 1541|回复: 4

[2160p-WEB] 毕业季[中文字幕].Senior.Year.2022.2160p.NF.WEB-DL.x265.10bit.HDR.DDP5.1-dBBd 13.17GB

[复制链接]
蓝光币
1856
发表于 2023-1-3 03:28:15 | 显示全部楼层 |阅读模式


◎标  题 结业季
◎译  名 重返结业季 / 高中无穷期
◎片  名 Senior Year
◎年  代 2022
◎产  地 美国
◎类  别 笑剧
◎语  言 英语
◎上映日期 2022-05-13(美国)
◎IMDb评分 5.5/10 (38375人评价)
◎IMDb链接 https://www.imdb.com/title/tt5315212/
◎豆瓣评分 6.3/10 (3690人评价)
◎豆瓣链接 https://movie.douban.com/subject/35456459/
◎片  长 111分钟
◎导  演 亚历克斯·哈德卡瑟尔 Alex Hardcastle
◎编  剧 布兰登·斯科特·琼斯 Brandon Scott Jones
       安德鲁·克劳尔 Andrew Knauer
◎演  员 蕾蓓尔·威尔森 Rebel Wilson
       安格瑞·赖斯 Angourie Rice
       艾丽西亚·希尔维斯通 Alicia Silverstone
       玛丽·霍兰 Mary Holland
       茉莉·布朗 Molly Brown
       山姆·理查森 Sam Richardson
       泽尔·亚当斯 Zaire Adams
       佐伊·晁 Zoë Chao
       迈克尔·西米诺 Michael Cimino
       克里斯·帕内尔 Chris Parnell
       安娜·伊·普伊格 Ana Yi Puig
       贾斯汀·哈特雷 Justin Hartley
       泰勒·巴恩哈特 Tyler Barnhardt
       贾德·本德尔 Jade Bender
       阿凡提卡·万达纳普 Avantika Vandanapu
       乔舒亚·科利 Joshua Colley
       杰里米·雷·泰勒 Jeremy Ray Taylor
       布兰登·斯科特·琼斯 Brandon Scott Jones
       蒂凡尼·丹妮丝·霍布斯 Tiffany Denise Hobbs
       史蒂夫·青木 Steve Aoki
       约翰·克劳 John Crow
       莱纳德·R·巴特勒 Leonard R. Butler
       Darrell Snedeger Darrell Snedeger
       约翰·盖蒂尔 John Gettier
◎简  介
  一个拉拉队队长在昏迷20年后醒来,她回到高中,试着规复自己的职位,并要求拿回舞会皇后的桂冠。
  1. Video
  2. ID                                       : 1
  3. Format                                   : HEVC
  4. Format/Info                              : High Efficiency Video Coding
  5. Format profile                           : Main 10@L5@Main
  6. HDR format                               : Dolby Vision, Version 1.0, dvhe.08.06, BL+RPU, HDR10 compatible / SMPTE ST 2086, HDR10 compatible
  7. Codec ID                                 : V_MPEGH/ISO/HEVC
  8. Duration                                 : 1 h 51 min
  9. Bit rate                                 : 16.1 Mb/s
  10. Width                                    : 3 840 pixels
  11. Height                                   : 2 160 pixels
  12. Display aspect ratio                     : 16:9
  13. Frame rate mode                          : Constant
  14. Frame rate                               : 24.000 FPS
  15. Color space                              : YUV
  16. Chroma subsampling                       : 4:2:0 (Type 2)
  17. Bit depth                                : 10 bits
  18. Bits/(Pixel*Frame)                       : 0.081
  19. Stream size                              : 12.6 GiB (95%)
  20. Default                                  : Yes
  21. Forced                                   : No
  22. Color range                              : Limited
  23. Color primaries                          : BT.2020
  24. Transfer characteristics                 : PQ
  25. Matrix coefficients                      : BT.2020 non-constant
  26. Mastering display color primaries        : Display P3
  27. Mastering display luminance              : min: 0.0001 cd/m2, max: 1000 cd/m2
  28. Maximum Content Light Level              : 990 cd/m2
  29. Maximum Frame-Average Light Level        : 636 cd/m2
  30. Audio
  31. ID                                       : 2
  32. Format                                   : E-AC-3 JOC
  33. Format/Info                              : Enhanced AC-3 with Joint Object Coding
  34. Commercial name                          : Dolby Digital Plus with Dolby Atmos
  35. Codec ID                                 : A_EAC3
  36. Duration                                 : 1 h 53 min
  37. Bit rate mode                            : Constant
  38. Bit rate                                 : 768 kb/s
  39. Channel(s)                               : 6 channels
  40. Channel layout                           : L R C LFE Ls Rs
  41. Sampling rate                            : 48.0 kHz
  42. Frame rate                               : 31.250 FPS (1536 SPF)
  43. Compression mode                         : Lossy
  44. Stream size                              : 624 MiB (5%)
  45. Language                                 : English
  46. Service kind                             : Complete Main
  47. Default                                  : Yes
  48. Forced                                   : No
  49. Complexity index                         : 16
  50. Number of dynamic objects                : 15
  51. Bed channel count                        : 1 channel
  52. Bed channel configuration                : LFE
  53. Text #1
  54. ID                                       : 3
  55. Format                                   : UTF-8
  56. Codec ID                                 : S_TEXT/UTF8
  57. Codec ID/Info                            : UTF-8 Plain Text
  58. Duration                                 : 1 h 51 min
  59. Bit rate                                 : 107 b/s
  60. Frame rate                               : 0.344 FPS
  61. Count of elements                        : 2299
  62. Stream size                              : 87.3 KiB (0%)
  63. Title                                    : SDH
  64. Language                                 : English
  65. Default                                  : No
  66. Forced                                   : No
  67. Text #2
  68. ID                                       : 4
  69. Format                                   : UTF-8
  70. Codec ID                                 : S_TEXT/UTF8
  71. Codec ID/Info                            : UTF-8 Plain Text
  72. Duration                                 : 1 h 51 min
  73. Bit rate                                 : 129 b/s
  74. Frame rate                               : 0.273 FPS
  75. Count of elements                        : 1821
  76. Stream size                              : 105 KiB (0%)
  77. Language                                 : Arabic
  78. Default                                  : No
  79. Forced                                   : No
  80. Text #3
  81. ID                                       : 5
  82. Format                                   : UTF-8
  83. Codec ID                                 : S_TEXT/UTF8
  84. Codec ID/Info                            : UTF-8 Plain Text
  85. Duration                                 : 1 h 51 min
  86. Bit rate                                 : 68 b/s
  87. Frame rate                               : 0.254 FPS
  88. Count of elements                        : 1696
  89. Stream size                              : 55.3 KiB (0%)
  90. Language                                 : Catalan
  91. Default                                  : No
  92. Forced                                   : No
  93. Text #4
  94. ID                                       : 6
  95. Format                                   : UTF-8
  96. Codec ID                                 : S_TEXT/UTF8
  97. Codec ID/Info                            : UTF-8 Plain Text
  98. Duration                                 : 1 h 51 min
  99. Bit rate                                 : 71 b/s
  100. Frame rate                               : 0.260 FPS
  101. Count of elements                        : 1737
  102. Stream size                              : 58.4 KiB (0%)
  103. Language                                 : Czech
  104. Default                                  : No
  105. Forced                                   : No
  106. Text #5
  107. ID                                       : 7
  108. Format                                   : UTF-8
  109. Codec ID                                 : S_TEXT/UTF8
  110. Codec ID/Info                            : UTF-8 Plain Text
  111. Duration                                 : 1 h 51 min
  112. Bit rate                                 : 69 b/s
  113. Frame rate                               : 0.239 FPS
  114. Count of elements                        : 1598
  115. Stream size                              : 56.7 KiB (0%)
  116. Language                                 : Danish
  117. Default                                  : No
  118. Forced                                   : No
  119. Text #6
  120. ID                                       : 8
  121. Format                                   : UTF-8
  122. Codec ID                                 : S_TEXT/UTF8
  123. Codec ID/Info                            : UTF-8 Plain Text
  124. Duration                                 : 1 h 51 min
  125. Bit rate                                 : 76 b/s
  126. Frame rate                               : 0.247 FPS
  127. Count of elements                        : 1650
  128. Stream size                              : 62.1 KiB (0%)
  129. Language                                 : German
  130. Default                                  : No
  131. Forced                                   : No
  132. Text #7
  133. ID                                       : 9
  134. Format                                   : UTF-8
  135. Codec ID                                 : S_TEXT/UTF8
  136. Codec ID/Info                            : UTF-8 Plain Text
  137. Duration                                 : 1 h 51 min
  138. Bit rate                                 : 117 b/s
  139. Frame rate                               : 0.286 FPS
  140. Count of elements                        : 1909
  141. Stream size                              : 95.3 KiB (0%)
  142. Language                                 : Greek
  143. Default                                  : No
  144. Forced                                   : No
  145. Text #8
  146. ID                                       : 10
  147. Format                                   : UTF-8
  148. Codec ID                                 : S_TEXT/UTF8
  149. Codec ID/Info                            : UTF-8 Plain Text
  150. Duration                                 : 1 h 48 min
  151. Bit rate                                 : 90 b/s
  152. Frame rate                               : 0.305 FPS
  153. Count of elements                        : 1985
  154. Stream size                              : 71.8 KiB (0%)
  155. Title                                    : SDH
  156. Language                                 : Spanish
  157. Default                                  : No
  158. Forced                                   : No
  159. Text #9
  160. ID                                       : 11
  161. Format                                   : UTF-8
  162. Codec ID                                 : S_TEXT/UTF8
  163. Codec ID/Info                            : UTF-8 Plain Text
  164. Duration                                 : 1 h 51 min
  165. Bit rate                                 : 72 b/s
  166. Frame rate                               : 0.265 FPS
  167. Count of elements                        : 1767
  168. Stream size                              : 58.7 KiB (0%)
  169. Language                                 : Spanish
  170. Default                                  : No
  171. Forced                                   : No
  172. Text #10
  173. ID                                       : 12
  174. Format                                   : UTF-8
  175. Codec ID                                 : S_TEXT/UTF8
  176. Codec ID/Info                            : UTF-8 Plain Text
  177. Duration                                 : 1 h 48 min
  178. Bit rate                                 : 83 b/s
  179. Frame rate                               : 0.281 FPS
  180. Count of elements                        : 1826
  181. Stream size                              : 66.3 KiB (0%)
  182. Language                                 : Spanish
  183. Default                                  : No
  184. Forced                                   : No
  185. Text #11
  186. ID                                       : 13
  187. Format                                   : UTF-8
  188. Codec ID                                 : S_TEXT/UTF8
  189. Codec ID/Info                            : UTF-8 Plain Text
  190. Duration                                 : 1 h 51 min
  191. Bit rate                                 : 66 b/s
  192. Frame rate                               : 0.280 FPS
  193. Count of elements                        : 1864
  194. Stream size                              : 54.5 KiB (0%)
  195. Title                                    : Europe
  196. Language                                 : Spanish (150)
  197. Default                                  : No
  198. Forced                                   : No
  199. Text #12
  200. ID                                       : 14
  201. Format                                   : UTF-8
  202. Codec ID                                 : S_TEXT/UTF8
  203. Codec ID/Info                            : UTF-8 Plain Text
  204. Duration                                 : 1 h 51 min
  205. Bit rate                                 : 68 b/s
  206. Frame rate                               : 0.262 FPS
  207. Count of elements                        : 1748
  208. Stream size                              : 55.7 KiB (0%)
  209. Language                                 : Basque
  210. Default                                  : No
  211. Forced                                   : No
  212. Text #13
  213. ID                                       : 15
  214. Format                                   : UTF-8
  215. Codec ID                                 : S_TEXT/UTF8
  216. Codec ID/Info                            : UTF-8 Plain Text
  217. Duration                                 : 1 h 51 min
  218. Bit rate                                 : 68 b/s
  219. Frame rate                               : 0.242 FPS
  220. Count of elements                        : 1614
  221. Stream size                              : 55.6 KiB (0%)
  222. Language                                 : Finnish
  223. Default                                  : No
  224. Forced                                   : No
  225. Text #14
  226. ID                                       : 16
  227. Format                                   : UTF-8
  228. Codec ID                                 : S_TEXT/UTF8
  229. Codec ID/Info                            : UTF-8 Plain Text
  230. Duration                                 : 1 h 51 min
  231. Bit rate                                 : 70 b/s
  232. Frame rate                               : 0.257 FPS
  233. Count of elements                        : 1715
  234. Stream size                              : 57.6 KiB (0%)
  235. Language                                 : fil
  236. Default                                  : No
  237. Forced                                   : No
  238. Text #15
  239. ID                                       : 17
  240. Format                                   : UTF-8
  241. Codec ID                                 : S_TEXT/UTF8
  242. Codec ID/Info                            : UTF-8 Plain Text
  243. Duration                                 : 1 h 48 min
  244. Bit rate                                 : 74 b/s
  245. Frame rate                               : 0.247 FPS
  246. Count of elements                        : 1607
  247. Stream size                              : 58.8 KiB (0%)
  248. Language                                 : French
  249. Default                                  : No
  250. Forced                                   : No
  251. Text #16
  252. ID                                       : 18
  253. Format                                   : UTF-8
  254. Codec ID                                 : S_TEXT/UTF8
  255. Codec ID/Info                            : UTF-8 Plain Text
  256. Duration                                 : 1 h 51 min
  257. Bit rate                                 : 62 b/s
  258. Frame rate                               : 0.262 FPS
  259. Count of elements                        : 1750
  260. Stream size                              : 50.8 KiB (0%)
  261. Language                                 : Galician
  262. Default                                  : No
  263. Forced                                   : No
  264. Text #17
  265. ID                                       : 19
  266. Format                                   : UTF-8
  267. Codec ID                                 : S_TEXT/UTF8
  268. Codec ID/Info                            : UTF-8 Plain Text
  269. Duration                                 : 1 h 51 min
  270. Bit rate                                 : 116 b/s
  271. Frame rate                               : 0.274 FPS
  272. Count of elements                        : 1826
  273. Stream size                              : 95.1 KiB (0%)
  274. Language                                 : Hebrew
  275. Default                                  : No
  276. Forced                                   : No
  277. Text #18
  278. ID                                       : 20
  279. Format                                   : UTF-8
  280. Codec ID                                 : S_TEXT/UTF8
  281. Codec ID/Info                            : UTF-8 Plain Text
  282. Duration                                 : 1 h 51 min
  283. Bit rate                                 : 66 b/s
  284. Frame rate                               : 0.249 FPS
  285. Count of elements                        : 1662
  286. Stream size                              : 53.9 KiB (0%)
  287. Language                                 : Croatian
  288. Default                                  : No
  289. Forced                                   : No
  290. Text #19
  291. ID                                       : 21
  292. Format                                   : UTF-8
  293. Codec ID                                 : S_TEXT/UTF8
  294. Codec ID/Info                            : UTF-8 Plain Text
  295. Duration                                 : 1 h 51 min
  296. Bit rate                                 : 73 b/s
  297. Frame rate                               : 0.254 FPS
  298. Count of elements                        : 1691
  299. Stream size                              : 59.8 KiB (0%)
  300. Language                                 : Hungarian
  301. Default                                  : No
  302. Forced                                   : No
  303. Text #20
  304. ID                                       : 22
  305. Format                                   : UTF-8
  306. Codec ID                                 : S_TEXT/UTF8
  307. Codec ID/Info                            : UTF-8 Plain Text
  308. Duration                                 : 1 h 51 min
  309. Bit rate                                 : 70 b/s
  310. Frame rate                               : 0.263 FPS
  311. Count of elements                        : 1751
  312. Stream size                              : 57.6 KiB (0%)
  313. Language                                 : Indonesian
  314. Default                                  : No
  315. Forced                                   : No
  316. Text #21
  317. ID                                       : 23
  318. Format                                   : UTF-8
  319. Codec ID                                 : S_TEXT/UTF8
  320. Codec ID/Info                            : UTF-8 Plain Text
  321. Duration                                 : 1 h 51 min
  322. Bit rate                                 : 72 b/s
  323. Frame rate                               : 0.247 FPS
  324. Count of elements                        : 1645
  325. Stream size                              : 59.4 KiB (0%)
  326. Language                                 : Italian
  327. Default                                  : No
  328. Forced                                   : No
  329. Text #22
  330. ID                                       : 24
  331. Format                                   : UTF-8
  332. Codec ID                                 : S_TEXT/UTF8
  333. Codec ID/Info                            : UTF-8 Plain Text
  334. Duration                                 : 1 h 48 min
  335. Bit rate                                 : 70 b/s
  336. Frame rate                               : 0.273 FPS
  337. Count of elements                        : 1778
  338. Stream size                              : 55.8 KiB (0%)
  339. Language                                 : Japanese
  340. Default                                  : No
  341. Forced                                   : No
  342. Text #23
  343. ID                                       : 25
  344. Format                                   : UTF-8
  345. Codec ID                                 : S_TEXT/UTF8
  346. Codec ID/Info                            : UTF-8 Plain Text
  347. Duration                                 : 1 h 51 min
  348. Bit rate                                 : 94 b/s
  349. Frame rate                               : 0.265 FPS
  350. Count of elements                        : 1769
  351. Stream size                              : 76.5 KiB (0%)
  352. Language                                 : Korean
  353. Default                                  : No
  354. Forced                                   : No
  355. Text #24
  356. ID                                       : 26
  357. Format                                   : UTF-8
  358. Codec ID                                 : S_TEXT/UTF8
  359. Codec ID/Info                            : UTF-8 Plain Text
  360. Duration                                 : 1 h 51 min
  361. Bit rate                                 : 69 b/s
  362. Frame rate                               : 0.258 FPS
  363. Count of elements                        : 1717
  364. Stream size                              : 56.7 KiB (0%)
  365. Language                                 : Malay
  366. Default                                  : No
  367. Forced                                   : No
  368. Text #25
  369. ID                                       : 27
  370. Format                                   : UTF-8
  371. Codec ID                                 : S_TEXT/UTF8
  372. Codec ID/Info                            : UTF-8 Plain Text
  373. Duration                                 : 1 h 51 min
  374. Bit rate                                 : 65 b/s
  375. Frame rate                               : 0.236 FPS
  376. Count of elements                        : 1573
  377. Stream size                              : 53.1 KiB (0%)
  378. Language                                 : Norwegian Bokmal
  379. Default                                  : No
  380. Forced                                   : No
  381. Text #26
  382. ID                                       : 28
  383. Format                                   : UTF-8
  384. Codec ID                                 : S_TEXT/UTF8
  385. Codec ID/Info                            : UTF-8 Plain Text
  386. Duration                                 : 1 h 51 min
  387. Bit rate                                 : 67 b/s
  388. Frame rate                               : 0.231 FPS
  389. Count of elements                        : 1537
  390. Stream size                              : 54.7 KiB (0%)
  391. Language                                 : Dutch
  392. Default                                  : No
  393. Forced                                   : No
  394. Text #27
  395. ID                                       : 29
  396. Format                                   : UTF-8
  397. Codec ID                                 : S_TEXT/UTF8
  398. Codec ID/Info                            : UTF-8 Plain Text
  399. Duration                                 : 1 h 51 min
  400. Bit rate                                 : 70 b/s
  401. Frame rate                               : 0.262 FPS
  402. Count of elements                        : 1748
  403. Stream size                              : 57.6 KiB (0%)
  404. Language                                 : Polish
  405. Default                                  : No
  406. Forced                                   : No
  407. Text #28
  408. ID                                       : 30
  409. Format                                   : UTF-8
  410. Codec ID                                 : S_TEXT/UTF8
  411. Codec ID/Info                            : UTF-8 Plain Text
  412. Duration                                 : 1 h 51 min
  413. Bit rate                                 : 73 b/s
  414. Frame rate                               : 0.254 FPS
  415. Count of elements                        : 1695
  416. Stream size                              : 59.7 KiB (0%)
  417. Language                                 : Portuguese
  418. Default                                  : No
  419. Forced                                   : No
  420. Text #29
  421. ID                                       : 31
  422. Format                                   : UTF-8
  423. Codec ID                                 : S_TEXT/UTF8
  424. Codec ID/Info                            : UTF-8 Plain Text
  425. Duration                                 : 1 h 51 min
  426. Bit rate                                 : 92 b/s
  427. Frame rate                               : 0.301 FPS
  428. Count of elements                        : 2017
  429. Stream size                              : 75.5 KiB (0%)
  430. Title                                    : Brazil (SDH)
  431. Language                                 : Portuguese (BR)
  432. Default                                  : No
  433. Forced                                   : No
  434. Text #30
  435. ID                                       : 32
  436. Format                                   : UTF-8
  437. Codec ID                                 : S_TEXT/UTF8
  438. Codec ID/Info                            : UTF-8 Plain Text
  439. Duration                                 : 1 h 51 min
  440. Bit rate                                 : 69 b/s
  441. Frame rate                               : 0.260 FPS
  442. Count of elements                        : 1734
  443. Stream size                              : 56.9 KiB (0%)
  444. Title                                    : Brazil
  445. Language                                 : Portuguese (BR)
  446. Default                                  : No
  447. Forced                                   : No
  448. Text #31
  449. ID                                       : 33
  450. Format                                   : UTF-8
  451. Codec ID                                 : S_TEXT/UTF8
  452. Codec ID/Info                            : UTF-8 Plain Text
  453. Duration                                 : 1 h 48 min
  454. Bit rate                                 : 86 b/s
  455. Frame rate                               : 0.282 FPS
  456. Count of elements                        : 1837
  457. Stream size                              : 68.5 KiB (0%)
  458. Title                                    : Brazil
  459. Language                                 : Portuguese (BR)
  460. Default                                  : No
  461. Forced                                   : No
  462. Text #32
  463. ID                                       : 34
  464. Format                                   : UTF-8
  465. Codec ID                                 : S_TEXT/UTF8
  466. Codec ID/Info                            : UTF-8 Plain Text
  467. Duration                                 : 1 h 51 min
  468. Bit rate                                 : 81 b/s
  469. Frame rate                               : 0.260 FPS
  470. Count of elements                        : 1732
  471. Stream size                              : 66.0 KiB (0%)
  472. Language                                 : Romanian
  473. Default                                  : No
  474. Forced                                   : No
  475. Text #33
  476. ID                                       : 35
  477. Format                                   : UTF-8
  478. Codec ID                                 : S_TEXT/UTF8
  479. Codec ID/Info                            : UTF-8 Plain Text
  480. Duration                                 : 1 h 51 min
  481. Bit rate                                 : 120 b/s
  482. Frame rate                               : 0.264 FPS
  483. Count of elements                        : 1758
  484. Stream size                              : 97.8 KiB (0%)
  485. Language                                 : Russian
  486. Default                                  : No
  487. Forced                                   : No
  488. Text #34
  489. ID                                       : 36
  490. Format                                   : UTF-8
  491. Codec ID                                 : S_TEXT/UTF8
  492. Codec ID/Info                            : UTF-8 Plain Text
  493. Duration                                 : 1 h 51 min
  494. Bit rate                                 : 65 b/s
  495. Frame rate                               : 0.239 FPS
  496. Count of elements                        : 1592
  497. Stream size                              : 53.6 KiB (0%)
  498. Language                                 : Swedish
  499. Default                                  : No
  500. Forced                                   : No
  501. Text #35
  502. ID                                       : 37
  503. Format                                   : UTF-8
  504. Codec ID                                 : S_TEXT/UTF8
  505. Codec ID/Info                            : UTF-8 Plain Text
  506. Duration                                 : 1 h 51 min
  507. Bit rate                                 : 206 b/s
  508. Frame rate                               : 0.268 FPS
  509. Count of elements                        : 1785
  510. Stream size                              : 168 KiB (0%)
  511. Language                                 : Thai
  512. Default                                  : No
  513. Forced                                   : No
  514. Text #36
  515. ID                                       : 38
  516. Format                                   : UTF-8
  517. Codec ID                                 : S_TEXT/UTF8
  518. Codec ID/Info                            : UTF-8 Plain Text
  519. Duration                                 : 1 h 51 min
  520. Bit rate                                 : 70 b/s
  521. Frame rate                               : 0.261 FPS
  522. Count of elements                        : 1737
  523. Stream size                              : 57.3 KiB (0%)
  524. Language                                 : Turkish
  525. Default                                  : No
  526. Forced                                   : No
  527. Text #37
  528. ID                                       : 39
  529. Format                                   : UTF-8
  530. Codec ID                                 : S_TEXT/UTF8
  531. Codec ID/Info                            : UTF-8 Plain Text
  532. Duration                                 : 1 h 51 min
  533. Bit rate                                 : 117 b/s
  534. Frame rate                               : 0.253 FPS
  535. Count of elements                        : 1689
  536. Stream size                              : 95.6 KiB (0%)
  537. Language                                 : Ukrainian
  538. Default                                  : No
  539. Forced                                   : No
  540. Text #38
  541. ID                                       : 40
  542. Format                                   : UTF-8
  543. Codec ID                                 : S_TEXT/UTF8
  544. Codec ID/Info                            : UTF-8 Plain Text
  545. Duration                                 : 1 h 51 min
  546. Bit rate                                 : 103 b/s
  547. Frame rate                               : 0.262 FPS
  548. Count of elements                        : 1747
  549. Stream size                              : 84.2 KiB (0%)
  550. Language                                 : Vietnamese
  551. Default                                  : No
  552. Forced                                   : No
  553. Text #39
  554. ID                                       : 41
  555. Format                                   : UTF-8
  556. Codec ID                                 : S_TEXT/UTF8
  557. Codec ID/Info                            : UTF-8 Plain Text
  558. Duration                                 : 1 h 51 min
  559. Bit rate                                 : 76 b/s
  560. Frame rate                               : 0.262 FPS
  561. Count of elements                        : 1745
  562. Stream size                              : 62.4 KiB (0%)
  563. Title                                    : Simplified
  564. Language                                 : Chinese (Simplied)
  565. Default                                  : No
  566. Forced                                   : No
  567. Text #40
  568. ID                                       : 42
  569. Format                                   : UTF-8
  570. Codec ID                                 : S_TEXT/UTF8
  571. Codec ID/Info                            : UTF-8 Plain Text
  572. Duration                                 : 1 h 51 min
  573. Bit rate                                 : 80 b/s
  574. Frame rate                               : 0.291 FPS
  575. Count of elements                        : 1939
  576. Stream size                              : 65.4 KiB (0%)
  577. Title                                    : Traditional
  578. Language                                 : Chinese (Traditional)
  579. Default                                  : No
  580. Forced                                   : No
复制代码











回复

使用道具 举报

蓝光币
1337
发表于 2023-1-3 19:17:51 | 显示全部楼层

这个帖子不回对不起自己!我想我是一天也不能离开蓝光电影网。
回复

使用道具 举报

蓝光币
160
发表于 2023-1-3 23:38:31 | 显示全部楼层
这个电影很好看呀
回复

使用道具 举报

蓝光币
10
发表于 2023-1-4 11:50:51 | 显示全部楼层
感谢楼主
回复

使用道具 举报

蓝光币
681
发表于 2023-1-4 14:36:49 | 显示全部楼层
感谢分享
回复

使用道具 举报

懒得打字嘛,点击右侧快捷回复 【右侧内容,后台自定义】
您需要登录后才可以回帖 登录 | 立即加入

本版积分规则

Copyright © 2024 Comsenz Inc. Powered by 蓝光电影网

本站内容由用户自主分享和转载自互联网,转载目的在于传递更多信息,并不代表本网赞同其观点和对其真实性负责。

如有侵权、违反国家法律政策行为,请联系我们,我们会第一时间及时清除和处理!

举报反馈邮箱:4k1080.com@gmail.com

快速回复 返回顶部 返回列表