找回密码

查看: 1617|回复: 3

[2160p-WEB] 该吃药了:赞安诺[中文字幕].Take.Your.Pills.Xanax.2022.2160p.NF.WEB-DL.x265.10bit.HDR.DDP5.1-SNiFF 6.98GB

[复制链接]
蓝光币
1848
发表于 2023-1-3 03:28:15 | 显示全部楼层 |阅读模式


◎标  题 该吃药了:赞安诺
◎译  名 请服药:赞安诺(台)
◎片  名 Take Your Pills: Xanax
◎年  代 2022
◎产  地 美国
◎类  别 记载片
◎语  言 英语
◎上映日期 2022-11-30(美国)
◎IMDb评分 6/10 (875人评价)
◎IMDb链接 https://www.imdb.com/title/tt23556804/
◎豆瓣评分 6.9/10 (163人评价)
◎豆瓣链接 https://movie.douban.com/subject/36174549/
◎片  长 90分钟
◎导  演 Blair Foster Blair Foster
◎编  剧 Claire Gordon Claire Gordon
◎简  介
  A cure for some and a curse for others, widely prescribed anti-anxiety medication is examined by patients and experts in this revealing documentary.
  1. Video
  2. ID                                       : 1
  3. Format                                   : HEVC
  4. Format/Info                              : High Efficiency Video Coding
  5. Format profile                           : Main 10@L5@Main
  6. HDR format                               : Dolby Vision, Version 1.0, dvhe.08.06, BL+RPU, HDR10 compatible / SMPTE ST 2086, HDR10 compatible
  7. Codec ID                                 : V_MPEGH/ISO/HEVC
  8. Duration                                 : 1 h 18 min
  9. Bit rate                                 : 12.0 Mb/s
  10. Width                                    : 3 840 pixels
  11. Height                                   : 2 160 pixels
  12. Display aspect ratio                     : 16:9
  13. Frame rate mode                          : Constant
  14. Frame rate                               : 23.976 (24000/1001) FPS
  15. Color space                              : YUV
  16. Chroma subsampling                       : 4:2:0 (Type 2)
  17. Bit depth                                : 10 bits
  18. Bits/(Pixel*Frame)                       : 0.060
  19. Stream size                              : 6.62 GiB (95%)
  20. Default                                  : Yes
  21. Forced                                   : No
  22. Color range                              : Limited
  23. Color primaries                          : BT.2020
  24. Transfer characteristics                 : PQ
  25. Matrix coefficients                      : BT.2020 non-constant
  26. Mastering display color primaries        : Display P3
  27. Mastering display luminance              : min: 0.0001 cd/m2, max: 1000 cd/m2
  28. Maximum Content Light Level              : 1292 cd/m2
  29. Maximum Frame-Average Light Level        : 338 cd/m2
  30. Audio
  31. ID                                       : 2
  32. Format                                   : E-AC-3
  33. Format/Info                              : Enhanced AC-3
  34. Commercial name                          : Dolby Digital Plus
  35. Codec ID                                 : A_EAC3
  36. Duration                                 : 1 h 19 min
  37. Bit rate mode                            : Constant
  38. Bit rate                                 : 640 kb/s
  39. Channel(s)                               : 6 channels
  40. Channel layout                           : L R C LFE Ls Rs
  41. Sampling rate                            : 48.0 kHz
  42. Frame rate                               : 31.250 FPS (1536 SPF)
  43. Compression mode                         : Lossy
  44. Stream size                              : 362 MiB (5%)
  45. Language                                 : English
  46. Service kind                             : Complete Main
  47. Default                                  : Yes
  48. Forced                                   : No
  49. Text #1
  50. ID                                       : 3
  51. Format                                   : UTF-8
  52. Codec ID                                 : S_TEXT/UTF8
  53. Codec ID/Info                            : UTF-8 Plain Text
  54. Duration                                 : 1 h 18 min
  55. Bit rate                                 : 119 b/s
  56. Frame rate                               : 0.310 FPS
  57. Count of elements                        : 1461
  58. Stream size                              : 68.7 KiB (0%)
  59. Title                                    : SDH
  60. Language                                 : English
  61. Default                                  : No
  62. Forced                                   : No
  63. Text #2
  64. ID                                       : 4
  65. Format                                   : UTF-8
  66. Codec ID                                 : S_TEXT/UTF8
  67. Codec ID/Info                            : UTF-8 Plain Text
  68. Duration                                 : 1 h 16 min
  69. Bit rate                                 : 186 b/s
  70. Frame rate                               : 0.301 FPS
  71. Count of elements                        : 1377
  72. Stream size                              : 104 KiB (0%)
  73. Language                                 : Arabic
  74. Default                                  : No
  75. Forced                                   : No
  76. Text #3
  77. ID                                       : 5
  78. Format                                   : UTF-8
  79. Codec ID                                 : S_TEXT/UTF8
  80. Codec ID/Info                            : UTF-8 Plain Text
  81. Duration                                 : 1 h 18 min
  82. Bit rate                                 : 105 b/s
  83. Frame rate                               : 0.292 FPS
  84. Count of elements                        : 1375
  85. Stream size                              : 60.7 KiB (0%)
  86. Language                                 : Czech
  87. Default                                  : No
  88. Forced                                   : No
  89. Text #4
  90. ID                                       : 6
  91. Format                                   : UTF-8
  92. Codec ID                                 : S_TEXT/UTF8
  93. Codec ID/Info                            : UTF-8 Plain Text
  94. Duration                                 : 1 h 18 min
  95. Bit rate                                 : 97 b/s
  96. Frame rate                               : 0.264 FPS
  97. Count of elements                        : 1242
  98. Stream size                              : 56.3 KiB (0%)
  99. Language                                 : Danish
  100. Default                                  : No
  101. Forced                                   : No
  102. Text #5
  103. ID                                       : 7
  104. Format                                   : UTF-8
  105. Codec ID                                 : S_TEXT/UTF8
  106. Codec ID/Info                            : UTF-8 Plain Text
  107. Duration                                 : 1 h 18 min
  108. Bit rate                                 : 103 b/s
  109. Frame rate                               : 0.283 FPS
  110. Count of elements                        : 1330
  111. Stream size                              : 59.3 KiB (0%)
  112. Language                                 : German
  113. Default                                  : No
  114. Forced                                   : No
  115. Text #6
  116. ID                                       : 8
  117. Format                                   : UTF-8
  118. Codec ID                                 : S_TEXT/UTF8
  119. Codec ID/Info                            : UTF-8 Plain Text
  120. Duration                                 : 1 h 18 min
  121. Bit rate                                 : 175 b/s
  122. Frame rate                               : 0.287 FPS
  123. Count of elements                        : 1351
  124. Stream size                              : 101 KiB (0%)
  125. Language                                 : Greek
  126. Default                                  : No
  127. Forced                                   : No
  128. Text #7
  129. ID                                       : 9
  130. Format                                   : UTF-8
  131. Codec ID                                 : S_TEXT/UTF8
  132. Codec ID/Info                            : UTF-8 Plain Text
  133. Duration                                 : 1 h 18 min
  134. Bit rate                                 : 92 b/s
  135. Frame rate                               : 0.278 FPS
  136. Count of elements                        : 1310
  137. Stream size                              : 53.3 KiB (0%)
  138. Language                                 : Spanish
  139. Default                                  : No
  140. Forced                                   : No
  141. Text #8
  142. ID                                       : 10
  143. Format                                   : UTF-8
  144. Codec ID                                 : S_TEXT/UTF8
  145. Codec ID/Info                            : UTF-8 Plain Text
  146. Duration                                 : 1 h 18 min
  147. Bit rate                                 : 96 b/s
  148. Frame rate                               : 0.282 FPS
  149. Count of elements                        : 1327
  150. Stream size                              : 55.3 KiB (0%)
  151. Title                                    : Europe
  152. Language                                 : Spanish (150)
  153. Default                                  : No
  154. Forced                                   : No
  155. Text #9
  156. ID                                       : 11
  157. Format                                   : UTF-8
  158. Codec ID                                 : S_TEXT/UTF8
  159. Codec ID/Info                            : UTF-8 Plain Text
  160. Duration                                 : 1 h 18 min
  161. Bit rate                                 : 96 b/s
  162. Frame rate                               : 0.273 FPS
  163. Count of elements                        : 1283
  164. Stream size                              : 55.4 KiB (0%)
  165. Language                                 : Finnish
  166. Default                                  : No
  167. Forced                                   : No
  168. Text #10
  169. ID                                       : 12
  170. Format                                   : UTF-8
  171. Codec ID                                 : S_TEXT/UTF8
  172. Codec ID/Info                            : UTF-8 Plain Text
  173. Duration                                 : 1 h 18 min
  174. Bit rate                                 : 103 b/s
  175. Frame rate                               : 0.292 FPS
  176. Count of elements                        : 1375
  177. Stream size                              : 59.8 KiB (0%)
  178. Language                                 : fil
  179. Default                                  : No
  180. Forced                                   : No
  181. Text #11
  182. ID                                       : 13
  183. Format                                   : UTF-8
  184. Codec ID                                 : S_TEXT/UTF8
  185. Codec ID/Info                            : UTF-8 Plain Text
  186. Duration                                 : 1 h 18 min
  187. Bit rate                                 : 100 b/s
  188. Frame rate                               : 0.267 FPS
  189. Count of elements                        : 1255
  190. Stream size                              : 57.7 KiB (0%)
  191. Language                                 : French
  192. Default                                  : No
  193. Forced                                   : No
  194. Text #12
  195. ID                                       : 14
  196. Format                                   : UTF-8
  197. Codec ID                                 : S_TEXT/UTF8
  198. Codec ID/Info                            : UTF-8 Plain Text
  199. Duration                                 : 1 h 18 min
  200. Bit rate                                 : 169 b/s
  201. Frame rate                               : 0.304 FPS
  202. Count of elements                        : 1429
  203. Stream size                              : 97.2 KiB (0%)
  204. Language                                 : Hebrew
  205. Default                                  : No
  206. Forced                                   : No
  207. Text #13
  208. ID                                       : 15
  209. Format                                   : UTF-8
  210. Codec ID                                 : S_TEXT/UTF8
  211. Codec ID/Info                            : UTF-8 Plain Text
  212. Duration                                 : 1 h 18 min
  213. Bit rate                                 : 100 b/s
  214. Frame rate                               : 0.283 FPS
  215. Count of elements                        : 1333
  216. Stream size                              : 57.9 KiB (0%)
  217. Language                                 : Croatian
  218. Default                                  : No
  219. Forced                                   : No
  220. Text #14
  221. ID                                       : 16
  222. Format                                   : UTF-8
  223. Codec ID                                 : S_TEXT/UTF8
  224. Codec ID/Info                            : UTF-8 Plain Text
  225. Duration                                 : 1 h 18 min
  226. Bit rate                                 : 101 b/s
  227. Frame rate                               : 0.283 FPS
  228. Count of elements                        : 1332
  229. Stream size                              : 58.6 KiB (0%)
  230. Language                                 : Hungarian
  231. Default                                  : No
  232. Forced                                   : No
  233. Text #15
  234. ID                                       : 17
  235. Format                                   : UTF-8
  236. Codec ID                                 : S_TEXT/UTF8
  237. Codec ID/Info                            : UTF-8 Plain Text
  238. Duration                                 : 1 h 18 min
  239. Bit rate                                 : 102 b/s
  240. Frame rate                               : 0.293 FPS
  241. Count of elements                        : 1379
  242. Stream size                              : 58.9 KiB (0%)
  243. Language                                 : Indonesian
  244. Default                                  : No
  245. Forced                                   : No
  246. Text #16
  247. ID                                       : 18
  248. Format                                   : UTF-8
  249. Codec ID                                 : S_TEXT/UTF8
  250. Codec ID/Info                            : UTF-8 Plain Text
  251. Duration                                 : 1 h 18 min
  252. Bit rate                                 : 100 b/s
  253. Frame rate                               : 0.281 FPS
  254. Count of elements                        : 1324
  255. Stream size                              : 57.9 KiB (0%)
  256. Language                                 : Italian
  257. Default                                  : No
  258. Forced                                   : No
  259. Text #17
  260. ID                                       : 19
  261. Format                                   : UTF-8
  262. Codec ID                                 : S_TEXT/UTF8
  263. Codec ID/Info                            : UTF-8 Plain Text
  264. Duration                                 : 1 h 18 min
  265. Bit rate                                 : 119 b/s
  266. Frame rate                               : 0.341 FPS
  267. Count of elements                        : 1605
  268. Stream size                              : 68.9 KiB (0%)
  269. Language                                 : Japanese
  270. Default                                  : No
  271. Forced                                   : No
  272. Text #18
  273. ID                                       : 20
  274. Format                                   : UTF-8
  275. Codec ID                                 : S_TEXT/UTF8
  276. Codec ID/Info                            : UTF-8 Plain Text
  277. Duration                                 : 1 h 18 min
  278. Bit rate                                 : 124 b/s
  279. Frame rate                               : 0.300 FPS
  280. Count of elements                        : 1413
  281. Stream size                              : 71.7 KiB (0%)
  282. Language                                 : Korean
  283. Default                                  : No
  284. Forced                                   : No
  285. Text #19
  286. ID                                       : 21
  287. Format                                   : UTF-8
  288. Codec ID                                 : S_TEXT/UTF8
  289. Codec ID/Info                            : UTF-8 Plain Text
  290. Duration                                 : 1 h 18 min
  291. Bit rate                                 : 96 b/s
  292. Frame rate                               : 0.290 FPS
  293. Count of elements                        : 1364
  294. Stream size                              : 55.5 KiB (0%)
  295. Language                                 : Malay
  296. Default                                  : No
  297. Forced                                   : No
  298. Text #20
  299. ID                                       : 22
  300. Format                                   : UTF-8
  301. Codec ID                                 : S_TEXT/UTF8
  302. Codec ID/Info                            : UTF-8 Plain Text
  303. Duration                                 : 1 h 18 min
  304. Bit rate                                 : 98 b/s
  305. Frame rate                               : 0.255 FPS
  306. Count of elements                        : 1202
  307. Stream size                              : 56.5 KiB (0%)
  308. Language                                 : Norwegian Bokmal
  309. Default                                  : No
  310. Forced                                   : No
  311. Text #21
  312. ID                                       : 23
  313. Format                                   : UTF-8
  314. Codec ID                                 : S_TEXT/UTF8
  315. Codec ID/Info                            : UTF-8 Plain Text
  316. Duration                                 : 1 h 18 min
  317. Bit rate                                 : 104 b/s
  318. Frame rate                               : 0.264 FPS
  319. Count of elements                        : 1244
  320. Stream size                              : 60.2 KiB (0%)
  321. Language                                 : Dutch
  322. Default                                  : No
  323. Forced                                   : No
  324. Text #22
  325. ID                                       : 24
  326. Format                                   : UTF-8
  327. Codec ID                                 : S_TEXT/UTF8
  328. Codec ID/Info                            : UTF-8 Plain Text
  329. Duration                                 : 1 h 18 min
  330. Bit rate                                 : 85 b/s
  331. Frame rate                               : 0.258 FPS
  332. Count of elements                        : 1214
  333. Stream size                              : 49.2 KiB (0%)
  334. Language                                 : Polish
  335. Default                                  : No
  336. Forced                                   : No
  337. Text #23
  338. ID                                       : 25
  339. Format                                   : UTF-8
  340. Codec ID                                 : S_TEXT/UTF8
  341. Codec ID/Info                            : UTF-8 Plain Text
  342. Duration                                 : 1 h 18 min
  343. Bit rate                                 : 93 b/s
  344. Frame rate                               : 0.287 FPS
  345. Count of elements                        : 1353
  346. Stream size                              : 53.9 KiB (0%)
  347. Language                                 : Portuguese
  348. Default                                  : No
  349. Forced                                   : No
  350. Text #24
  351. ID                                       : 26
  352. Format                                   : UTF-8
  353. Codec ID                                 : S_TEXT/UTF8
  354. Codec ID/Info                            : UTF-8 Plain Text
  355. Duration                                 : 1 h 18 min
  356. Bit rate                                 : 101 b/s
  357. Frame rate                               : 0.295 FPS
  358. Count of elements                        : 1391
  359. Stream size                              : 58.6 KiB (0%)
  360. Title                                    : Brazil
  361. Language                                 : Portuguese (BR)
  362. Default                                  : No
  363. Forced                                   : No
  364. Text #25
  365. ID                                       : 27
  366. Format                                   : UTF-8
  367. Codec ID                                 : S_TEXT/UTF8
  368. Codec ID/Info                            : UTF-8 Plain Text
  369. Duration                                 : 1 h 18 min
  370. Bit rate                                 : 114 b/s
  371. Frame rate                               : 0.282 FPS
  372. Count of elements                        : 1328
  373. Stream size                              : 65.9 KiB (0%)
  374. Language                                 : Romanian
  375. Default                                  : No
  376. Forced                                   : No
  377. Text #26
  378. ID                                       : 28
  379. Format                                   : UTF-8
  380. Codec ID                                 : S_TEXT/UTF8
  381. Codec ID/Info                            : UTF-8 Plain Text
  382. Duration                                 : 1 h 18 min
  383. Bit rate                                 : 183 b/s
  384. Frame rate                               : 0.292 FPS
  385. Count of elements                        : 1377
  386. Stream size                              : 106 KiB (0%)
  387. Language                                 : Russian
  388. Default                                  : No
  389. Forced                                   : No
  390. Text #27
  391. ID                                       : 29
  392. Format                                   : UTF-8
  393. Codec ID                                 : S_TEXT/UTF8
  394. Codec ID/Info                            : UTF-8 Plain Text
  395. Duration                                 : 1 h 18 min
  396. Bit rate                                 : 102 b/s
  397. Frame rate                               : 0.251 FPS
  398. Count of elements                        : 1180
  399. Stream size                              : 59.0 KiB (0%)
  400. Language                                 : Swedish
  401. Default                                  : No
  402. Forced                                   : No
  403. Text #28
  404. ID                                       : 30
  405. Format                                   : UTF-8
  406. Codec ID                                 : S_TEXT/UTF8
  407. Codec ID/Info                            : UTF-8 Plain Text
  408. Duration                                 : 1 h 18 min
  409. Bit rate                                 : 252 b/s
  410. Frame rate                               : 0.292 FPS
  411. Count of elements                        : 1377
  412. Stream size                              : 145 KiB (0%)
  413. Language                                 : Thai
  414. Default                                  : No
  415. Forced                                   : No
  416. Text #29
  417. ID                                       : 31
  418. Format                                   : UTF-8
  419. Codec ID                                 : S_TEXT/UTF8
  420. Codec ID/Info                            : UTF-8 Plain Text
  421. Duration                                 : 1 h 18 min
  422. Bit rate                                 : 100 b/s
  423. Frame rate                               : 0.276 FPS
  424. Count of elements                        : 1300
  425. Stream size                              : 57.8 KiB (0%)
  426. Language                                 : Turkish
  427. Default                                  : No
  428. Forced                                   : No
  429. Text #30
  430. ID                                       : 32
  431. Format                                   : UTF-8
  432. Codec ID                                 : S_TEXT/UTF8
  433. Codec ID/Info                            : UTF-8 Plain Text
  434. Duration                                 : 1 h 18 min
  435. Bit rate                                 : 163 b/s
  436. Frame rate                               : 0.291 FPS
  437. Count of elements                        : 1368
  438. Stream size                              : 94.2 KiB (0%)
  439. Language                                 : Ukrainian
  440. Default                                  : No
  441. Forced                                   : No
  442. Text #31
  443. ID                                       : 33
  444. Format                                   : UTF-8
  445. Codec ID                                 : S_TEXT/UTF8
  446. Codec ID/Info                            : UTF-8 Plain Text
  447. Duration                                 : 1 h 18 min
  448. Bit rate                                 : 148 b/s
  449. Frame rate                               : 0.293 FPS
  450. Count of elements                        : 1378
  451. Stream size                              : 85.2 KiB (0%)
  452. Language                                 : Vietnamese
  453. Default                                  : No
  454. Forced                                   : No
  455. Text #32
  456. ID                                       : 34
  457. Format                                   : UTF-8
  458. Codec ID                                 : S_TEXT/UTF8
  459. Codec ID/Info                            : UTF-8 Plain Text
  460. Duration                                 : 1 h 18 min
  461. Bit rate                                 : 107 b/s
  462. Frame rate                               : 0.293 FPS
  463. Count of elements                        : 1378
  464. Stream size                              : 61.7 KiB (0%)
  465. Title                                    : Simplified
  466. Language                                 : Chinese (Simplied)
  467. Default                                  : No
  468. Forced                                   : No
  469. Text #33
  470. ID                                       : 35
  471. Format                                   : UTF-8
  472. Codec ID                                 : S_TEXT/UTF8
  473. Codec ID/Info                            : UTF-8 Plain Text
  474. Duration                                 : 1 h 18 min
  475. Bit rate                                 : 99 b/s
  476. Frame rate                               : 0.315 FPS
  477. Count of elements                        : 1482
  478. Stream size                              : 57.0 KiB (0%)
  479. Title                                    : Traditional
  480. Language                                 : Chinese (Traditional)
  481. Default                                  : No
  482. Forced                                   : No
复制代码











回复

使用道具 举报

蓝光币
14
发表于 2023-1-3 10:02:29 | 显示全部楼层
sadsdsdasdasdasdad
回复

使用道具 举报

蓝光币
281
发表于 2023-1-4 19:48:55 | 显示全部楼层
该吃药了
回复

使用道具 举报

蓝光币
365
发表于 2023-1-5 07:55:24 | 显示全部楼层
突然想起了大郎
回复

使用道具 举报

懒得打字嘛,点击右侧快捷回复 【右侧内容,后台自定义】
您需要登录后才可以回帖 登录 | 立即加入

本版积分规则

Copyright © 2024 Comsenz Inc. Powered by 蓝光电影网

本站内容由用户自主分享和转载自互联网,转载目的在于传递更多信息,并不代表本网赞同其观点和对其真实性负责。

如有侵权、违反国家法律政策行为,请联系我们,我们会第一时间及时清除和处理!

举报反馈邮箱:4k1080.com@gmail.com

快速回复 返回顶部 返回列表