找回密码

查看: 1559|回复: 0

[2160p-WEB] 爱人的最后一封情书[中文字幕].The.Last.Letter.from.Your.Lover.2021.2160p.NF.WEB-DL.x265.10bit.HDR.DDP5.1.Atmos-dBBd 10.41GB

[复制链接]
蓝光币
1840
发表于 2023-1-3 03:28:15 | 显示全部楼层 |阅读模式


◎标  题 爱人的最初一封情书
◎译  名 情人的最初情书 / 长恨书 / 你爱人的最初来信
◎片  名 The Last Letter from Your Lover
◎年  代 2021
◎产  地 英国 / 法国
◎类  别 剧情 / 恋爱
◎语  言 英语
◎上映日期 2021-03-11(德国) / 2021-03-12(英国) / 2021-07-23(美国收集)
◎IMDb评分 6.7/10 (18576人评价)
◎IMDb链接 https://www.imdb.com/title/tt1893273/
◎豆瓣评分 6.6/10 (2246人评价)
◎豆瓣链接 https://movie.douban.com/subject/34848381/
◎片  长 110分钟
◎导  演 奥古斯丁·弗里泽尔 Augustine Frizzell
◎编  剧 乔乔·莫伊斯 Jojo Moyes
       尼克·佩恩 Nick Payne
       Esta Spalding Esta Spalding
◎演  员 菲丽希缇·琼斯 Felicity Jones
       谢琳·伍德蕾 Shailene Woodley
       卡勒姆·特纳 Callum Turner
       乔·阿尔文 Joe Alwyn
       纳巴汉·里兹万 Nabhaan Rizwan
       本·克劳斯 Ben Cross
       克里斯蒂安·布拉辛顿 Christian Brassington
       舒提·盖特瓦 Ncuti Gatwa
       维尔赫尔姆·布洛姆根 Vilhelm Blomgren
       戴安娜·肯特 Diana Kent
       安·奥戈博莫 Ann Ogbomo
       马诺伊·阿南德 Manoj Anand
       乔基姆·斯卡利 Joakim Skarli
       迪亚戈·马丁斯 Tiago Martins
       Lee Knight Lee Knight
       格雷丝·万 Grace Wan
       艾玛·阿普尔顿 Emma Appleton
       雅各布·福琼·劳埃德 Jacob Fortune-Lloyd
       艾丽丝·奥尔尤因 Alice Orr-Ewing
       克莱尔·布朗 Claire Brown
       安娜·罗宾斯 Anna Robbins
◎简  介
  奇迹心很强的记者(菲丽希缇·琼斯 饰)发现一批不为人知的情书,继而查出一对情人(谢琳·伍德蕾与卡勒姆·特纳 饰)在 1960 年月成长出的忌讳爱情。本片改编自《碰见你之前》原作者乔乔·莫伊斯气势恢弘的浪漫小说,请到乔·阿尔文和纳巴汉·里兹万介入表演。                                    
                                在 Netflix 观赏《情人的最初情书》,7 月 23 日上线。
  1. Video
  2. ID                                       : 1
  3. Format                                   : HEVC
  4. Format/Info                              : High Efficiency Video Coding
  5. Format profile                           : Main 10@L5@Main
  6. HDR format                               : Dolby Vision, Version 1.0, dvhe.08.06, BL+RPU, HDR10 compatible / SMPTE ST 2086, HDR10 compatible
  7. Codec ID                                 : V_MPEGH/ISO/HEVC
  8. Duration                                 : 1 h 49 min
  9. Bit rate                                 : 12.8 Mb/s
  10. Width                                    : 3 840 pixels
  11. Height                                   : 2 160 pixels
  12. Display aspect ratio                     : 16:9
  13. Frame rate mode                          : Constant
  14. Frame rate                               : 24.000 FPS
  15. Color space                              : YUV
  16. Chroma subsampling                       : 4:2:0 (Type 2)
  17. Bit depth                                : 10 bits
  18. Bits/(Pixel*Frame)                       : 0.064
  19. Stream size                              : 9.81 GiB (94%)
  20. Default                                  : Yes
  21. Forced                                   : No
  22. Color range                              : Limited
  23. Color primaries                          : BT.2020
  24. Transfer characteristics                 : PQ
  25. Matrix coefficients                      : BT.2020 non-constant
  26. Mastering display color primaries        : Display P3
  27. Mastering display luminance              : min: 0.0050 cd/m2, max: 4000 cd/m2
  28. Maximum Content Light Level              : 738 cd/m2
  29. Maximum Frame-Average Light Level        : 96 cd/m2
  30. Audio
  31. ID                                       : 2
  32. Format                                   : E-AC-3 JOC
  33. Format/Info                              : Enhanced AC-3 with Joint Object Coding
  34. Commercial name                          : Dolby Digital Plus with Dolby Atmos
  35. Codec ID                                 : A_EAC3
  36. Duration                                 : 1 h 50 min
  37. Bit rate mode                            : Constant
  38. Bit rate                                 : 768 kb/s
  39. Channel(s)                               : 6 channels
  40. Channel layout                           : L R C LFE Ls Rs
  41. Sampling rate                            : 48.0 kHz
  42. Frame rate                               : 31.250 FPS (1536 SPF)
  43. Compression mode                         : Lossy
  44. Stream size                              : 608 MiB (6%)
  45. Language                                 : English
  46. Service kind                             : Complete Main
  47. Default                                  : Yes
  48. Forced                                   : No
  49. Complexity index                         : 16
  50. Number of dynamic objects                : 15
  51. Bed channel count                        : 1 channel
  52. Bed channel configuration                : LFE
  53. Text #1
  54. ID                                       : 3
  55. Format                                   : UTF-8
  56. Codec ID                                 : S_TEXT/UTF8
  57. Codec ID/Info                            : UTF-8 Plain Text
  58. Duration                                 : 6 s 916 ms
  59. Bit rate                                 : 136 b/s
  60. Frame rate                               : 0.434 FPS
  61. Count of elements                        : 3
  62. Stream size                              : 118 Bytes (0%)
  63. Title                                    : Forced
  64. Language                                 : English
  65. Default                                  : Yes
  66. Forced                                   : Yes
  67. Text #2
  68. ID                                       : 4
  69. Format                                   : UTF-8
  70. Codec ID                                 : S_TEXT/UTF8
  71. Codec ID/Info                            : UTF-8 Plain Text
  72. Duration                                 : 1 h 47 min
  73. Bit rate                                 : 69 b/s
  74. Frame rate                               : 0.223 FPS
  75. Count of elements                        : 1438
  76. Stream size                              : 54.3 KiB (0%)
  77. Title                                    : SDH
  78. Language                                 : English
  79. Default                                  : No
  80. Forced                                   : No
  81. Text #3
  82. ID                                       : 5
  83. Format                                   : UTF-8
  84. Codec ID                                 : S_TEXT/UTF8
  85. Codec ID/Info                            : UTF-8 Plain Text
  86. Duration                                 : 1 h 48 min
  87. Bit rate                                 : 72 b/s
  88. Frame rate                               : 0.167 FPS
  89. Count of elements                        : 1088
  90. Stream size                              : 57.5 KiB (0%)
  91. Language                                 : Arabic
  92. Default                                  : No
  93. Forced                                   : No
  94. Text #4
  95. ID                                       : 6
  96. Format                                   : UTF-8
  97. Codec ID                                 : S_TEXT/UTF8
  98. Codec ID/Info                            : UTF-8 Plain Text
  99. Duration                                 : 1 h 48 min
  100. Bit rate                                 : 40 b/s
  101. Frame rate                               : 0.153 FPS
  102. Count of elements                        : 999
  103. Stream size                              : 32.5 KiB (0%)
  104. Language                                 : Czech
  105. Default                                  : No
  106. Forced                                   : No
  107. Text #5
  108. ID                                       : 7
  109. Format                                   : UTF-8
  110. Codec ID                                 : S_TEXT/UTF8
  111. Codec ID/Info                            : UTF-8 Plain Text
  112. Duration                                 : 1 h 48 min
  113. Bit rate                                 : 43 b/s
  114. Frame rate                               : 0.159 FPS
  115. Count of elements                        : 1036
  116. Stream size                              : 34.5 KiB (0%)
  117. Language                                 : German
  118. Default                                  : No
  119. Forced                                   : No
  120. Text #6
  121. ID                                       : 8
  122. Format                                   : UTF-8
  123. Codec ID                                 : S_TEXT/UTF8
  124. Codec ID/Info                            : UTF-8 Plain Text
  125. Duration                                 : 1 h 48 min
  126. Bit rate                                 : 75 b/s
  127. Frame rate                               : 0.167 FPS
  128. Count of elements                        : 1090
  129. Stream size                              : 59.9 KiB (0%)
  130. Language                                 : Greek
  131. Default                                  : No
  132. Forced                                   : No
  133. Text #7
  134. ID                                       : 9
  135. Format                                   : UTF-8
  136. Codec ID                                 : S_TEXT/UTF8
  137. Codec ID/Info                            : UTF-8 Plain Text
  138. Duration                                 : 1 h 48 min
  139. Bit rate                                 : 44 b/s
  140. Frame rate                               : 0.162 FPS
  141. Count of elements                        : 1056
  142. Stream size                              : 35.1 KiB (0%)
  143. Language                                 : Spanish
  144. Default                                  : No
  145. Forced                                   : No
  146. Text #8
  147. ID                                       : 10
  148. Format                                   : UTF-8
  149. Codec ID                                 : S_TEXT/UTF8
  150. Codec ID/Info                            : UTF-8 Plain Text
  151. Duration                                 : 1 h 48 min
  152. Bit rate                                 : 42 b/s
  153. Frame rate                               : 0.177 FPS
  154. Count of elements                        : 1152
  155. Stream size                              : 34.1 KiB (0%)
  156. Title                                    : Europe
  157. Language                                 : Spanish (150)
  158. Default                                  : No
  159. Forced                                   : No
  160. Text #9
  161. ID                                       : 11
  162. Format                                   : UTF-8
  163. Codec ID                                 : S_TEXT/UTF8
  164. Codec ID/Info                            : UTF-8 Plain Text
  165. Duration                                 : 1 h 42 min
  166. Bit rate                                 : 44 b/s
  167. Frame rate                               : 0.175 FPS
  168. Count of elements                        : 1070
  169. Stream size                              : 33.2 KiB (0%)
  170. Language                                 : fil
  171. Default                                  : No
  172. Forced                                   : No
  173. Text #10
  174. ID                                       : 12
  175. Format                                   : UTF-8
  176. Codec ID                                 : S_TEXT/UTF8
  177. Codec ID/Info                            : UTF-8 Plain Text
  178. Duration                                 : 1 h 48 min
  179. Bit rate                                 : 70 b/s
  180. Frame rate                               : 0.167 FPS
  181. Count of elements                        : 1088
  182. Stream size                              : 56.4 KiB (0%)
  183. Language                                 : Hebrew
  184. Default                                  : No
  185. Forced                                   : No
  186. Text #11
  187. ID                                       : 13
  188. Format                                   : UTF-8
  189. Codec ID                                 : S_TEXT/UTF8
  190. Codec ID/Info                            : UTF-8 Plain Text
  191. Duration                                 : 1 h 48 min
  192. Bit rate                                 : 39 b/s
  193. Frame rate                               : 0.164 FPS
  194. Count of elements                        : 1070
  195. Stream size                              : 31.7 KiB (0%)
  196. Language                                 : Croatian
  197. Default                                  : No
  198. Forced                                   : No
  199. Text #12
  200. ID                                       : 14
  201. Format                                   : UTF-8
  202. Codec ID                                 : S_TEXT/UTF8
  203. Codec ID/Info                            : UTF-8 Plain Text
  204. Duration                                 : 1 h 48 min
  205. Bit rate                                 : 45 b/s
  206. Frame rate                               : 0.156 FPS
  207. Count of elements                        : 1014
  208. Stream size                              : 36.5 KiB (0%)
  209. Language                                 : Hungarian
  210. Default                                  : No
  211. Forced                                   : No
  212. Text #13
  213. ID                                       : 15
  214. Format                                   : UTF-8
  215. Codec ID                                 : S_TEXT/UTF8
  216. Codec ID/Info                            : UTF-8 Plain Text
  217. Duration                                 : 1 h 48 min
  218. Bit rate                                 : 44 b/s
  219. Frame rate                               : 0.174 FPS
  220. Count of elements                        : 1131
  221. Stream size                              : 35.3 KiB (0%)
  222. Language                                 : Indonesian
  223. Default                                  : No
  224. Forced                                   : No
  225. Text #14
  226. ID                                       : 16
  227. Format                                   : UTF-8
  228. Codec ID                                 : S_TEXT/UTF8
  229. Codec ID/Info                            : UTF-8 Plain Text
  230. Duration                                 : 1 h 48 min
  231. Bit rate                                 : 41 b/s
  232. Frame rate                               : 0.164 FPS
  233. Count of elements                        : 1067
  234. Stream size                              : 33.3 KiB (0%)
  235. Language                                 : Italian
  236. Default                                  : No
  237. Forced                                   : No
  238. Text #15
  239. ID                                       : 17
  240. Format                                   : UTF-8
  241. Codec ID                                 : S_TEXT/UTF8
  242. Codec ID/Info                            : UTF-8 Plain Text
  243. Duration                                 : 1 h 48 min
  244. Bit rate                                 : 40 b/s
  245. Frame rate                               : 0.179 FPS
  246. Count of elements                        : 1165
  247. Stream size                              : 32.4 KiB (0%)
  248. Language                                 : Japanese
  249. Default                                  : No
  250. Forced                                   : No
  251. Text #16
  252. ID                                       : 18
  253. Format                                   : UTF-8
  254. Codec ID                                 : S_TEXT/UTF8
  255. Codec ID/Info                            : UTF-8 Plain Text
  256. Duration                                 : 1 h 48 min
  257. Bit rate                                 : 56 b/s
  258. Frame rate                               : 0.176 FPS
  259. Count of elements                        : 1145
  260. Stream size                              : 44.8 KiB (0%)
  261. Language                                 : Korean
  262. Default                                  : No
  263. Forced                                   : No
  264. Text #17
  265. ID                                       : 19
  266. Format                                   : UTF-8
  267. Codec ID                                 : S_TEXT/UTF8
  268. Codec ID/Info                            : UTF-8 Plain Text
  269. Duration                                 : 1 h 48 min
  270. Bit rate                                 : 41 b/s
  271. Frame rate                               : 0.167 FPS
  272. Count of elements                        : 1085
  273. Stream size                              : 33.1 KiB (0%)
  274. Language                                 : Malay
  275. Default                                  : No
  276. Forced                                   : No
  277. Text #18
  278. ID                                       : 20
  279. Format                                   : UTF-8
  280. Codec ID                                 : S_TEXT/UTF8
  281. Codec ID/Info                            : UTF-8 Plain Text
  282. Duration                                 : 1 h 48 min
  283. Bit rate                                 : 39 b/s
  284. Frame rate                               : 0.151 FPS
  285. Count of elements                        : 984
  286. Stream size                              : 31.0 KiB (0%)
  287. Language                                 : Dutch
  288. Default                                  : No
  289. Forced                                   : No
  290. Text #19
  291. ID                                       : 21
  292. Format                                   : UTF-8
  293. Codec ID                                 : S_TEXT/UTF8
  294. Codec ID/Info                            : UTF-8 Plain Text
  295. Duration                                 : 1 h 48 min
  296. Bit rate                                 : 44 b/s
  297. Frame rate                               : 0.163 FPS
  298. Count of elements                        : 1059
  299. Stream size                              : 35.1 KiB (0%)
  300. Language                                 : Polish
  301. Default                                  : No
  302. Forced                                   : No
  303. Text #20
  304. ID                                       : 22
  305. Format                                   : UTF-8
  306. Codec ID                                 : S_TEXT/UTF8
  307. Codec ID/Info                            : UTF-8 Plain Text
  308. Duration                                 : 1 h 48 min
  309. Bit rate                                 : 44 b/s
  310. Frame rate                               : 0.166 FPS
  311. Count of elements                        : 1079
  312. Stream size                              : 35.1 KiB (0%)
  313. Language                                 : Portuguese
  314. Default                                  : No
  315. Forced                                   : No
  316. Text #21
  317. ID                                       : 23
  318. Format                                   : UTF-8
  319. Codec ID                                 : S_TEXT/UTF8
  320. Codec ID/Info                            : UTF-8 Plain Text
  321. Duration                                 : 1 h 48 min
  322. Bit rate                                 : 44 b/s
  323. Frame rate                               : 0.170 FPS
  324. Count of elements                        : 1108
  325. Stream size                              : 35.2 KiB (0%)
  326. Title                                    : Brazil
  327. Language                                 : Portuguese (BR)
  328. Default                                  : No
  329. Forced                                   : No
  330. Text #22
  331. ID                                       : 24
  332. Format                                   : UTF-8
  333. Codec ID                                 : S_TEXT/UTF8
  334. Codec ID/Info                            : UTF-8 Plain Text
  335. Duration                                 : 1 h 48 min
  336. Bit rate                                 : 50 b/s
  337. Frame rate                               : 0.162 FPS
  338. Count of elements                        : 1057
  339. Stream size                              : 39.8 KiB (0%)
  340. Language                                 : Romanian
  341. Default                                  : No
  342. Forced                                   : No
  343. Text #23
  344. ID                                       : 25
  345. Format                                   : UTF-8
  346. Codec ID                                 : S_TEXT/UTF8
  347. Codec ID/Info                            : UTF-8 Plain Text
  348. Duration                                 : 1 h 48 min
  349. Bit rate                                 : 67 b/s
  350. Frame rate                               : 0.166 FPS
  351. Count of elements                        : 1081
  352. Stream size                              : 54.0 KiB (0%)
  353. Language                                 : Russian
  354. Default                                  : No
  355. Forced                                   : No
  356. Text #24
  357. ID                                       : 26
  358. Format                                   : UTF-8
  359. Codec ID                                 : S_TEXT/UTF8
  360. Codec ID/Info                            : UTF-8 Plain Text
  361. Duration                                 : 1 h 48 min
  362. Bit rate                                 : 110 b/s
  363. Frame rate                               : 0.167 FPS
  364. Count of elements                        : 1090
  365. Stream size                              : 87.7 KiB (0%)
  366. Language                                 : Thai
  367. Default                                  : No
  368. Forced                                   : No
  369. Text #25
  370. ID                                       : 27
  371. Format                                   : UTF-8
  372. Codec ID                                 : S_TEXT/UTF8
  373. Codec ID/Info                            : UTF-8 Plain Text
  374. Duration                                 : 1 h 48 min
  375. Bit rate                                 : 44 b/s
  376. Frame rate                               : 0.164 FPS
  377. Count of elements                        : 1070
  378. Stream size                              : 35.4 KiB (0%)
  379. Language                                 : Turkish
  380. Default                                  : No
  381. Forced                                   : No
  382. Text #26
  383. ID                                       : 28
  384. Format                                   : UTF-8
  385. Codec ID                                 : S_TEXT/UTF8
  386. Codec ID/Info                            : UTF-8 Plain Text
  387. Duration                                 : 1 h 48 min
  388. Bit rate                                 : 69 b/s
  389. Frame rate                               : 0.173 FPS
  390. Count of elements                        : 1126
  391. Stream size                              : 55.6 KiB (0%)
  392. Language                                 : Ukrainian
  393. Default                                  : No
  394. Forced                                   : No
  395. Text #27
  396. ID                                       : 29
  397. Format                                   : UTF-8
  398. Codec ID                                 : S_TEXT/UTF8
  399. Codec ID/Info                            : UTF-8 Plain Text
  400. Duration                                 : 1 h 48 min
  401. Bit rate                                 : 59 b/s
  402. Frame rate                               : 0.164 FPS
  403. Count of elements                        : 1068
  404. Stream size                              : 47.5 KiB (0%)
  405. Language                                 : Vietnamese
  406. Default                                  : No
  407. Forced                                   : No
  408. Text #28
  409. ID                                       : 30
  410. Format                                   : UTF-8
  411. Codec ID                                 : S_TEXT/UTF8
  412. Codec ID/Info                            : UTF-8 Plain Text
  413. Duration                                 : 1 h 48 min
  414. Bit rate                                 : 44 b/s
  415. Frame rate                               : 0.186 FPS
  416. Count of elements                        : 1209
  417. Stream size                              : 35.4 KiB (0%)
  418. Title                                    : Simplified
  419. Language                                 : Chinese (Simplied)
  420. Default                                  : No
  421. Forced                                   : No
  422. Text #29
  423. ID                                       : 31
  424. Format                                   : UTF-8
  425. Codec ID                                 : S_TEXT/UTF8
  426. Codec ID/Info                            : UTF-8 Plain Text
  427. Duration                                 : 1 h 48 min
  428. Bit rate                                 : 43 b/s
  429. Frame rate                               : 0.168 FPS
  430. Count of elements                        : 1096
  431. Stream size                              : 34.7 KiB (0%)
  432. Title                                    : Traditional
  433. Language                                 : Chinese (Traditional)
  434. Default                                  : No
  435. Forced                                   : No
复制代码











爱人的最初一封情书[中笔墨幕].The.Last.Letter.from.Your.Lover.2021.2160p.NF.WEB-DL.x265.10bit.HDR.DDP5.1.Atmos-dBBd 10.41GB

The.Last.Letter.from.Your.Lover.2021.2160p.NF.WEB-DL.x265.10bit.HDR.DDP5.1.Atmos.torrent

13.7 KB, 下载次数: 15, 下载积分: 蓝光币 -2

回复

使用道具 举报

懒得打字嘛,点击右侧快捷回复 【右侧内容,后台自定义】
您需要登录后才可以回帖 登录 | 立即加入

本版积分规则

Copyright © 2024 Comsenz Inc. Powered by 蓝光电影网

本站内容由用户自主分享和转载自互联网,转载目的在于传递更多信息,并不代表本网赞同其观点和对其真实性负责。

如有侵权、违反国家法律政策行为,请联系我们,我们会第一时间及时清除和处理!

举报反馈邮箱:4k1080.com@gmail.com

快速回复 返回顶部 返回列表