找回密码

查看: 1576|回复: 3

[2160p-WEB] 所见所闻[中文字幕].Things.Heard.and.Seen.2021.2160p.NF.WEB-DL.DDP5.1.Atmos.DV.MKV.x265-LikeNFShows 15.43GB

[复制链接]
蓝光币
1856
发表于 2023-1-3 03:28:16 | 显示全部楼层 |阅读模式


◎标  题 所见所闻
◎译  名 听说轶事 / 谜屋隐语
◎片  名 Things Heard & Seen
◎年  代 2021
◎产  地 美国
◎类  别 剧情 / 惊悚 / 可骇
◎语  言 英语
◎上映日期 2021-04-29(美国收集)
◎IMDb评分 5.3/10 (32243人评价)
◎IMDb链接 https://www.imdb.com/title/tt10962368/
◎豆瓣评分 5.1/10 (2085人评价)
◎豆瓣链接 https://movie.douban.com/subject/34824501/
◎片  长 119分钟
◎导  演 莎里·斯宾厄·伯曼 Shari Springer Berman
       罗伯特·帕西尼 Robert Pulcini
◎编  剧 莎里·斯宾厄·伯曼 Shari Springer Berman
       罗伯特·帕西尼 Robert Pulcini
◎演  员 阿曼达·塞弗里德 Amanda Seyfried
       凯伦·阿兰 Karen Allen
       蕾亚·塞洪 Rhea Seehorn
       娜塔莉·戴尔 Natalia Dyer
       詹姆斯·诺顿 James Norton
       F·默里·亚伯拉罕 F. Murray Abraham
       迈克尔·奥吉弗 Michael O'Keefe
       詹姆斯·乌尔班尼亚克 James Urbaniak
       亚历克斯·诺伊施泰特 Alex Neustaedter
       杰克·戈尔 Jack Gore
       迈克尔·阿伯特 Michael Abbott Jr.
       科特·史姑娘 Cotter Smith
       奥利维娅·博勒姆-温 Olivia Boreham-Wing
       乔伊·奥扎纳 Joey Auzenne
       夏洛特·麦尔 Charlotte Maier
       玛丽恩·麦科里 Marion McCorry
       詹姆斯·海恩义曼 James Hindman
       本·格兰尼 Ben Graney
       露易丝·福特 Louise Ford
◎简  介
  阿曼达·塞弗里德商谈主演Netflix超自然题材惊悚片《所见所闻》(Things Heard & Seen),莎里·斯宾厄·伯曼&罗伯特·帕西尼(《保姆日志》《万圣年月》)自编自导。                                    
                                改编自Elizabeth Brundage所著书籍《All Things Cease to Appear》,气概类似《鬼入侵》,故事围绕着一对年轻佳耦展开,他们搬到纽约北部一个小镇四周的农场居住,而这个新家被前仆人的谋杀罪所诅咒,随着闹鬼的奥秘被揭穿,他们的婚姻也表暴露黑暗面。
  1. Video
  2. ID                                       : 1
  3. Format                                   : HEVC
  4. Format/Info                              : High Efficiency Video Coding
  5. Format profile                           : Main 10@L5@Main
  6. HDR format                               : Dolby Vision, Version 1.0, dvhe.05.06, BL+RPU
  7. Codec ID                                 : V_MPEGH/ISO/HEVC
  8. Duration                                 : 2 h 1 min
  9. Bit rate                                 : 17.4 Mb/s
  10. Width                                    : 3 840 pixels
  11. Height                                   : 2 160 pixels
  12. Display aspect ratio                     : 16:9
  13. Frame rate mode                          : Constant
  14. Frame rate                               : 23.976 (24000/1001) FPS
  15. Color space                              : YUV
  16. Chroma subsampling                       : 4:2:0
  17. Bit depth                                : 10 bits
  18. Bits/(Pixel*Frame)                       : 0.088
  19. Stream size                              : 14.8 GiB (96%)
  20. Language                                 : English
  21. Default                                  : Yes
  22. Forced                                   : No
  23. Color range                              : Full
  24. Audio
  25. ID                                       : 2
  26. Format                                   : E-AC-3 JOC
  27. Format/Info                              : Enhanced AC-3 with Joint Object Coding
  28. Commercial name                          : Dolby Digital Plus with Dolby Atmos
  29. Codec ID                                 : A_EAC3
  30. Duration                                 : 2 h 1 min
  31. Bit rate mode                            : Constant
  32. Bit rate                                 : 768 kb/s
  33. Channel(s)                               : 6 channels
  34. Channel layout                           : L R C LFE Ls Rs
  35. Sampling rate                            : 48.0 kHz
  36. Frame rate                               : 31.250 FPS (1536 SPF)
  37. Compression mode                         : Lossy
  38. Stream size                              : 667 MiB (4%)
  39. Language                                 : English
  40. Service kind                             : Complete Main
  41. Default                                  : Yes
  42. Forced                                   : No
  43. Complexity index                         : 16
  44. Number of dynamic objects                : 15
  45. Bed channel count                        : 1 channel
  46. Bed channel configuration                : LFE
  47. Text #1
  48. ID                                       : 3
  49. Format                                   : UTF-8
  50. Codec ID                                 : S_TEXT/UTF8
  51. Codec ID/Info                            : UTF-8 Plain Text
  52. Duration                                 : 1 h 50 min
  53. Bit rate                                 : 56 b/s
  54. Frame rate                               : 0.214 FPS
  55. Count of elements                        : 1421
  56. Stream size                              : 45.8 KiB (0%)
  57. Language                                 : English
  58. Default                                  : No
  59. Forced                                   : No
  60. Text #2
  61. ID                                       : 4
  62. Format                                   : UTF-8
  63. Codec ID                                 : S_TEXT/UTF8
  64. Codec ID/Info                            : UTF-8 Plain Text
  65. Duration                                 : 1 h 57 min
  66. Bit rate                                 : 64 b/s
  67. Frame rate                               : 0.250 FPS
  68. Count of elements                        : 1755
  69. Stream size                              : 55.4 KiB (0%)
  70. Title                                    : SDH
  71. Language                                 : English
  72. Default                                  : No
  73. Forced                                   : No
  74. Text #3
  75. ID                                       : 5
  76. Format                                   : UTF-8
  77. Codec ID                                 : S_TEXT/UTF8
  78. Codec ID/Info                            : UTF-8 Plain Text
  79. Duration                                 : 1 h 59 min
  80. Bit rate                                 : 85 b/s
  81. Frame rate                               : 0.191 FPS
  82. Count of elements                        : 1366
  83. Stream size                              : 74.5 KiB (0%)
  84. Language                                 : Arabic
  85. Default                                  : No
  86. Forced                                   : No
  87. Text #4
  88. ID                                       : 6
  89. Format                                   : UTF-8
  90. Codec ID                                 : S_TEXT/UTF8
  91. Codec ID/Info                            : UTF-8 Plain Text
  92. Duration                                 : 1 h 59 min
  93. Bit rate                                 : 44 b/s
  94. Frame rate                               : 0.186 FPS
  95. Count of elements                        : 1333
  96. Stream size                              : 39.0 KiB (0%)
  97. Language                                 : Czech
  98. Default                                  : No
  99. Forced                                   : No
  100. Text #5
  101. ID                                       : 7
  102. Format                                   : UTF-8
  103. Codec ID                                 : S_TEXT/UTF8
  104. Codec ID/Info                            : UTF-8 Plain Text
  105. Duration                                 : 1 h 59 min
  106. Bit rate                                 : 46 b/s
  107. Frame rate                               : 0.176 FPS
  108. Count of elements                        : 1257
  109. Stream size                              : 40.6 KiB (0%)
  110. Language                                 : Danish
  111. Default                                  : No
  112. Forced                                   : No
  113. Text #6
  114. ID                                       : 8
  115. Format                                   : UTF-8
  116. Codec ID                                 : S_TEXT/UTF8
  117. Codec ID/Info                            : UTF-8 Plain Text
  118. Duration                                 : 1 h 59 min
  119. Bit rate                                 : 48 b/s
  120. Frame rate                               : 0.184 FPS
  121. Count of elements                        : 1320
  122. Stream size                              : 42.8 KiB (0%)
  123. Language                                 : German
  124. Default                                  : No
  125. Forced                                   : No
  126. Text #7
  127. ID                                       : 9
  128. Format                                   : UTF-8
  129. Codec ID                                 : S_TEXT/UTF8
  130. Codec ID/Info                            : UTF-8 Plain Text
  131. Duration                                 : 1 h 59 min
  132. Bit rate                                 : 81 b/s
  133. Frame rate                               : 0.191 FPS
  134. Count of elements                        : 1366
  135. Stream size                              : 71.4 KiB (0%)
  136. Language                                 : Greek
  137. Default                                  : No
  138. Forced                                   : No
  139. Text #8
  140. ID                                       : 10
  141. Format                                   : UTF-8
  142. Codec ID                                 : S_TEXT/UTF8
  143. Codec ID/Info                            : UTF-8 Plain Text
  144. Duration                                 : 1 h 54 min
  145. Bit rate                                 : 50 b/s
  146. Frame rate                               : 0.194 FPS
  147. Count of elements                        : 1331
  148. Stream size                              : 42.1 KiB (0%)
  149. Title                                    : Latin American
  150. Language                                 : Spanish (Latin America)
  151. Default                                  : No
  152. Forced                                   : No
  153. Text #9
  154. ID                                       : 11
  155. Format                                   : UTF-8
  156. Codec ID                                 : S_TEXT/UTF8
  157. Codec ID/Info                            : UTF-8 Plain Text
  158. Duration                                 : 1 h 59 min
  159. Bit rate                                 : 47 b/s
  160. Frame rate                               : 0.186 FPS
  161. Count of elements                        : 1329
  162. Stream size                              : 41.3 KiB (0%)
  163. Language                                 : Spanish (ES)
  164. Default                                  : No
  165. Forced                                   : No
  166. Text #10
  167. ID                                       : 12
  168. Format                                   : UTF-8
  169. Codec ID                                 : S_TEXT/UTF8
  170. Codec ID/Info                            : UTF-8 Plain Text
  171. Duration                                 : 1 h 59 min
  172. Bit rate                                 : 46 b/s
  173. Frame rate                               : 0.169 FPS
  174. Count of elements                        : 1213
  175. Stream size                              : 40.6 KiB (0%)
  176. Language                                 : Finnish
  177. Default                                  : No
  178. Forced                                   : No
  179. Text #11
  180. ID                                       : 13
  181. Format                                   : UTF-8
  182. Codec ID                                 : S_TEXT/UTF8
  183. Codec ID/Info                            : UTF-8 Plain Text
  184. Duration                                 : 1 h 59 min
  185. Bit rate                                 : 51 b/s
  186. Frame rate                               : 0.188 FPS
  187. Count of elements                        : 1343
  188. Stream size                              : 45.4 KiB (0%)
  189. Language                                 : fil
  190. Default                                  : No
  191. Forced                                   : No
  192. Text #12
  193. ID                                       : 14
  194. Format                                   : UTF-8
  195. Codec ID                                 : S_TEXT/UTF8
  196. Codec ID/Info                            : UTF-8 Plain Text
  197. Duration                                 : 1 h 59 min
  198. Bit rate                                 : 47 b/s
  199. Frame rate                               : 0.180 FPS
  200. Count of elements                        : 1292
  201. Stream size                              : 41.3 KiB (0%)
  202. Language                                 : French
  203. Default                                  : No
  204. Forced                                   : No
  205. Text #13
  206. ID                                       : 15
  207. Format                                   : UTF-8
  208. Codec ID                                 : S_TEXT/UTF8
  209. Codec ID/Info                            : UTF-8 Plain Text
  210. Duration                                 : 1 h 59 min
  211. Bit rate                                 : 82 b/s
  212. Frame rate                               : 0.185 FPS
  213. Count of elements                        : 1327
  214. Stream size                              : 72.4 KiB (0%)
  215. Language                                 : Hebrew
  216. Default                                  : No
  217. Forced                                   : No
  218. Text #14
  219. ID                                       : 16
  220. Format                                   : UTF-8
  221. Codec ID                                 : S_TEXT/UTF8
  222. Codec ID/Info                            : UTF-8 Plain Text
  223. Duration                                 : 1 h 59 min
  224. Bit rate                                 : 45 b/s
  225. Frame rate                               : 0.184 FPS
  226. Count of elements                        : 1317
  227. Stream size                              : 39.9 KiB (0%)
  228. Language                                 : Croatian
  229. Default                                  : No
  230. Forced                                   : No
  231. Text #15
  232. ID                                       : 17
  233. Format                                   : UTF-8
  234. Codec ID                                 : S_TEXT/UTF8
  235. Codec ID/Info                            : UTF-8 Plain Text
  236. Duration                                 : 1 h 59 min
  237. Bit rate                                 : 46 b/s
  238. Frame rate                               : 0.177 FPS
  239. Count of elements                        : 1266
  240. Stream size                              : 40.7 KiB (0%)
  241. Language                                 : Hungarian
  242. Default                                  : No
  243. Forced                                   : No
  244. Text #16
  245. ID                                       : 18
  246. Format                                   : UTF-8
  247. Codec ID                                 : S_TEXT/UTF8
  248. Codec ID/Info                            : UTF-8 Plain Text
  249. Duration                                 : 1 h 59 min
  250. Bit rate                                 : 48 b/s
  251. Frame rate                               : 0.190 FPS
  252. Count of elements                        : 1358
  253. Stream size                              : 42.2 KiB (0%)
  254. Language                                 : Indonesian
  255. Default                                  : No
  256. Forced                                   : No
  257. Text #17
  258. ID                                       : 19
  259. Format                                   : UTF-8
  260. Codec ID                                 : S_TEXT/UTF8
  261. Codec ID/Info                            : UTF-8 Plain Text
  262. Duration                                 : 1 h 59 min
  263. Bit rate                                 : 49 b/s
  264. Frame rate                               : 0.180 FPS
  265. Count of elements                        : 1289
  266. Stream size                              : 43.2 KiB (0%)
  267. Language                                 : Italian
  268. Default                                  : No
  269. Forced                                   : No
  270. Text #18
  271. ID                                       : 20
  272. Format                                   : UTF-8
  273. Codec ID                                 : S_TEXT/UTF8
  274. Codec ID/Info                            : UTF-8 Plain Text
  275. Duration                                 : 1 h 59 min
  276. Bit rate                                 : 48 b/s
  277. Frame rate                               : 0.195 FPS
  278. Count of elements                        : 1395
  279. Stream size                              : 42.5 KiB (0%)
  280. Language                                 : Japanese
  281. Default                                  : No
  282. Forced                                   : No
  283. Text #19
  284. ID                                       : 21
  285. Format                                   : UTF-8
  286. Codec ID                                 : S_TEXT/UTF8
  287. Codec ID/Info                            : UTF-8 Plain Text
  288. Duration                                 : 1 h 59 min
  289. Bit rate                                 : 59 b/s
  290. Frame rate                               : 0.198 FPS
  291. Count of elements                        : 1417
  292. Stream size                              : 51.8 KiB (0%)
  293. Language                                 : Korean
  294. Default                                  : No
  295. Forced                                   : No
  296. Text #20
  297. ID                                       : 22
  298. Format                                   : UTF-8
  299. Codec ID                                 : S_TEXT/UTF8
  300. Codec ID/Info                            : UTF-8 Plain Text
  301. Duration                                 : 1 h 59 min
  302. Bit rate                                 : 47 b/s
  303. Frame rate                               : 0.190 FPS
  304. Count of elements                        : 1360
  305. Stream size                              : 41.7 KiB (0%)
  306. Language                                 : Malay
  307. Default                                  : No
  308. Forced                                   : No
  309. Text #21
  310. ID                                       : 23
  311. Format                                   : UTF-8
  312. Codec ID                                 : S_TEXT/UTF8
  313. Codec ID/Info                            : UTF-8 Plain Text
  314. Duration                                 : 1 h 59 min
  315. Bit rate                                 : 46 b/s
  316. Frame rate                               : 0.179 FPS
  317. Count of elements                        : 1285
  318. Stream size                              : 40.8 KiB (0%)
  319. Language                                 : Norwegian Bokmal
  320. Default                                  : No
  321. Forced                                   : No
  322. Text #22
  323. ID                                       : 24
  324. Format                                   : UTF-8
  325. Codec ID                                 : S_TEXT/UTF8
  326. Codec ID/Info                            : UTF-8 Plain Text
  327. Duration                                 : 1 h 53 min
  328. Bit rate                                 : 49 b/s
  329. Frame rate                               : 0.174 FPS
  330. Count of elements                        : 1192
  331. Stream size                              : 41.2 KiB (0%)
  332. Language                                 : Dutch
  333. Default                                  : No
  334. Forced                                   : No
  335. Text #23
  336. ID                                       : 25
  337. Format                                   : UTF-8
  338. Codec ID                                 : S_TEXT/UTF8
  339. Codec ID/Info                            : UTF-8 Plain Text
  340. Duration                                 : 1 h 59 min
  341. Bit rate                                 : 47 b/s
  342. Frame rate                               : 0.192 FPS
  343. Count of elements                        : 1374
  344. Stream size                              : 41.6 KiB (0%)
  345. Language                                 : Polish
  346. Default                                  : No
  347. Forced                                   : No
  348. Text #24
  349. ID                                       : 26
  350. Format                                   : UTF-8
  351. Codec ID                                 : S_TEXT/UTF8
  352. Codec ID/Info                            : UTF-8 Plain Text
  353. Duration                                 : 1 h 59 min
  354. Bit rate                                 : 48 b/s
  355. Frame rate                               : 0.190 FPS
  356. Count of elements                        : 1358
  357. Stream size                              : 42.6 KiB (0%)
  358. Title                                    : Brazilian
  359. Language                                 : Portuguese (BR)
  360. Default                                  : No
  361. Forced                                   : No
  362. Text #25
  363. ID                                       : 27
  364. Format                                   : UTF-8
  365. Codec ID                                 : S_TEXT/UTF8
  366. Codec ID/Info                            : UTF-8 Plain Text
  367. Duration                                 : 1 h 59 min
  368. Bit rate                                 : 49 b/s
  369. Frame rate                               : 0.186 FPS
  370. Count of elements                        : 1329
  371. Stream size                              : 43.0 KiB (0%)
  372. Language                                 : Portuguese (PT)
  373. Default                                  : No
  374. Forced                                   : No
  375. Text #26
  376. ID                                       : 28
  377. Format                                   : UTF-8
  378. Codec ID                                 : S_TEXT/UTF8
  379. Codec ID/Info                            : UTF-8 Plain Text
  380. Duration                                 : 1 h 53 min
  381. Bit rate                                 : 52 b/s
  382. Frame rate                               : 0.188 FPS
  383. Count of elements                        : 1283
  384. Stream size                              : 43.6 KiB (0%)
  385. Language                                 : Romanian
  386. Default                                  : No
  387. Forced                                   : No
  388. Text #27
  389. ID                                       : 29
  390. Format                                   : UTF-8
  391. Codec ID                                 : S_TEXT/UTF8
  392. Codec ID/Info                            : UTF-8 Plain Text
  393. Duration                                 : 1 h 59 min
  394. Bit rate                                 : 82 b/s
  395. Frame rate                               : 0.193 FPS
  396. Count of elements                        : 1379
  397. Stream size                              : 72.1 KiB (0%)
  398. Language                                 : Russian
  399. Default                                  : No
  400. Forced                                   : No
  401. Text #28
  402. ID                                       : 30
  403. Format                                   : UTF-8
  404. Codec ID                                 : S_TEXT/UTF8
  405. Codec ID/Info                            : UTF-8 Plain Text
  406. Duration                                 : 1 h 59 min
  407. Bit rate                                 : 49 b/s
  408. Frame rate                               : 0.178 FPS
  409. Count of elements                        : 1273
  410. Stream size                              : 43.1 KiB (0%)
  411. Language                                 : Swedish
  412. Default                                  : No
  413. Forced                                   : No
  414. Text #29
  415. ID                                       : 31
  416. Format                                   : UTF-8
  417. Codec ID                                 : S_TEXT/UTF8
  418. Codec ID/Info                            : UTF-8 Plain Text
  419. Duration                                 : 1 h 59 min
  420. Bit rate                                 : 121 b/s
  421. Frame rate                               : 0.190 FPS
  422. Count of elements                        : 1364
  423. Stream size                              : 107 KiB (0%)
  424. Language                                 : Thai
  425. Default                                  : No
  426. Forced                                   : No
  427. Text #30
  428. ID                                       : 32
  429. Format                                   : UTF-8
  430. Codec ID                                 : S_TEXT/UTF8
  431. Codec ID/Info                            : UTF-8 Plain Text
  432. Duration                                 : 1 h 59 min
  433. Bit rate                                 : 48 b/s
  434. Frame rate                               : 0.172 FPS
  435. Count of elements                        : 1233
  436. Stream size                              : 42.1 KiB (0%)
  437. Language                                 : Turkish
  438. Default                                  : No
  439. Forced                                   : No
  440. Text #31
  441. ID                                       : 33
  442. Format                                   : UTF-8
  443. Codec ID                                 : S_TEXT/UTF8
  444. Codec ID/Info                            : UTF-8 Plain Text
  445. Duration                                 : 1 h 59 min
  446. Bit rate                                 : 76 b/s
  447. Frame rate                               : 0.191 FPS
  448. Count of elements                        : 1366
  449. Stream size                              : 66.8 KiB (0%)
  450. Language                                 : Ukrainian
  451. Default                                  : No
  452. Forced                                   : No
  453. Text #32
  454. ID                                       : 34
  455. Format                                   : UTF-8
  456. Codec ID                                 : S_TEXT/UTF8
  457. Codec ID/Info                            : UTF-8 Plain Text
  458. Duration                                 : 1 h 59 min
  459. Bit rate                                 : 73 b/s
  460. Frame rate                               : 0.172 FPS
  461. Count of elements                        : 1231
  462. Stream size                              : 64.0 KiB (0%)
  463. Language                                 : Vietnamese
  464. Default                                  : No
  465. Forced                                   : No
  466. Text #33
  467. ID                                       : 35
  468. Format                                   : UTF-8
  469. Codec ID                                 : S_TEXT/UTF8
  470. Codec ID/Info                            : UTF-8 Plain Text
  471. Duration                                 : 1 h 59 min
  472. Bit rate                                 : 53 b/s
  473. Frame rate                               : 0.191 FPS
  474. Count of elements                        : 1366
  475. Stream size                              : 46.6 KiB (0%)
  476. Title                                    : Simplified
  477. Language                                 : Chinese (Simplied)
  478. Default                                  : No
  479. Forced                                   : No
  480. Text #34
  481. ID                                       : 36
  482. Format                                   : UTF-8
  483. Codec ID                                 : S_TEXT/UTF8
  484. Codec ID/Info                            : UTF-8 Plain Text
  485. Duration                                 : 1 h 59 min
  486. Bit rate                                 : 50 b/s
  487. Frame rate                               : 0.191 FPS
  488. Count of elements                        : 1366
  489. Stream size                              : 43.9 KiB (0%)
  490. Title                                    : Traditional
  491. Language                                 : Chinese (Traditional)
  492. Default                                  : No
  493. Forced                                   : No
  494. Menu
  495. 01:54:27.000                             : en:End Credits
复制代码











回复

使用道具 举报

蓝光币
259
发表于 2023-1-3 10:41:35 | 显示全部楼层
楼主发贴辛苦了,谢谢楼主分享!我觉得蓝光电影网是注册对了!
回复

使用道具 举报

蓝光币
22
发表于 2023-1-6 08:05:59 | 显示全部楼层
楼主发贴辛苦了,谢谢楼主分享!我觉得蓝光电影网是注册对了!
回复

使用道具 举报

蓝光币
11
发表于 2023-1-6 16:05:56 | 显示全部楼层

楼主发贴辛苦了
回复

使用道具 举报

懒得打字嘛,点击右侧快捷回复 【右侧内容,后台自定义】
您需要登录后才可以回帖 登录 | 立即加入

本版积分规则

Copyright © 2024 Comsenz Inc. Powered by 蓝光电影网

本站内容由用户自主分享和转载自互联网,转载目的在于传递更多信息,并不代表本网赞同其观点和对其真实性负责。

如有侵权、违反国家法律政策行为,请联系我们,我们会第一时间及时清除和处理!

举报反馈邮箱:4k1080.com@gmail.com

快速回复 返回顶部 返回列表