找回密码

查看: 1117|回复: 2

[2160p-WEB] 所见所闻[中文字幕].Things.Heard.and.Seen.2021.2160p.NF.WEB-DL.DDP5.1.Atmos.DV.MP4.x265-DVSUX 15.43GB

[复制链接]
蓝光币
1840
发表于 2023-1-3 03:28:16 | 显示全部楼层 |阅读模式


◎标  题 所见所闻
◎译  名 听说轶事 / 谜屋隐语
◎片  名 Things Heard & Seen
◎年  代 2021
◎产  地 美国
◎类  别 剧情 / 惊悚 / 可骇
◎语  言 英语
◎上映日期 2021-04-29(美国收集)
◎IMDb评分 5.3/10 (32243人评价)
◎IMDb链接 https://www.imdb.com/title/tt10962368/
◎豆瓣评分 5.1/10 (2085人评价)
◎豆瓣链接 https://movie.douban.com/subject/34824501/
◎片  长 119分钟
◎导  演 莎里·斯宾厄·伯曼 Shari Springer Berman
       罗伯特·帕西尼 Robert Pulcini
◎编  剧 莎里·斯宾厄·伯曼 Shari Springer Berman
       罗伯特·帕西尼 Robert Pulcini
◎演  员 阿曼达·塞弗里德 Amanda Seyfried
       凯伦·阿兰 Karen Allen
       蕾亚·塞洪 Rhea Seehorn
       娜塔莉·戴尔 Natalia Dyer
       詹姆斯·诺顿 James Norton
       F·默里·亚伯拉罕 F. Murray Abraham
       迈克尔·奥吉弗 Michael O'Keefe
       詹姆斯·乌尔班尼亚克 James Urbaniak
       亚历克斯·诺伊施泰特 Alex Neustaedter
       杰克·戈尔 Jack Gore
       迈克尔·阿伯特 Michael Abbott Jr.
       科特·史姑娘 Cotter Smith
       奥利维娅·博勒姆-温 Olivia Boreham-Wing
       乔伊·奥扎纳 Joey Auzenne
       夏洛特·麦尔 Charlotte Maier
       玛丽恩·麦科里 Marion McCorry
       詹姆斯·海恩义曼 James Hindman
       本·格兰尼 Ben Graney
       露易丝·福特 Louise Ford
◎简  介
  阿曼达·塞弗里德商谈主演Netflix超自然题材惊悚片《所见所闻》(Things Heard & Seen),莎里·斯宾厄·伯曼&罗伯特·帕西尼(《保姆日志》《万圣年月》)自编自导。                                    
                                改编自Elizabeth Brundage所著书籍《All Things Cease to Appear》,气概类似《鬼入侵》,故事围绕着一对年轻佳耦展开,他们搬到纽约北部一个小镇四周的农场居住,而这个新家被前仆人的谋杀罪所诅咒,随着闹鬼的奥秘被揭穿,他们的婚姻也表暴露黑暗面。
  1. Video
  2. ID                                       : 1
  3. Format                                   : HEVC
  4. Format/Info                              : High Efficiency Video Coding
  5. Format profile                           : Main 10@L5@Main
  6. HDR format                               : Dolby Vision, Version 1.0, dvhe.05.06, BL+RPU
  7. Codec ID                                 : dvhe
  8. Codec ID/Info                            : High Efficiency Video Coding with Dolby Vision
  9. Duration                                 : 2 h 1 min
  10. Bit rate                                 : 17.4 Mb/s
  11. Width                                    : 3 840 pixels
  12. Height                                   : 2 160 pixels
  13. Display aspect ratio                     : 16:9
  14. Frame rate mode                          : Constant
  15. Frame rate                               : 23.976 (24000/1001) FPS
  16. Color space                              : YUV
  17. Chroma subsampling                       : 4:2:0
  18. Bit depth                                : 10 bits
  19. Bits/(Pixel*Frame)                       : 0.088
  20. Stream size                              : 14.8 GiB (96%)
  21. Default                                  : Yes
  22. Alternate group                          : 1
  23. Encoded date                             : UTC 2023-01-02 08:59:22
  24. Tagged date                              : UTC 2023-01-02 09:01:34
  25. Color range                              : Full
  26. Codec configuration box                  : hvcC+dvcC
  27. Audio
  28. ID                                       : 2
  29. Format                                   : E-AC-3 JOC
  30. Format/Info                              : Enhanced AC-3 with Joint Object Coding
  31. Commercial name                          : Dolby Digital Plus with Dolby Atmos
  32. Codec ID                                 : ec-3
  33. Duration                                 : 2 h 1 min
  34. Bit rate mode                            : Constant
  35. Bit rate                                 : 768 kb/s
  36. Maximum bit rate                         : 811 kb/s
  37. Channel(s)                               : 6 channels
  38. Channel layout                           : L R C LFE Ls Rs
  39. Sampling rate                            : 48.0 kHz
  40. Frame rate                               : 31.250 FPS (1536 SPF)
  41. Compression mode                         : Lossy
  42. Stream size                              : 667 MiB (4%)
  43. Title                                    : English
  44. Language                                 : English
  45. Service kind                             : Complete Main
  46. Default                                  : Yes
  47. Alternate group                          : 1
  48. Tagged date                              : UTC 2023-01-02 09:01:34
  49. Complexity index                         : Not present / 16
  50. Number of dynamic objects                : 15
  51. Bed channel count                        : 1 channel
  52. Bed channel configuration                : LFE
  53. Text #1
  54. ID                                       : 3
  55. Format                                   : Timed Text
  56. Codec ID                                 : tx3g
  57. Duration                                 : 1 h 57 min
  58. Bit rate mode                            : Variable
  59. Bit rate                                 : 74 b/s
  60. Frame rate                               : 0.497 FPS
  61. Stream size                              : 63.7 KiB (0%)
  62. Title                                    : English
  63. Language                                 : English
  64. Forced                                   : No
  65. Encoded date                             : UTC 2023-01-02 09:01:32
  66. Tagged date                              : UTC 2023-01-02 09:01:34
  67. Text #2
  68. ID                                       : 4
  69. Format                                   : Timed Text
  70. Codec ID                                 : tx3g
  71. Duration                                 : 1 h 54 min
  72. Bit rate mode                            : Variable
  73. Bit rate                                 : 63 b/s
  74. Frame rate                               : 0.415 FPS
  75. Stream size                              : 52.5 KiB (0%)
  76. Title                                    : English
  77. Language                                 : English
  78. Forced                                   : No
  79. Encoded date                             : UTC 2023-01-02 09:01:32
  80. Tagged date                              : UTC 2023-01-02 09:01:34
  81. Text #3
  82. ID                                       : 5
  83. Format                                   : Timed Text
  84. Codec ID                                 : tx3g
  85. Duration                                 : 1 h 59 min
  86. Bit rate mode                            : Variable
  87. Bit rate                                 : 91 b/s
  88. Frame rate                               : 0.380 FPS
  89. Stream size                              : 79.6 KiB (0%)
  90. Title                                    : Arabic
  91. Language                                 : Arabic
  92. Forced                                   : No
  93. Encoded date                             : UTC 2023-01-02 09:01:32
  94. Tagged date                              : UTC 2023-01-02 09:01:34
  95. Text #4
  96. ID                                       : 6
  97. Format                                   : Timed Text
  98. Codec ID                                 : tx3g
  99. Duration                                 : 1 h 59 min
  100. Bit rate mode                            : Variable
  101. Bit rate                                 : 59 b/s
  102. Frame rate                               : 0.380 FPS
  103. Stream size                              : 51.6 KiB (0%)
  104. Title                                    : Chinese-Simplified
  105. Language                                 : Chinese (Simplied)
  106. Forced                                   : No
  107. Encoded date                             : UTC 2023-01-02 09:01:32
  108. Tagged date                              : UTC 2023-01-02 09:01:34
  109. Text #5
  110. ID                                       : 7
  111. Format                                   : Timed Text
  112. Codec ID                                 : tx3g
  113. Duration                                 : 1 h 59 min
  114. Bit rate mode                            : Variable
  115. Bit rate                                 : 56 b/s
  116. Frame rate                               : 0.380 FPS
  117. Stream size                              : 49.0 KiB (0%)
  118. Title                                    : Chinese-Traditional
  119. Language                                 : Chinese (Traditional)
  120. Forced                                   : No
  121. Encoded date                             : UTC 2023-01-02 09:01:32
  122. Tagged date                              : UTC 2023-01-02 09:01:34
  123. Text #6
  124. ID                                       : 8
  125. Format                                   : Timed Text
  126. Codec ID                                 : tx3g
  127. Duration                                 : 1 h 59 min
  128. Bit rate mode                            : Variable
  129. Bit rate                                 : 53 b/s
  130. Frame rate                               : 0.367 FPS
  131. Stream size                              : 46.2 KiB (0%)
  132. Title                                    : Croatian
  133. Language                                 : Croatian
  134. Forced                                   : No
  135. Encoded date                             : UTC 2023-01-02 09:01:32
  136. Tagged date                              : UTC 2023-01-02 09:01:34
  137. Text #7
  138. ID                                       : 9
  139. Format                                   : Timed Text
  140. Codec ID                                 : tx3g
  141. Duration                                 : 1 h 59 min
  142. Bit rate mode                            : Variable
  143. Bit rate                                 : 52 b/s
  144. Frame rate                               : 0.371 FPS
  145. Stream size                              : 45.3 KiB (0%)
  146. Title                                    : Czech
  147. Language                                 : Czech
  148. Forced                                   : No
  149. Encoded date                             : UTC 2023-01-02 09:01:32
  150. Tagged date                              : UTC 2023-01-02 09:01:34
  151. Text #8
  152. ID                                       : 10
  153. Format                                   : Timed Text
  154. Codec ID                                 : tx3g
  155. Duration                                 : 1 h 59 min
  156. Bit rate mode                            : Variable
  157. Bit rate                                 : 53 b/s
  158. Frame rate                               : 0.350 FPS
  159. Stream size                              : 46.5 KiB (0%)
  160. Title                                    : Danish
  161. Language                                 : Danish
  162. Forced                                   : No
  163. Encoded date                             : UTC 2023-01-02 09:01:32
  164. Tagged date                              : UTC 2023-01-02 09:01:34
  165. Text #9
  166. ID                                       : 11
  167. Format                                   : Timed Text
  168. Codec ID                                 : tx3g
  169. Duration                                 : 1 h 54 min
  170. Bit rate mode                            : Variable
  171. Bit rate                                 : 54 b/s
  172. Frame rate                               : 0.348 FPS
  173. Stream size                              : 45.4 KiB (0%)
  174. Title                                    : Dutch
  175. Language                                 : Dutch
  176. Forced                                   : No
  177. Encoded date                             : UTC 2023-01-02 09:01:32
  178. Tagged date                              : UTC 2023-01-02 09:01:34
  179. Text #10
  180. ID                                       : 12
  181. Format                                   : Timed Text
  182. Codec ID                                 : tx3g
  183. Duration                                 : 1 h 59 min
  184. Bit rate mode                            : Variable
  185. Bit rate                                 : 59 b/s
  186. Frame rate                               : 0.374 FPS
  187. Stream size                              : 51.6 KiB (0%)
  188. Title                                    : Filipino
  189. Language                                 : fil
  190. Forced                                   : No
  191. Encoded date                             : UTC 2023-01-02 09:01:33
  192. Tagged date                              : UTC 2023-01-02 09:01:34
  193. Text #11
  194. ID                                       : 13
  195. Format                                   : Timed Text
  196. Codec ID                                 : tx3g
  197. Duration                                 : 1 h 59 min
  198. Bit rate mode                            : Variable
  199. Bit rate                                 : 53 b/s
  200. Frame rate                               : 0.338 FPS
  201. Stream size                              : 46.4 KiB (0%)
  202. Title                                    : Finnish
  203. Language                                 : Finnish
  204. Forced                                   : No
  205. Encoded date                             : UTC 2023-01-02 09:01:33
  206. Tagged date                              : UTC 2023-01-02 09:01:34
  207. Text #12
  208. ID                                       : 14
  209. Format                                   : Timed Text
  210. Codec ID                                 : tx3g
  211. Duration                                 : 1 h 59 min
  212. Bit rate mode                            : Variable
  213. Bit rate                                 : 54 b/s
  214. Frame rate                               : 0.360 FPS
  215. Stream size                              : 47.3 KiB (0%)
  216. Title                                    : French
  217. Language                                 : French
  218. Forced                                   : No
  219. Encoded date                             : UTC 2023-01-02 09:01:33
  220. Tagged date                              : UTC 2023-01-02 09:01:34
  221. Text #13
  222. ID                                       : 15
  223. Format                                   : Timed Text
  224. Codec ID                                 : tx3g
  225. Duration                                 : 1 h 59 min
  226. Bit rate mode                            : Variable
  227. Bit rate                                 : 56 b/s
  228. Frame rate                               : 0.368 FPS
  229. Stream size                              : 49.1 KiB (0%)
  230. Title                                    : German
  231. Language                                 : German
  232. Forced                                   : No
  233. Encoded date                             : UTC 2023-01-02 09:01:33
  234. Tagged date                              : UTC 2023-01-02 09:01:34
  235. Text #14
  236. ID                                       : 16
  237. Format                                   : Timed Text
  238. Codec ID                                 : tx3g
  239. Duration                                 : 1 h 59 min
  240. Bit rate mode                            : Variable
  241. Bit rate                                 : 89 b/s
  242. Frame rate                               : 0.381 FPS
  243. Stream size                              : 77.8 KiB (0%)
  244. Title                                    : Greek
  245. Language                                 : Greek
  246. Forced                                   : No
  247. Encoded date                             : UTC 2023-01-02 09:01:33
  248. Tagged date                              : UTC 2023-01-02 09:01:34
  249. Text #15
  250. ID                                       : 17
  251. Format                                   : Timed Text
  252. Codec ID                                 : tx3g
  253. Duration                                 : 1 h 59 min
  254. Bit rate mode                            : Variable
  255. Bit rate                                 : 88 b/s
  256. Frame rate                               : 0.370 FPS
  257. Stream size                              : 77.3 KiB (0%)
  258. Title                                    : Hebrew
  259. Language                                 : Hebrew
  260. Forced                                   : No
  261. Encoded date                             : UTC 2023-01-02 09:01:33
  262. Tagged date                              : UTC 2023-01-02 09:01:34
  263. Text #16
  264. ID                                       : 18
  265. Format                                   : Timed Text
  266. Codec ID                                 : tx3g
  267. Duration                                 : 1 h 59 min
  268. Bit rate mode                            : Variable
  269. Bit rate                                 : 53 b/s
  270. Frame rate                               : 0.353 FPS
  271. Stream size                              : 46.8 KiB (0%)
  272. Title                                    : Hungarian
  273. Language                                 : Hungarian
  274. Forced                                   : No
  275. Encoded date                             : UTC 2023-01-02 09:01:33
  276. Tagged date                              : UTC 2023-01-02 09:01:34
  277. Text #17
  278. ID                                       : 19
  279. Format                                   : Timed Text
  280. Codec ID                                 : tx3g
  281. Duration                                 : 1 h 59 min
  282. Bit rate mode                            : Variable
  283. Bit rate                                 : 55 b/s
  284. Frame rate                               : 0.378 FPS
  285. Stream size                              : 48.6 KiB (0%)
  286. Title                                    : Indonesian
  287. Language                                 : Indonesian
  288. Forced                                   : No
  289. Encoded date                             : UTC 2023-01-02 09:01:33
  290. Tagged date                              : UTC 2023-01-02 09:01:34
  291. Text #18
  292. ID                                       : 20
  293. Format                                   : Timed Text
  294. Codec ID                                 : tx3g
  295. Duration                                 : 1 h 59 min
  296. Bit rate mode                            : Variable
  297. Bit rate                                 : 56 b/s
  298. Frame rate                               : 0.359 FPS
  299. Stream size                              : 49.5 KiB (0%)
  300. Title                                    : Italian
  301. Language                                 : Italian
  302. Forced                                   : No
  303. Encoded date                             : UTC 2023-01-02 09:01:33
  304. Tagged date                              : UTC 2023-01-02 09:01:34
  305. Text #19
  306. ID                                       : 21
  307. Format                                   : Timed Text
  308. Codec ID                                 : tx3g
  309. Duration                                 : 1 h 59 min
  310. Bit rate mode                            : Variable
  311. Bit rate                                 : 54 b/s
  312. Frame rate                               : 0.387 FPS
  313. Stream size                              : 47.7 KiB (0%)
  314. Title                                    : Japanese
  315. Language                                 : Japanese
  316. Forced                                   : No
  317. Encoded date                             : UTC 2023-01-02 09:01:33
  318. Tagged date                              : UTC 2023-01-02 09:01:34
  319. Text #20
  320. ID                                       : 22
  321. Format                                   : Timed Text
  322. Codec ID                                 : tx3g
  323. Duration                                 : 1 h 59 min
  324. Bit rate mode                            : Variable
  325. Bit rate                                 : 65 b/s
  326. Frame rate                               : 0.395 FPS
  327. Stream size                              : 56.9 KiB (0%)
  328. Title                                    : Korean
  329. Language                                 : Korean
  330. Forced                                   : No
  331. Encoded date                             : UTC 2023-01-02 09:01:33
  332. Tagged date                              : UTC 2023-01-02 09:01:34
  333. Text #21
  334. ID                                       : 23
  335. Format                                   : Timed Text
  336. Codec ID                                 : tx3g
  337. Duration                                 : 1 h 59 min
  338. Bit rate mode                            : Variable
  339. Bit rate                                 : 55 b/s
  340. Frame rate                               : 0.379 FPS
  341. Stream size                              : 48.1 KiB (0%)
  342. Title                                    : Malay
  343. Language                                 : Malay
  344. Forced                                   : No
  345. Encoded date                             : UTC 2023-01-02 09:01:33
  346. Tagged date                              : UTC 2023-01-02 09:01:34
  347. Text #22
  348. ID                                       : 24
  349. Format                                   : Timed Text
  350. Codec ID                                 : tx3g
  351. Duration                                 : 1 h 59 min
  352. Bit rate mode                            : Variable
  353. Bit rate                                 : 53 b/s
  354. Frame rate                               : 0.358 FPS
  355. Stream size                              : 46.8 KiB (0%)
  356. Title                                    : Norwegian
  357. Language                                 : Norwegian Bokmal
  358. Forced                                   : No
  359. Encoded date                             : UTC 2023-01-02 09:01:33
  360. Tagged date                              : UTC 2023-01-02 09:01:34
  361. Text #23
  362. ID                                       : 25
  363. Format                                   : Timed Text
  364. Codec ID                                 : tx3g
  365. Duration                                 : 1 h 59 min
  366. Bit rate mode                            : Variable
  367. Bit rate                                 : 55 b/s
  368. Frame rate                               : 0.383 FPS
  369. Stream size                              : 48.2 KiB (0%)
  370. Title                                    : Polish
  371. Language                                 : Polish
  372. Forced                                   : No
  373. Encoded date                             : UTC 2023-01-02 09:01:33
  374. Tagged date                              : UTC 2023-01-02 09:01:34
  375. Text #24
  376. ID                                       : 26
  377. Format                                   : Timed Text
  378. Codec ID                                 : tx3g
  379. Duration                                 : 1 h 59 min
  380. Bit rate mode                            : Variable
  381. Bit rate                                 : 57 b/s
  382. Frame rate                               : 0.370 FPS
  383. Stream size                              : 49.5 KiB (0%)
  384. Title                                    : Portuguese
  385. Language                                 : Portuguese
  386. Forced                                   : No
  387. Encoded date                             : UTC 2023-01-02 09:01:33
  388. Tagged date                              : UTC 2023-01-02 09:01:34
  389. Text #25
  390. ID                                       : 27
  391. Format                                   : Timed Text
  392. Codec ID                                 : tx3g
  393. Duration                                 : 1 h 59 min
  394. Bit rate mode                            : Variable
  395. Bit rate                                 : 56 b/s
  396. Frame rate                               : 0.378 FPS
  397. Stream size                              : 49.0 KiB (0%)
  398. Title                                    : Portuguese-BR
  399. Language                                 : Portuguese (BR)
  400. Forced                                   : No
  401. Encoded date                             : UTC 2023-01-02 09:01:34
  402. Tagged date                              : UTC 2023-01-02 09:01:34
  403. Text #26
  404. ID                                       : 28
  405. Format                                   : Timed Text
  406. Codec ID                                 : tx3g
  407. Duration                                 : 1 h 54 min
  408. Bit rate mode                            : Variable
  409. Bit rate                                 : 59 b/s
  410. Frame rate                               : 0.374 FPS
  411. Stream size                              : 49.6 KiB (0%)
  412. Title                                    : Romanian
  413. Language                                 : Romanian
  414. Forced                                   : No
  415. Encoded date                             : UTC 2023-01-02 09:01:34
  416. Tagged date                              : UTC 2023-01-02 09:01:34
  417. Text #27
  418. ID                                       : 29
  419. Format                                   : Timed Text
  420. Codec ID                                 : tx3g
  421. Duration                                 : 1 h 59 min
  422. Bit rate mode                            : Variable
  423. Bit rate                                 : 90 b/s
  424. Frame rate                               : 0.384 FPS
  425. Stream size                              : 78.6 KiB (0%)
  426. Title                                    : Russian
  427. Language                                 : Russian
  428. Forced                                   : No
  429. Encoded date                             : UTC 2023-01-02 09:01:34
  430. Tagged date                              : UTC 2023-01-02 09:01:34
  431. Text #28
  432. ID                                       : 30
  433. Format                                   : Timed Text
  434. Codec ID                                 : tx3g
  435. Duration                                 : 1 h 54 min
  436. Bit rate mode                            : Variable
  437. Bit rate                                 : 58 b/s
  438. Frame rate                               : 0.388 FPS
  439. Stream size                              : 48.3 KiB (0%)
  440. Title                                    : Spanish
  441. Language                                 : Spanish (150)
  442. Forced                                   : No
  443. Encoded date                             : UTC 2023-01-02 09:01:34
  444. Tagged date                              : UTC 2023-01-02 09:01:34
  445. Text #29
  446. ID                                       : 31
  447. Format                                   : Timed Text
  448. Codec ID                                 : tx3g
  449. Duration                                 : 1 h 59 min
  450. Bit rate mode                            : Variable
  451. Bit rate                                 : 54 b/s
  452. Frame rate                               : 0.370 FPS
  453. Stream size                              : 47.7 KiB (0%)
  454. Title                                    : Spanish-EU
  455. Language                                 : Spanish
  456. Forced                                   : No
  457. Encoded date                             : UTC 2023-01-02 09:01:34
  458. Tagged date                              : UTC 2023-01-02 09:01:34
  459. Text #30
  460. ID                                       : 32
  461. Format                                   : Timed Text
  462. Codec ID                                 : tx3g
  463. Duration                                 : 1 h 59 min
  464. Bit rate mode                            : Variable
  465. Bit rate                                 : 56 b/s
  466. Frame rate                               : 0.354 FPS
  467. Stream size                              : 49.0 KiB (0%)
  468. Title                                    : Swedish
  469. Language                                 : Swedish
  470. Forced                                   : No
  471. Encoded date                             : UTC 2023-01-02 09:01:34
  472. Tagged date                              : UTC 2023-01-02 09:01:34
  473. Text #31
  474. ID                                       : 33
  475. Format                                   : Timed Text
  476. Codec ID                                 : tx3g
  477. Duration                                 : 1 h 59 min
  478. Bit rate mode                            : Variable
  479. Bit rate                                 : 127 b/s
  480. Frame rate                               : 0.380 FPS
  481. Stream size                              : 112 KiB (0%)
  482. Title                                    : Thai
  483. Language                                 : Thai
  484. Forced                                   : No
  485. Encoded date                             : UTC 2023-01-02 09:01:34
  486. Tagged date                              : UTC 2023-01-02 09:01:34
  487. Text #32
  488. ID                                       : 34
  489. Format                                   : Timed Text
  490. Codec ID                                 : tx3g
  491. Duration                                 : 1 h 59 min
  492. Bit rate mode                            : Variable
  493. Bit rate                                 : 55 b/s
  494. Frame rate                               : 0.343 FPS
  495. Stream size                              : 47.9 KiB (0%)
  496. Title                                    : Turkish
  497. Language                                 : Turkish
  498. Forced                                   : No
  499. Encoded date                             : UTC 2023-01-02 09:01:34
  500. Tagged date                              : UTC 2023-01-02 09:01:34
  501. Text #33
  502. ID                                       : 35
  503. Format                                   : Timed Text
  504. Codec ID                                 : tx3g
  505. Duration                                 : 1 h 59 min
  506. Bit rate mode                            : Variable
  507. Bit rate                                 : 84 b/s
  508. Frame rate                               : 0.380 FPS
  509. Stream size                              : 73.2 KiB (0%)
  510. Title                                    : Ukrainian
  511. Language                                 : Ukrainian
  512. Forced                                   : No
  513. Encoded date                             : UTC 2023-01-02 09:01:34
  514. Tagged date                              : UTC 2023-01-02 09:01:34
  515. Text #34
  516. ID                                       : 36
  517. Format                                   : Timed Text
  518. Codec ID                                 : tx3g
  519. Duration                                 : 1 h 59 min
  520. Bit rate mode                            : Variable
  521. Bit rate                                 : 80 b/s
  522. Frame rate                               : 0.343 FPS
  523. Stream size                              : 69.8 KiB (0%)
  524. Title                                    : Vietnamese
  525. Language                                 : Vietnamese
  526. Forced                                   : No
  527. Encoded date                             : UTC 2023-01-02 09:01:34
  528. Tagged date                              : UTC 2023-01-02 09:01:34
复制代码











回复

使用道具 举报

蓝光币
3233
发表于 2023-1-4 11:29:19 | 显示全部楼层
楼主发贴辛苦了,谢谢楼主分享!我觉得蓝光电影网是注册对了!
回复

使用道具 举报

蓝光币
365
发表于 2023-1-6 09:16:14 | 显示全部楼层

楼主发贴辛苦了,谢谢楼主分享!我觉得蓝光电影网是注册对了!
回复

使用道具 举报

懒得打字嘛,点击右侧快捷回复 【右侧内容,后台自定义】
您需要登录后才可以回帖 登录 | 立即加入

本版积分规则

Copyright © 2024 Comsenz Inc. Powered by 蓝光电影网

本站内容由用户自主分享和转载自互联网,转载目的在于传递更多信息,并不代表本网赞同其观点和对其真实性负责。

如有侵权、违反国家法律政策行为,请联系我们,我们会第一时间及时清除和处理!

举报反馈邮箱:4k1080.com@gmail.com

快速回复 返回顶部 返回列表