找回密码

查看: 1697|回复: 8

[2160p-WEB] 所见所闻[中文字幕].Things.Heard.and.Seen.2021.2160p.NF.WEB-DL.x265.10bit.HDR.DDP5.1.Atmos-LikeNFShows 15.73GB

[复制链接]
蓝光币
1840
发表于 2023-1-3 03:28:17 | 显示全部楼层 |阅读模式


◎标  题 所见所闻
◎译  名 听说轶事 / 谜屋隐语
◎片  名 Things Heard & Seen
◎年  代 2021
◎产  地 美国
◎类  别 剧情 / 惊悚 / 可骇
◎语  言 英语
◎上映日期 2021-04-29(美国收集)
◎IMDb评分 5.3/10 (32243人评价)
◎IMDb链接 https://www.imdb.com/title/tt10962368/
◎豆瓣评分 5.1/10 (2085人评价)
◎豆瓣链接 https://movie.douban.com/subject/34824501/
◎片  长 119分钟
◎导  演 莎里·斯宾厄·伯曼 Shari Springer Berman
       罗伯特·帕西尼 Robert Pulcini
◎编  剧 莎里·斯宾厄·伯曼 Shari Springer Berman
       罗伯特·帕西尼 Robert Pulcini
◎演  员 阿曼达·塞弗里德 Amanda Seyfried
       凯伦·阿兰 Karen Allen
       蕾亚·塞洪 Rhea Seehorn
       娜塔莉·戴尔 Natalia Dyer
       詹姆斯·诺顿 James Norton
       F·默里·亚伯拉罕 F. Murray Abraham
       迈克尔·奥吉弗 Michael O'Keefe
       詹姆斯·乌尔班尼亚克 James Urbaniak
       亚历克斯·诺伊施泰特 Alex Neustaedter
       杰克·戈尔 Jack Gore
       迈克尔·阿伯特 Michael Abbott Jr.
       科特·史姑娘 Cotter Smith
       奥利维娅·博勒姆-温 Olivia Boreham-Wing
       乔伊·奥扎纳 Joey Auzenne
       夏洛特·麦尔 Charlotte Maier
       玛丽恩·麦科里 Marion McCorry
       詹姆斯·海恩义曼 James Hindman
       本·格兰尼 Ben Graney
       露易丝·福特 Louise Ford
◎简  介
  阿曼达·塞弗里德商谈主演Netflix超自然题材惊悚片《所见所闻》(Things Heard & Seen),莎里·斯宾厄·伯曼&罗伯特·帕西尼(《保姆日志》《万圣年月》)自编自导。                                    
                                改编自Elizabeth Brundage所著书籍《All Things Cease to Appear》,气概类似《鬼入侵》,故事围绕着一对年轻佳耦展开,他们搬到纽约北部一个小镇四周的农场居住,而这个新家被前仆人的谋杀罪所诅咒,随着闹鬼的奥秘被揭穿,他们的婚姻也表暴露黑暗面。
  1. Video
  2. ID                                       : 1
  3. Format                                   : HEVC
  4. Format/Info                              : High Efficiency Video Coding
  5. Format profile                           : Main 10@L5@Main
  6. HDR format                               : Dolby Vision, Version 1.0, dvhe.08.06, BL+RPU, HDR10 compatible / SMPTE ST 2086, HDR10 compatible
  7. Codec ID                                 : V_MPEGH/ISO/HEVC
  8. Duration                                 : 1 h 59 min
  9. Bit rate                                 : 18.0 Mb/s
  10. Width                                    : 3 840 pixels
  11. Height                                   : 2 160 pixels
  12. Display aspect ratio                     : 16:9
  13. Frame rate mode                          : Constant
  14. Frame rate                               : 23.976 (24000/1001) FPS
  15. Color space                              : YUV
  16. Chroma subsampling                       : 4:2:0 (Type 2)
  17. Bit depth                                : 10 bits
  18. Bits/(Pixel*Frame)                       : 0.090
  19. Stream size                              : 15.1 GiB (96%)
  20. Language                                 : English
  21. Default                                  : Yes
  22. Forced                                   : No
  23. Color range                              : Limited
  24. Color primaries                          : BT.2020
  25. Transfer characteristics                 : PQ
  26. Matrix coefficients                      : BT.2020 non-constant
  27. Mastering display color primaries        : Display P3
  28. Mastering display luminance              : min: 0.0001 cd/m2, max: 1000 cd/m2
  29. Maximum Content Light Level              : 769 cd/m2
  30. Maximum Frame-Average Light Level        : 571 cd/m2
  31. Audio
  32. ID                                       : 2
  33. Format                                   : E-AC-3 JOC
  34. Format/Info                              : Enhanced AC-3 with Joint Object Coding
  35. Commercial name                          : Dolby Digital Plus with Dolby Atmos
  36. Codec ID                                 : A_EAC3
  37. Duration                                 : 2 h 1 min
  38. Bit rate mode                            : Constant
  39. Bit rate                                 : 768 kb/s
  40. Channel(s)                               : 6 channels
  41. Channel layout                           : L R C LFE Ls Rs
  42. Sampling rate                            : 48.0 kHz
  43. Frame rate                               : 31.250 FPS (1536 SPF)
  44. Compression mode                         : Lossy
  45. Stream size                              : 667 MiB (4%)
  46. Language                                 : English
  47. Service kind                             : Complete Main
  48. Default                                  : Yes
  49. Forced                                   : No
  50. Complexity index                         : 16
  51. Number of dynamic objects                : 15
  52. Bed channel count                        : 1 channel
  53. Bed channel configuration                : LFE
  54. Text #1
  55. ID                                       : 3
  56. Format                                   : UTF-8
  57. Codec ID                                 : S_TEXT/UTF8
  58. Codec ID/Info                            : UTF-8 Plain Text
  59. Duration                                 : 1 h 50 min
  60. Bit rate                                 : 56 b/s
  61. Frame rate                               : 0.214 FPS
  62. Count of elements                        : 1421
  63. Stream size                              : 45.8 KiB (0%)
  64. Language                                 : English
  65. Default                                  : No
  66. Forced                                   : No
  67. Text #2
  68. ID                                       : 4
  69. Format                                   : UTF-8
  70. Codec ID                                 : S_TEXT/UTF8
  71. Codec ID/Info                            : UTF-8 Plain Text
  72. Duration                                 : 1 h 57 min
  73. Bit rate                                 : 64 b/s
  74. Frame rate                               : 0.250 FPS
  75. Count of elements                        : 1755
  76. Stream size                              : 55.4 KiB (0%)
  77. Title                                    : SDH
  78. Language                                 : English
  79. Default                                  : No
  80. Forced                                   : No
  81. Text #3
  82. ID                                       : 5
  83. Format                                   : UTF-8
  84. Codec ID                                 : S_TEXT/UTF8
  85. Codec ID/Info                            : UTF-8 Plain Text
  86. Duration                                 : 1 h 59 min
  87. Bit rate                                 : 85 b/s
  88. Frame rate                               : 0.191 FPS
  89. Count of elements                        : 1366
  90. Stream size                              : 74.5 KiB (0%)
  91. Language                                 : Arabic
  92. Default                                  : No
  93. Forced                                   : No
  94. Text #4
  95. ID                                       : 6
  96. Format                                   : UTF-8
  97. Codec ID                                 : S_TEXT/UTF8
  98. Codec ID/Info                            : UTF-8 Plain Text
  99. Duration                                 : 1 h 59 min
  100. Bit rate                                 : 44 b/s
  101. Frame rate                               : 0.186 FPS
  102. Count of elements                        : 1333
  103. Stream size                              : 39.0 KiB (0%)
  104. Language                                 : Czech
  105. Default                                  : No
  106. Forced                                   : No
  107. Text #5
  108. ID                                       : 7
  109. Format                                   : UTF-8
  110. Codec ID                                 : S_TEXT/UTF8
  111. Codec ID/Info                            : UTF-8 Plain Text
  112. Duration                                 : 1 h 59 min
  113. Bit rate                                 : 46 b/s
  114. Frame rate                               : 0.176 FPS
  115. Count of elements                        : 1257
  116. Stream size                              : 40.6 KiB (0%)
  117. Language                                 : Danish
  118. Default                                  : No
  119. Forced                                   : No
  120. Text #6
  121. ID                                       : 8
  122. Format                                   : UTF-8
  123. Codec ID                                 : S_TEXT/UTF8
  124. Codec ID/Info                            : UTF-8 Plain Text
  125. Duration                                 : 1 h 59 min
  126. Bit rate                                 : 48 b/s
  127. Frame rate                               : 0.184 FPS
  128. Count of elements                        : 1320
  129. Stream size                              : 42.8 KiB (0%)
  130. Language                                 : German
  131. Default                                  : No
  132. Forced                                   : No
  133. Text #7
  134. ID                                       : 9
  135. Format                                   : UTF-8
  136. Codec ID                                 : S_TEXT/UTF8
  137. Codec ID/Info                            : UTF-8 Plain Text
  138. Duration                                 : 1 h 59 min
  139. Bit rate                                 : 81 b/s
  140. Frame rate                               : 0.191 FPS
  141. Count of elements                        : 1366
  142. Stream size                              : 71.4 KiB (0%)
  143. Language                                 : Greek
  144. Default                                  : No
  145. Forced                                   : No
  146. Text #8
  147. ID                                       : 10
  148. Format                                   : UTF-8
  149. Codec ID                                 : S_TEXT/UTF8
  150. Codec ID/Info                            : UTF-8 Plain Text
  151. Duration                                 : 1 h 54 min
  152. Bit rate                                 : 50 b/s
  153. Frame rate                               : 0.194 FPS
  154. Count of elements                        : 1331
  155. Stream size                              : 42.1 KiB (0%)
  156. Title                                    : Latin American
  157. Language                                 : Spanish (Latin America)
  158. Default                                  : No
  159. Forced                                   : No
  160. Text #9
  161. ID                                       : 11
  162. Format                                   : UTF-8
  163. Codec ID                                 : S_TEXT/UTF8
  164. Codec ID/Info                            : UTF-8 Plain Text
  165. Duration                                 : 1 h 59 min
  166. Bit rate                                 : 47 b/s
  167. Frame rate                               : 0.186 FPS
  168. Count of elements                        : 1329
  169. Stream size                              : 41.3 KiB (0%)
  170. Language                                 : Spanish (ES)
  171. Default                                  : No
  172. Forced                                   : No
  173. Text #10
  174. ID                                       : 12
  175. Format                                   : UTF-8
  176. Codec ID                                 : S_TEXT/UTF8
  177. Codec ID/Info                            : UTF-8 Plain Text
  178. Duration                                 : 1 h 59 min
  179. Bit rate                                 : 46 b/s
  180. Frame rate                               : 0.169 FPS
  181. Count of elements                        : 1213
  182. Stream size                              : 40.6 KiB (0%)
  183. Language                                 : Finnish
  184. Default                                  : No
  185. Forced                                   : No
  186. Text #11
  187. ID                                       : 13
  188. Format                                   : UTF-8
  189. Codec ID                                 : S_TEXT/UTF8
  190. Codec ID/Info                            : UTF-8 Plain Text
  191. Duration                                 : 1 h 59 min
  192. Bit rate                                 : 51 b/s
  193. Frame rate                               : 0.188 FPS
  194. Count of elements                        : 1343
  195. Stream size                              : 45.4 KiB (0%)
  196. Language                                 : fil
  197. Default                                  : No
  198. Forced                                   : No
  199. Text #12
  200. ID                                       : 14
  201. Format                                   : UTF-8
  202. Codec ID                                 : S_TEXT/UTF8
  203. Codec ID/Info                            : UTF-8 Plain Text
  204. Duration                                 : 1 h 59 min
  205. Bit rate                                 : 47 b/s
  206. Frame rate                               : 0.180 FPS
  207. Count of elements                        : 1292
  208. Stream size                              : 41.3 KiB (0%)
  209. Language                                 : French
  210. Default                                  : No
  211. Forced                                   : No
  212. Text #13
  213. ID                                       : 15
  214. Format                                   : UTF-8
  215. Codec ID                                 : S_TEXT/UTF8
  216. Codec ID/Info                            : UTF-8 Plain Text
  217. Duration                                 : 1 h 59 min
  218. Bit rate                                 : 82 b/s
  219. Frame rate                               : 0.185 FPS
  220. Count of elements                        : 1327
  221. Stream size                              : 72.4 KiB (0%)
  222. Language                                 : Hebrew
  223. Default                                  : No
  224. Forced                                   : No
  225. Text #14
  226. ID                                       : 16
  227. Format                                   : UTF-8
  228. Codec ID                                 : S_TEXT/UTF8
  229. Codec ID/Info                            : UTF-8 Plain Text
  230. Duration                                 : 1 h 59 min
  231. Bit rate                                 : 45 b/s
  232. Frame rate                               : 0.184 FPS
  233. Count of elements                        : 1317
  234. Stream size                              : 39.9 KiB (0%)
  235. Language                                 : Croatian
  236. Default                                  : No
  237. Forced                                   : No
  238. Text #15
  239. ID                                       : 17
  240. Format                                   : UTF-8
  241. Codec ID                                 : S_TEXT/UTF8
  242. Codec ID/Info                            : UTF-8 Plain Text
  243. Duration                                 : 1 h 59 min
  244. Bit rate                                 : 46 b/s
  245. Frame rate                               : 0.177 FPS
  246. Count of elements                        : 1266
  247. Stream size                              : 40.7 KiB (0%)
  248. Language                                 : Hungarian
  249. Default                                  : No
  250. Forced                                   : No
  251. Text #16
  252. ID                                       : 18
  253. Format                                   : UTF-8
  254. Codec ID                                 : S_TEXT/UTF8
  255. Codec ID/Info                            : UTF-8 Plain Text
  256. Duration                                 : 1 h 59 min
  257. Bit rate                                 : 48 b/s
  258. Frame rate                               : 0.190 FPS
  259. Count of elements                        : 1358
  260. Stream size                              : 42.2 KiB (0%)
  261. Language                                 : Indonesian
  262. Default                                  : No
  263. Forced                                   : No
  264. Text #17
  265. ID                                       : 19
  266. Format                                   : UTF-8
  267. Codec ID                                 : S_TEXT/UTF8
  268. Codec ID/Info                            : UTF-8 Plain Text
  269. Duration                                 : 1 h 59 min
  270. Bit rate                                 : 49 b/s
  271. Frame rate                               : 0.180 FPS
  272. Count of elements                        : 1289
  273. Stream size                              : 43.2 KiB (0%)
  274. Language                                 : Italian
  275. Default                                  : No
  276. Forced                                   : No
  277. Text #18
  278. ID                                       : 20
  279. Format                                   : UTF-8
  280. Codec ID                                 : S_TEXT/UTF8
  281. Codec ID/Info                            : UTF-8 Plain Text
  282. Duration                                 : 1 h 59 min
  283. Bit rate                                 : 48 b/s
  284. Frame rate                               : 0.195 FPS
  285. Count of elements                        : 1395
  286. Stream size                              : 42.5 KiB (0%)
  287. Language                                 : Japanese
  288. Default                                  : No
  289. Forced                                   : No
  290. Text #19
  291. ID                                       : 21
  292. Format                                   : UTF-8
  293. Codec ID                                 : S_TEXT/UTF8
  294. Codec ID/Info                            : UTF-8 Plain Text
  295. Duration                                 : 1 h 59 min
  296. Bit rate                                 : 59 b/s
  297. Frame rate                               : 0.198 FPS
  298. Count of elements                        : 1417
  299. Stream size                              : 51.8 KiB (0%)
  300. Language                                 : Korean
  301. Default                                  : No
  302. Forced                                   : No
  303. Text #20
  304. ID                                       : 22
  305. Format                                   : UTF-8
  306. Codec ID                                 : S_TEXT/UTF8
  307. Codec ID/Info                            : UTF-8 Plain Text
  308. Duration                                 : 1 h 59 min
  309. Bit rate                                 : 47 b/s
  310. Frame rate                               : 0.190 FPS
  311. Count of elements                        : 1360
  312. Stream size                              : 41.7 KiB (0%)
  313. Language                                 : Malay
  314. Default                                  : No
  315. Forced                                   : No
  316. Text #21
  317. ID                                       : 23
  318. Format                                   : UTF-8
  319. Codec ID                                 : S_TEXT/UTF8
  320. Codec ID/Info                            : UTF-8 Plain Text
  321. Duration                                 : 1 h 59 min
  322. Bit rate                                 : 46 b/s
  323. Frame rate                               : 0.179 FPS
  324. Count of elements                        : 1285
  325. Stream size                              : 40.8 KiB (0%)
  326. Language                                 : Norwegian Bokmal
  327. Default                                  : No
  328. Forced                                   : No
  329. Text #22
  330. ID                                       : 24
  331. Format                                   : UTF-8
  332. Codec ID                                 : S_TEXT/UTF8
  333. Codec ID/Info                            : UTF-8 Plain Text
  334. Duration                                 : 1 h 53 min
  335. Bit rate                                 : 49 b/s
  336. Frame rate                               : 0.174 FPS
  337. Count of elements                        : 1192
  338. Stream size                              : 41.2 KiB (0%)
  339. Language                                 : Dutch
  340. Default                                  : No
  341. Forced                                   : No
  342. Text #23
  343. ID                                       : 25
  344. Format                                   : UTF-8
  345. Codec ID                                 : S_TEXT/UTF8
  346. Codec ID/Info                            : UTF-8 Plain Text
  347. Duration                                 : 1 h 59 min
  348. Bit rate                                 : 47 b/s
  349. Frame rate                               : 0.192 FPS
  350. Count of elements                        : 1374
  351. Stream size                              : 41.6 KiB (0%)
  352. Language                                 : Polish
  353. Default                                  : No
  354. Forced                                   : No
  355. Text #24
  356. ID                                       : 26
  357. Format                                   : UTF-8
  358. Codec ID                                 : S_TEXT/UTF8
  359. Codec ID/Info                            : UTF-8 Plain Text
  360. Duration                                 : 1 h 59 min
  361. Bit rate                                 : 48 b/s
  362. Frame rate                               : 0.190 FPS
  363. Count of elements                        : 1358
  364. Stream size                              : 42.6 KiB (0%)
  365. Title                                    : Brazilian
  366. Language                                 : Portuguese (BR)
  367. Default                                  : No
  368. Forced                                   : No
  369. Text #25
  370. ID                                       : 27
  371. Format                                   : UTF-8
  372. Codec ID                                 : S_TEXT/UTF8
  373. Codec ID/Info                            : UTF-8 Plain Text
  374. Duration                                 : 1 h 59 min
  375. Bit rate                                 : 49 b/s
  376. Frame rate                               : 0.186 FPS
  377. Count of elements                        : 1329
  378. Stream size                              : 43.0 KiB (0%)
  379. Language                                 : Portuguese (PT)
  380. Default                                  : No
  381. Forced                                   : No
  382. Text #26
  383. ID                                       : 28
  384. Format                                   : UTF-8
  385. Codec ID                                 : S_TEXT/UTF8
  386. Codec ID/Info                            : UTF-8 Plain Text
  387. Duration                                 : 1 h 53 min
  388. Bit rate                                 : 52 b/s
  389. Frame rate                               : 0.188 FPS
  390. Count of elements                        : 1283
  391. Stream size                              : 43.6 KiB (0%)
  392. Language                                 : Romanian
  393. Default                                  : No
  394. Forced                                   : No
  395. Text #27
  396. ID                                       : 29
  397. Format                                   : UTF-8
  398. Codec ID                                 : S_TEXT/UTF8
  399. Codec ID/Info                            : UTF-8 Plain Text
  400. Duration                                 : 1 h 59 min
  401. Bit rate                                 : 82 b/s
  402. Frame rate                               : 0.193 FPS
  403. Count of elements                        : 1379
  404. Stream size                              : 72.1 KiB (0%)
  405. Language                                 : Russian
  406. Default                                  : No
  407. Forced                                   : No
  408. Text #28
  409. ID                                       : 30
  410. Format                                   : UTF-8
  411. Codec ID                                 : S_TEXT/UTF8
  412. Codec ID/Info                            : UTF-8 Plain Text
  413. Duration                                 : 1 h 59 min
  414. Bit rate                                 : 49 b/s
  415. Frame rate                               : 0.178 FPS
  416. Count of elements                        : 1273
  417. Stream size                              : 43.1 KiB (0%)
  418. Language                                 : Swedish
  419. Default                                  : No
  420. Forced                                   : No
  421. Text #29
  422. ID                                       : 31
  423. Format                                   : UTF-8
  424. Codec ID                                 : S_TEXT/UTF8
  425. Codec ID/Info                            : UTF-8 Plain Text
  426. Duration                                 : 1 h 59 min
  427. Bit rate                                 : 121 b/s
  428. Frame rate                               : 0.190 FPS
  429. Count of elements                        : 1364
  430. Stream size                              : 107 KiB (0%)
  431. Language                                 : Thai
  432. Default                                  : No
  433. Forced                                   : No
  434. Text #30
  435. ID                                       : 32
  436. Format                                   : UTF-8
  437. Codec ID                                 : S_TEXT/UTF8
  438. Codec ID/Info                            : UTF-8 Plain Text
  439. Duration                                 : 1 h 59 min
  440. Bit rate                                 : 48 b/s
  441. Frame rate                               : 0.172 FPS
  442. Count of elements                        : 1233
  443. Stream size                              : 42.1 KiB (0%)
  444. Language                                 : Turkish
  445. Default                                  : No
  446. Forced                                   : No
  447. Text #31
  448. ID                                       : 33
  449. Format                                   : UTF-8
  450. Codec ID                                 : S_TEXT/UTF8
  451. Codec ID/Info                            : UTF-8 Plain Text
  452. Duration                                 : 1 h 59 min
  453. Bit rate                                 : 76 b/s
  454. Frame rate                               : 0.191 FPS
  455. Count of elements                        : 1366
  456. Stream size                              : 66.8 KiB (0%)
  457. Language                                 : Ukrainian
  458. Default                                  : No
  459. Forced                                   : No
  460. Text #32
  461. ID                                       : 34
  462. Format                                   : UTF-8
  463. Codec ID                                 : S_TEXT/UTF8
  464. Codec ID/Info                            : UTF-8 Plain Text
  465. Duration                                 : 1 h 59 min
  466. Bit rate                                 : 73 b/s
  467. Frame rate                               : 0.172 FPS
  468. Count of elements                        : 1231
  469. Stream size                              : 64.0 KiB (0%)
  470. Language                                 : Vietnamese
  471. Default                                  : No
  472. Forced                                   : No
  473. Text #33
  474. ID                                       : 35
  475. Format                                   : UTF-8
  476. Codec ID                                 : S_TEXT/UTF8
  477. Codec ID/Info                            : UTF-8 Plain Text
  478. Duration                                 : 1 h 59 min
  479. Bit rate                                 : 53 b/s
  480. Frame rate                               : 0.191 FPS
  481. Count of elements                        : 1366
  482. Stream size                              : 46.6 KiB (0%)
  483. Title                                    : Simplified
  484. Language                                 : Chinese (Simplied)
  485. Default                                  : No
  486. Forced                                   : No
  487. Text #34
  488. ID                                       : 36
  489. Format                                   : UTF-8
  490. Codec ID                                 : S_TEXT/UTF8
  491. Codec ID/Info                            : UTF-8 Plain Text
  492. Duration                                 : 1 h 59 min
  493. Bit rate                                 : 50 b/s
  494. Frame rate                               : 0.191 FPS
  495. Count of elements                        : 1366
  496. Stream size                              : 43.9 KiB (0%)
  497. Title                                    : Traditional
  498. Language                                 : Chinese (Traditional)
  499. Default                                  : No
  500. Forced                                   : No
  501. Menu
  502. 01:54:27.000                             : en:End Credits
复制代码











回复

使用道具 举报

蓝光币
1
发表于 2023-1-4 11:03:03 | 显示全部楼层

既然你诚信诚意的推荐了,那我就勉为其难的看看吧!蓝光电影网不走平凡路。
回复

使用道具 举报

蓝光币
22
发表于 2023-1-4 13:23:50 | 显示全部楼层
楼主发贴辛苦了,谢谢楼主分享!我觉得蓝光电影网是注册对了!
回复

使用道具 举报

蓝光币
17
发表于 2023-1-4 14:08:26 | 显示全部楼层
楼主发贴辛苦了,谢谢楼主分享!我觉得蓝光电影网是注册对了!
回复

使用道具 举报

蓝光币
2064
发表于 2023-1-5 08:25:33 | 显示全部楼层
不错,收下了。
回复

使用道具 举报

蓝光币
259
发表于 2023-1-5 09:29:10 | 显示全部楼层
楼主发贴辛苦了,谢谢楼主分享!我觉得蓝光电影网是注册对了!
回复

使用道具 举报

蓝光币
1
发表于 2023-1-5 13:13:36 | 显示全部楼层
楼主太厉害了!楼主,电影应该很好看我觉得蓝光电影网真是个好地方!
回复

使用道具 举报

蓝光币
1330
发表于 2023-1-5 19:13:29 | 显示全部楼层

这个帖子不回对不起自己!我想我是一天也不能离开蓝光电影网。
回复

使用道具 举报

蓝光币
103
发表于 2023-1-5 22:00:01 | 显示全部楼层

这东西我收了!谢谢楼主!蓝光电影网真好!
回复

使用道具 举报

懒得打字嘛,点击右侧快捷回复 【右侧内容,后台自定义】
您需要登录后才可以回帖 登录 | 立即加入

本版积分规则

Copyright © 2024 Comsenz Inc. Powered by 蓝光电影网

本站内容由用户自主分享和转载自互联网,转载目的在于传递更多信息,并不代表本网赞同其观点和对其真实性负责。

如有侵权、违反国家法律政策行为,请联系我们,我们会第一时间及时清除和处理!

举报反馈邮箱:4k1080.com@gmail.com

快速回复 返回顶部 返回列表