找回密码

查看: 1392|回复: 2

[2160p-WEB] 所见所闻[中文字幕].Things.Heard.and.Seen.2021.2160p.NF.WEB-DL.x265.10bit.SDR.DDP5.1.Atmos-LikeNFShows 10.31GB

[复制链接]
蓝光币
1848
发表于 2023-1-3 03:28:17 | 显示全部楼层 |阅读模式


◎标  题 所见所闻
◎译  名 听说轶事 / 谜屋隐语
◎片  名 Things Heard & Seen
◎年  代 2021
◎产  地 美国
◎类  别 剧情 / 惊悚 / 可骇
◎语  言 英语
◎上映日期 2021-04-29(美国收集)
◎IMDb评分 5.3/10 (32243人评价)
◎IMDb链接 https://www.imdb.com/title/tt10962368/
◎豆瓣评分 5.1/10 (2085人评价)
◎豆瓣链接 https://movie.douban.com/subject/34824501/
◎片  长 119分钟
◎导  演 莎里·斯宾厄·伯曼 Shari Springer Berman
       罗伯特·帕西尼 Robert Pulcini
◎编  剧 莎里·斯宾厄·伯曼 Shari Springer Berman
       罗伯特·帕西尼 Robert Pulcini
◎演  员 阿曼达·塞弗里德 Amanda Seyfried
       凯伦·阿兰 Karen Allen
       蕾亚·塞洪 Rhea Seehorn
       娜塔莉·戴尔 Natalia Dyer
       詹姆斯·诺顿 James Norton
       F·默里·亚伯拉罕 F. Murray Abraham
       迈克尔·奥吉弗 Michael O'Keefe
       詹姆斯·乌尔班尼亚克 James Urbaniak
       亚历克斯·诺伊施泰特 Alex Neustaedter
       杰克·戈尔 Jack Gore
       迈克尔·阿伯特 Michael Abbott Jr.
       科特·史姑娘 Cotter Smith
       奥利维娅·博勒姆-温 Olivia Boreham-Wing
       乔伊·奥扎纳 Joey Auzenne
       夏洛特·麦尔 Charlotte Maier
       玛丽恩·麦科里 Marion McCorry
       詹姆斯·海恩义曼 James Hindman
       本·格兰尼 Ben Graney
       露易丝·福特 Louise Ford
◎简  介
  阿曼达·塞弗里德商谈主演Netflix超自然题材惊悚片《所见所闻》(Things Heard & Seen),莎里·斯宾厄·伯曼&罗伯特·帕西尼(《保姆日志》《万圣年月》)自编自导。                                    
                                改编自Elizabeth Brundage所著书籍《All Things Cease to Appear》,气概类似《鬼入侵》,故事围绕着一对年轻佳耦展开,他们搬到纽约北部一个小镇四周的农场居住,而这个新家被前仆人的谋杀罪所诅咒,随着闹鬼的奥秘被揭穿,他们的婚姻也表暴露黑暗面。
  1. Video
  2. ID                                       : 1
  3. Format                                   : HEVC
  4. Format/Info                              : High Efficiency Video Coding
  5. Format profile                           : Main 10@L5@Main
  6. Codec ID                                 : V_MPEGH/ISO/HEVC
  7. Duration                                 : 2 h 1 min
  8. Bit rate                                 : 11.4 Mb/s
  9. Width                                    : 3 840 pixels
  10. Height                                   : 2 160 pixels
  11. Display aspect ratio                     : 16:9
  12. Frame rate mode                          : Constant
  13. Frame rate                               : 23.976 (24000/1001) FPS
  14. Color space                              : YUV
  15. Chroma subsampling                       : 4:2:0
  16. Bit depth                                : 10 bits
  17. Bits/(Pixel*Frame)                       : 0.057
  18. Stream size                              : 9.65 GiB (94%)
  19. Language                                 : English
  20. Default                                  : Yes
  21. Forced                                   : No
  22. Color range                              : Limited
  23. Color primaries                          : BT.709
  24. Transfer characteristics                 : BT.709
  25. Matrix coefficients                      : BT.709
  26. Audio
  27. ID                                       : 2
  28. Format                                   : E-AC-3 JOC
  29. Format/Info                              : Enhanced AC-3 with Joint Object Coding
  30. Commercial name                          : Dolby Digital Plus with Dolby Atmos
  31. Codec ID                                 : A_EAC3
  32. Duration                                 : 2 h 1 min
  33. Bit rate mode                            : Constant
  34. Bit rate                                 : 768 kb/s
  35. Channel(s)                               : 6 channels
  36. Channel layout                           : L R C LFE Ls Rs
  37. Sampling rate                            : 48.0 kHz
  38. Frame rate                               : 31.250 FPS (1536 SPF)
  39. Compression mode                         : Lossy
  40. Stream size                              : 667 MiB (6%)
  41. Language                                 : English
  42. Service kind                             : Complete Main
  43. Default                                  : Yes
  44. Forced                                   : No
  45. Complexity index                         : 16
  46. Number of dynamic objects                : 15
  47. Bed channel count                        : 1 channel
  48. Bed channel configuration                : LFE
  49. Text #1
  50. ID                                       : 3
  51. Format                                   : UTF-8
  52. Codec ID                                 : S_TEXT/UTF8
  53. Codec ID/Info                            : UTF-8 Plain Text
  54. Duration                                 : 1 h 50 min
  55. Bit rate                                 : 56 b/s
  56. Frame rate                               : 0.214 FPS
  57. Count of elements                        : 1421
  58. Stream size                              : 45.8 KiB (0%)
  59. Language                                 : English
  60. Default                                  : No
  61. Forced                                   : No
  62. Text #2
  63. ID                                       : 4
  64. Format                                   : UTF-8
  65. Codec ID                                 : S_TEXT/UTF8
  66. Codec ID/Info                            : UTF-8 Plain Text
  67. Duration                                 : 1 h 57 min
  68. Bit rate                                 : 64 b/s
  69. Frame rate                               : 0.250 FPS
  70. Count of elements                        : 1755
  71. Stream size                              : 55.4 KiB (0%)
  72. Title                                    : SDH
  73. Language                                 : English
  74. Default                                  : No
  75. Forced                                   : No
  76. Text #3
  77. ID                                       : 5
  78. Format                                   : UTF-8
  79. Codec ID                                 : S_TEXT/UTF8
  80. Codec ID/Info                            : UTF-8 Plain Text
  81. Duration                                 : 1 h 59 min
  82. Bit rate                                 : 85 b/s
  83. Frame rate                               : 0.191 FPS
  84. Count of elements                        : 1366
  85. Stream size                              : 74.5 KiB (0%)
  86. Language                                 : Arabic
  87. Default                                  : No
  88. Forced                                   : No
  89. Text #4
  90. ID                                       : 6
  91. Format                                   : UTF-8
  92. Codec ID                                 : S_TEXT/UTF8
  93. Codec ID/Info                            : UTF-8 Plain Text
  94. Duration                                 : 1 h 59 min
  95. Bit rate                                 : 44 b/s
  96. Frame rate                               : 0.186 FPS
  97. Count of elements                        : 1333
  98. Stream size                              : 39.0 KiB (0%)
  99. Language                                 : Czech
  100. Default                                  : No
  101. Forced                                   : No
  102. Text #5
  103. ID                                       : 7
  104. Format                                   : UTF-8
  105. Codec ID                                 : S_TEXT/UTF8
  106. Codec ID/Info                            : UTF-8 Plain Text
  107. Duration                                 : 1 h 59 min
  108. Bit rate                                 : 46 b/s
  109. Frame rate                               : 0.176 FPS
  110. Count of elements                        : 1257
  111. Stream size                              : 40.6 KiB (0%)
  112. Language                                 : Danish
  113. Default                                  : No
  114. Forced                                   : No
  115. Text #6
  116. ID                                       : 8
  117. Format                                   : UTF-8
  118. Codec ID                                 : S_TEXT/UTF8
  119. Codec ID/Info                            : UTF-8 Plain Text
  120. Duration                                 : 1 h 59 min
  121. Bit rate                                 : 48 b/s
  122. Frame rate                               : 0.184 FPS
  123. Count of elements                        : 1320
  124. Stream size                              : 42.8 KiB (0%)
  125. Language                                 : German
  126. Default                                  : No
  127. Forced                                   : No
  128. Text #7
  129. ID                                       : 9
  130. Format                                   : UTF-8
  131. Codec ID                                 : S_TEXT/UTF8
  132. Codec ID/Info                            : UTF-8 Plain Text
  133. Duration                                 : 1 h 59 min
  134. Bit rate                                 : 81 b/s
  135. Frame rate                               : 0.191 FPS
  136. Count of elements                        : 1366
  137. Stream size                              : 71.4 KiB (0%)
  138. Language                                 : Greek
  139. Default                                  : No
  140. Forced                                   : No
  141. Text #8
  142. ID                                       : 10
  143. Format                                   : UTF-8
  144. Codec ID                                 : S_TEXT/UTF8
  145. Codec ID/Info                            : UTF-8 Plain Text
  146. Duration                                 : 1 h 54 min
  147. Bit rate                                 : 50 b/s
  148. Frame rate                               : 0.194 FPS
  149. Count of elements                        : 1331
  150. Stream size                              : 42.1 KiB (0%)
  151. Title                                    : Latin American
  152. Language                                 : Spanish (Latin America)
  153. Default                                  : No
  154. Forced                                   : No
  155. Text #9
  156. ID                                       : 11
  157. Format                                   : UTF-8
  158. Codec ID                                 : S_TEXT/UTF8
  159. Codec ID/Info                            : UTF-8 Plain Text
  160. Duration                                 : 1 h 59 min
  161. Bit rate                                 : 47 b/s
  162. Frame rate                               : 0.186 FPS
  163. Count of elements                        : 1329
  164. Stream size                              : 41.3 KiB (0%)
  165. Language                                 : Spanish (ES)
  166. Default                                  : No
  167. Forced                                   : No
  168. Text #10
  169. ID                                       : 12
  170. Format                                   : UTF-8
  171. Codec ID                                 : S_TEXT/UTF8
  172. Codec ID/Info                            : UTF-8 Plain Text
  173. Duration                                 : 1 h 59 min
  174. Bit rate                                 : 46 b/s
  175. Frame rate                               : 0.169 FPS
  176. Count of elements                        : 1213
  177. Stream size                              : 40.6 KiB (0%)
  178. Language                                 : Finnish
  179. Default                                  : No
  180. Forced                                   : No
  181. Text #11
  182. ID                                       : 13
  183. Format                                   : UTF-8
  184. Codec ID                                 : S_TEXT/UTF8
  185. Codec ID/Info                            : UTF-8 Plain Text
  186. Duration                                 : 1 h 59 min
  187. Bit rate                                 : 51 b/s
  188. Frame rate                               : 0.188 FPS
  189. Count of elements                        : 1343
  190. Stream size                              : 45.4 KiB (0%)
  191. Language                                 : fil
  192. Default                                  : No
  193. Forced                                   : No
  194. Text #12
  195. ID                                       : 14
  196. Format                                   : UTF-8
  197. Codec ID                                 : S_TEXT/UTF8
  198. Codec ID/Info                            : UTF-8 Plain Text
  199. Duration                                 : 1 h 59 min
  200. Bit rate                                 : 47 b/s
  201. Frame rate                               : 0.180 FPS
  202. Count of elements                        : 1292
  203. Stream size                              : 41.3 KiB (0%)
  204. Language                                 : French
  205. Default                                  : No
  206. Forced                                   : No
  207. Text #13
  208. ID                                       : 15
  209. Format                                   : UTF-8
  210. Codec ID                                 : S_TEXT/UTF8
  211. Codec ID/Info                            : UTF-8 Plain Text
  212. Duration                                 : 1 h 59 min
  213. Bit rate                                 : 82 b/s
  214. Frame rate                               : 0.185 FPS
  215. Count of elements                        : 1327
  216. Stream size                              : 72.4 KiB (0%)
  217. Language                                 : Hebrew
  218. Default                                  : No
  219. Forced                                   : No
  220. Text #14
  221. ID                                       : 16
  222. Format                                   : UTF-8
  223. Codec ID                                 : S_TEXT/UTF8
  224. Codec ID/Info                            : UTF-8 Plain Text
  225. Duration                                 : 1 h 59 min
  226. Bit rate                                 : 45 b/s
  227. Frame rate                               : 0.184 FPS
  228. Count of elements                        : 1317
  229. Stream size                              : 39.9 KiB (0%)
  230. Language                                 : Croatian
  231. Default                                  : No
  232. Forced                                   : No
  233. Text #15
  234. ID                                       : 17
  235. Format                                   : UTF-8
  236. Codec ID                                 : S_TEXT/UTF8
  237. Codec ID/Info                            : UTF-8 Plain Text
  238. Duration                                 : 1 h 59 min
  239. Bit rate                                 : 46 b/s
  240. Frame rate                               : 0.177 FPS
  241. Count of elements                        : 1266
  242. Stream size                              : 40.7 KiB (0%)
  243. Language                                 : Hungarian
  244. Default                                  : No
  245. Forced                                   : No
  246. Text #16
  247. ID                                       : 18
  248. Format                                   : UTF-8
  249. Codec ID                                 : S_TEXT/UTF8
  250. Codec ID/Info                            : UTF-8 Plain Text
  251. Duration                                 : 1 h 59 min
  252. Bit rate                                 : 48 b/s
  253. Frame rate                               : 0.190 FPS
  254. Count of elements                        : 1358
  255. Stream size                              : 42.2 KiB (0%)
  256. Language                                 : Indonesian
  257. Default                                  : No
  258. Forced                                   : No
  259. Text #17
  260. ID                                       : 19
  261. Format                                   : UTF-8
  262. Codec ID                                 : S_TEXT/UTF8
  263. Codec ID/Info                            : UTF-8 Plain Text
  264. Duration                                 : 1 h 59 min
  265. Bit rate                                 : 49 b/s
  266. Frame rate                               : 0.180 FPS
  267. Count of elements                        : 1289
  268. Stream size                              : 43.2 KiB (0%)
  269. Language                                 : Italian
  270. Default                                  : No
  271. Forced                                   : No
  272. Text #18
  273. ID                                       : 20
  274. Format                                   : UTF-8
  275. Codec ID                                 : S_TEXT/UTF8
  276. Codec ID/Info                            : UTF-8 Plain Text
  277. Duration                                 : 1 h 59 min
  278. Bit rate                                 : 48 b/s
  279. Frame rate                               : 0.195 FPS
  280. Count of elements                        : 1395
  281. Stream size                              : 42.5 KiB (0%)
  282. Language                                 : Japanese
  283. Default                                  : No
  284. Forced                                   : No
  285. Text #19
  286. ID                                       : 21
  287. Format                                   : UTF-8
  288. Codec ID                                 : S_TEXT/UTF8
  289. Codec ID/Info                            : UTF-8 Plain Text
  290. Duration                                 : 1 h 59 min
  291. Bit rate                                 : 59 b/s
  292. Frame rate                               : 0.198 FPS
  293. Count of elements                        : 1417
  294. Stream size                              : 51.8 KiB (0%)
  295. Language                                 : Korean
  296. Default                                  : No
  297. Forced                                   : No
  298. Text #20
  299. ID                                       : 22
  300. Format                                   : UTF-8
  301. Codec ID                                 : S_TEXT/UTF8
  302. Codec ID/Info                            : UTF-8 Plain Text
  303. Duration                                 : 1 h 59 min
  304. Bit rate                                 : 47 b/s
  305. Frame rate                               : 0.190 FPS
  306. Count of elements                        : 1360
  307. Stream size                              : 41.7 KiB (0%)
  308. Language                                 : Malay
  309. Default                                  : No
  310. Forced                                   : No
  311. Text #21
  312. ID                                       : 23
  313. Format                                   : UTF-8
  314. Codec ID                                 : S_TEXT/UTF8
  315. Codec ID/Info                            : UTF-8 Plain Text
  316. Duration                                 : 1 h 59 min
  317. Bit rate                                 : 46 b/s
  318. Frame rate                               : 0.179 FPS
  319. Count of elements                        : 1285
  320. Stream size                              : 40.8 KiB (0%)
  321. Language                                 : Norwegian Bokmal
  322. Default                                  : No
  323. Forced                                   : No
  324. Text #22
  325. ID                                       : 24
  326. Format                                   : UTF-8
  327. Codec ID                                 : S_TEXT/UTF8
  328. Codec ID/Info                            : UTF-8 Plain Text
  329. Duration                                 : 1 h 53 min
  330. Bit rate                                 : 49 b/s
  331. Frame rate                               : 0.174 FPS
  332. Count of elements                        : 1192
  333. Stream size                              : 41.2 KiB (0%)
  334. Language                                 : Dutch
  335. Default                                  : No
  336. Forced                                   : No
  337. Text #23
  338. ID                                       : 25
  339. Format                                   : UTF-8
  340. Codec ID                                 : S_TEXT/UTF8
  341. Codec ID/Info                            : UTF-8 Plain Text
  342. Duration                                 : 1 h 59 min
  343. Bit rate                                 : 47 b/s
  344. Frame rate                               : 0.192 FPS
  345. Count of elements                        : 1374
  346. Stream size                              : 41.6 KiB (0%)
  347. Language                                 : Polish
  348. Default                                  : No
  349. Forced                                   : No
  350. Text #24
  351. ID                                       : 26
  352. Format                                   : UTF-8
  353. Codec ID                                 : S_TEXT/UTF8
  354. Codec ID/Info                            : UTF-8 Plain Text
  355. Duration                                 : 1 h 59 min
  356. Bit rate                                 : 48 b/s
  357. Frame rate                               : 0.190 FPS
  358. Count of elements                        : 1358
  359. Stream size                              : 42.6 KiB (0%)
  360. Title                                    : Brazilian
  361. Language                                 : Portuguese (BR)
  362. Default                                  : No
  363. Forced                                   : No
  364. Text #25
  365. ID                                       : 27
  366. Format                                   : UTF-8
  367. Codec ID                                 : S_TEXT/UTF8
  368. Codec ID/Info                            : UTF-8 Plain Text
  369. Duration                                 : 1 h 59 min
  370. Bit rate                                 : 49 b/s
  371. Frame rate                               : 0.186 FPS
  372. Count of elements                        : 1329
  373. Stream size                              : 43.0 KiB (0%)
  374. Language                                 : Portuguese (PT)
  375. Default                                  : No
  376. Forced                                   : No
  377. Text #26
  378. ID                                       : 28
  379. Format                                   : UTF-8
  380. Codec ID                                 : S_TEXT/UTF8
  381. Codec ID/Info                            : UTF-8 Plain Text
  382. Duration                                 : 1 h 53 min
  383. Bit rate                                 : 52 b/s
  384. Frame rate                               : 0.188 FPS
  385. Count of elements                        : 1283
  386. Stream size                              : 43.6 KiB (0%)
  387. Language                                 : Romanian
  388. Default                                  : No
  389. Forced                                   : No
  390. Text #27
  391. ID                                       : 29
  392. Format                                   : UTF-8
  393. Codec ID                                 : S_TEXT/UTF8
  394. Codec ID/Info                            : UTF-8 Plain Text
  395. Duration                                 : 1 h 59 min
  396. Bit rate                                 : 82 b/s
  397. Frame rate                               : 0.193 FPS
  398. Count of elements                        : 1379
  399. Stream size                              : 72.1 KiB (0%)
  400. Language                                 : Russian
  401. Default                                  : No
  402. Forced                                   : No
  403. Text #28
  404. ID                                       : 30
  405. Format                                   : UTF-8
  406. Codec ID                                 : S_TEXT/UTF8
  407. Codec ID/Info                            : UTF-8 Plain Text
  408. Duration                                 : 1 h 59 min
  409. Bit rate                                 : 49 b/s
  410. Frame rate                               : 0.178 FPS
  411. Count of elements                        : 1273
  412. Stream size                              : 43.1 KiB (0%)
  413. Language                                 : Swedish
  414. Default                                  : No
  415. Forced                                   : No
  416. Text #29
  417. ID                                       : 31
  418. Format                                   : UTF-8
  419. Codec ID                                 : S_TEXT/UTF8
  420. Codec ID/Info                            : UTF-8 Plain Text
  421. Duration                                 : 1 h 59 min
  422. Bit rate                                 : 121 b/s
  423. Frame rate                               : 0.190 FPS
  424. Count of elements                        : 1364
  425. Stream size                              : 107 KiB (0%)
  426. Language                                 : Thai
  427. Default                                  : No
  428. Forced                                   : No
  429. Text #30
  430. ID                                       : 32
  431. Format                                   : UTF-8
  432. Codec ID                                 : S_TEXT/UTF8
  433. Codec ID/Info                            : UTF-8 Plain Text
  434. Duration                                 : 1 h 59 min
  435. Bit rate                                 : 48 b/s
  436. Frame rate                               : 0.172 FPS
  437. Count of elements                        : 1233
  438. Stream size                              : 42.1 KiB (0%)
  439. Language                                 : Turkish
  440. Default                                  : No
  441. Forced                                   : No
  442. Text #31
  443. ID                                       : 33
  444. Format                                   : UTF-8
  445. Codec ID                                 : S_TEXT/UTF8
  446. Codec ID/Info                            : UTF-8 Plain Text
  447. Duration                                 : 1 h 59 min
  448. Bit rate                                 : 76 b/s
  449. Frame rate                               : 0.191 FPS
  450. Count of elements                        : 1366
  451. Stream size                              : 66.8 KiB (0%)
  452. Language                                 : Ukrainian
  453. Default                                  : No
  454. Forced                                   : No
  455. Text #32
  456. ID                                       : 34
  457. Format                                   : UTF-8
  458. Codec ID                                 : S_TEXT/UTF8
  459. Codec ID/Info                            : UTF-8 Plain Text
  460. Duration                                 : 1 h 59 min
  461. Bit rate                                 : 73 b/s
  462. Frame rate                               : 0.172 FPS
  463. Count of elements                        : 1231
  464. Stream size                              : 64.0 KiB (0%)
  465. Language                                 : Vietnamese
  466. Default                                  : No
  467. Forced                                   : No
  468. Text #33
  469. ID                                       : 35
  470. Format                                   : UTF-8
  471. Codec ID                                 : S_TEXT/UTF8
  472. Codec ID/Info                            : UTF-8 Plain Text
  473. Duration                                 : 1 h 59 min
  474. Bit rate                                 : 53 b/s
  475. Frame rate                               : 0.191 FPS
  476. Count of elements                        : 1366
  477. Stream size                              : 46.6 KiB (0%)
  478. Title                                    : Simplified
  479. Language                                 : Chinese (Simplied)
  480. Default                                  : No
  481. Forced                                   : No
  482. Text #34
  483. ID                                       : 36
  484. Format                                   : UTF-8
  485. Codec ID                                 : S_TEXT/UTF8
  486. Codec ID/Info                            : UTF-8 Plain Text
  487. Duration                                 : 1 h 59 min
  488. Bit rate                                 : 50 b/s
  489. Frame rate                               : 0.191 FPS
  490. Count of elements                        : 1366
  491. Stream size                              : 43.9 KiB (0%)
  492. Title                                    : Traditional
  493. Language                                 : Chinese (Traditional)
  494. Default                                  : No
  495. Forced                                   : No
  496. Menu
  497. 01:54:27.000                             : en:End Credits
复制代码











回复

使用道具 举报

蓝光币
405
发表于 2023-1-3 19:22:50 | 显示全部楼层

既然你诚信诚意的推荐了,那我就勉为其难的看看吧!蓝光电影网不走平凡路。
回复

使用道具 举报

蓝光币
156
发表于 2023-1-6 15:49:37 | 显示全部楼层

这个帖子不回对不起自己!我想我是一天也不能离开蓝光电影网。
回复

使用道具 举报

懒得打字嘛,点击右侧快捷回复 【右侧内容,后台自定义】
您需要登录后才可以回帖 登录 | 立即加入

本版积分规则

Copyright © 2024 Comsenz Inc. Powered by 蓝光电影网

本站内容由用户自主分享和转载自互联网,转载目的在于传递更多信息,并不代表本网赞同其观点和对其真实性负责。

如有侵权、违反国家法律政策行为,请联系我们,我们会第一时间及时清除和处理!

举报反馈邮箱:4k1080.com@gmail.com

快速回复 返回顶部 返回列表