找回密码

查看: 3591|回复: 20

[2160p-WEB] 体坛秘史:AND1的兴衰[中文字幕].Untold.The.Rise.and.Fall.of.AND1.2022.2160p.NF.WEB-DL.x265.10bit.SDR.DDP5.1-COPiUM 8.23GB

[复制链接]
蓝光币
1840
发表于 2023-1-3 03:28:18 | 显示全部楼层 |阅读模式


◎标  题 体坛秘史:AND1的兴衰
◎片  名 Untold: The Rise and Fall of AND1
◎年  代 2022
◎产  地 美国
◎类  别 记载片 / 活动
◎语  言 英语
◎上映日期 2022-08-23(美国)
◎IMDb评分 6.8/10 (2027人评价)
◎IMDb链接 https://www.imdb.com/title/tt21388560/
◎豆瓣评分 7.7/10 (275人评价)
◎豆瓣链接 https://movie.douban.com/subject/36053441/
◎片  长 68分钟
◎导  演 小凯文·威尔逊 Kevin Wilson Jr.
◎简  介
  灵感来自于纽约陌头篮球的品牌AND1曾颇具影响力,让当地街球传奇人物成为了国际巨星·,但它为什么会走向虚弱呢?
  1. Video
  2. ID                                       : 1
  3. Format                                   : HEVC
  4. Format/Info                              : High Efficiency Video Coding
  5. Format profile                           : Main 10@L5@Main
  6. Codec ID                                 : V_MPEGH/ISO/HEVC
  7. Duration                                 : 1 h 9 min
  8. Bit rate                                 : 16.4 Mb/s
  9. Width                                    : 3 840 pixels
  10. Height                                   : 2 160 pixels
  11. Display aspect ratio                     : 16:9
  12. Frame rate mode                          : Constant
  13. Frame rate                               : 23.976 (24000/1001) FPS
  14. Color space                              : YUV
  15. Chroma subsampling                       : 4:2:0
  16. Bit depth                                : 10 bits
  17. Bits/(Pixel*Frame)                       : 0.082
  18. Stream size                              : 7.91 GiB (96%)
  19. Language                                 : English
  20. Default                                  : Yes
  21. Forced                                   : No
  22. Color range                              : Limited
  23. Color primaries                          : BT.709
  24. Transfer characteristics                 : BT.709
  25. Matrix coefficients                      : BT.709
  26. Audio
  27. ID                                       : 2
  28. Format                                   : E-AC-3
  29. Format/Info                              : Enhanced AC-3
  30. Commercial name                          : Dolby Digital Plus
  31. Codec ID                                 : A_EAC3
  32. Duration                                 : 1 h 9 min
  33. Bit rate mode                            : Constant
  34. Bit rate                                 : 640 kb/s
  35. Channel(s)                               : 6 channels
  36. Channel layout                           : L R C LFE Ls Rs
  37. Sampling rate                            : 48.0 kHz
  38. Frame rate                               : 31.250 FPS (1536 SPF)
  39. Compression mode                         : Lossy
  40. Stream size                              : 317 MiB (4%)
  41. Language                                 : English
  42. Service kind                             : Complete Main
  43. Default                                  : Yes
  44. Forced                                   : No
  45. Text #1
  46. ID                                       : 3
  47. Format                                   : UTF-8
  48. Codec ID                                 : S_TEXT/UTF8
  49. Codec ID/Info                            : UTF-8 Plain Text
  50. Duration                                 : 1 h 3 min
  51. Bit rate                                 : 10 b/s
  52. Frame rate                               : 0.030 FPS
  53. Count of elements                        : 116
  54. Stream size                              : 4.91 KiB (0%)
  55. Title                                    : Forced
  56. Language                                 : English
  57. Default                                  : Yes
  58. Forced                                   : Yes
  59. Text #2
  60. ID                                       : 4
  61. Format                                   : UTF-8
  62. Codec ID                                 : S_TEXT/UTF8
  63. Codec ID/Info                            : UTF-8 Plain Text
  64. Duration                                 : 1 h 5 min
  65. Bit rate                                 : 99 b/s
  66. Frame rate                               : 0.282 FPS
  67. Count of elements                        : 1113
  68. Stream size                              : 48.0 KiB (0%)
  69. Language                                 : English
  70. Default                                  : No
  71. Forced                                   : No
  72. Text #3
  73. ID                                       : 5
  74. Format                                   : UTF-8
  75. Codec ID                                 : S_TEXT/UTF8
  76. Codec ID/Info                            : UTF-8 Plain Text
  77. Duration                                 : 1 h 5 min
  78. Bit rate                                 : 112 b/s
  79. Frame rate                               : 0.325 FPS
  80. Count of elements                        : 1286
  81. Stream size                              : 54.4 KiB (0%)
  82. Title                                    : SDH
  83. Language                                 : English
  84. Default                                  : No
  85. Forced                                   : No
  86. Text #4
  87. ID                                       : 6
  88. Format                                   : UTF-8
  89. Codec ID                                 : S_TEXT/UTF8
  90. Codec ID/Info                            : UTF-8 Plain Text
  91. Duration                                 : 1 h 8 min
  92. Bit rate                                 : 150 b/s
  93. Frame rate                               : 0.281 FPS
  94. Count of elements                        : 1147
  95. Stream size                              : 75.1 KiB (0%)
  96. Language                                 : Arabic
  97. Default                                  : No
  98. Forced                                   : No
  99. Text #5
  100. ID                                       : 7
  101. Format                                   : UTF-8
  102. Codec ID                                 : S_TEXT/UTF8
  103. Codec ID/Info                            : UTF-8 Plain Text
  104. Duration                                 : 1 h 8 min
  105. Bit rate                                 : 85 b/s
  106. Frame rate                               : 0.255 FPS
  107. Count of elements                        : 1041
  108. Stream size                              : 42.6 KiB (0%)
  109. Language                                 : Czech
  110. Default                                  : No
  111. Forced                                   : No
  112. Text #6
  113. ID                                       : 8
  114. Format                                   : UTF-8
  115. Codec ID                                 : S_TEXT/UTF8
  116. Codec ID/Info                            : UTF-8 Plain Text
  117. Duration                                 : 1 h 8 min
  118. Bit rate                                 : 79 b/s
  119. Frame rate                               : 0.244 FPS
  120. Count of elements                        : 996
  121. Stream size                              : 39.7 KiB (0%)
  122. Language                                 : Danish
  123. Default                                  : No
  124. Forced                                   : No
  125. Text #7
  126. ID                                       : 9
  127. Format                                   : UTF-8
  128. Codec ID                                 : S_TEXT/UTF8
  129. Codec ID/Info                            : UTF-8 Plain Text
  130. Duration                                 : 1 h 8 min
  131. Bit rate                                 : 80 b/s
  132. Frame rate                               : 0.257 FPS
  133. Count of elements                        : 1050
  134. Stream size                              : 40.1 KiB (0%)
  135. Language                                 : German
  136. Default                                  : No
  137. Forced                                   : No
  138. Text #8
  139. ID                                       : 10
  140. Format                                   : UTF-8
  141. Codec ID                                 : S_TEXT/UTF8
  142. Codec ID/Info                            : UTF-8 Plain Text
  143. Duration                                 : 1 h 8 min
  144. Bit rate                                 : 137 b/s
  145. Frame rate                               : 0.274 FPS
  146. Count of elements                        : 1119
  147. Stream size                              : 68.6 KiB (0%)
  148. Language                                 : Greek
  149. Default                                  : No
  150. Forced                                   : No
  151. Text #9
  152. ID                                       : 11
  153. Format                                   : UTF-8
  154. Codec ID                                 : S_TEXT/UTF8
  155. Codec ID/Info                            : UTF-8 Plain Text
  156. Duration                                 : 1 h 8 min
  157. Bit rate                                 : 80 b/s
  158. Frame rate                               : 0.263 FPS
  159. Count of elements                        : 1074
  160. Stream size                              : 40.3 KiB (0%)
  161. Title                                    : Latin American
  162. Language                                 : Spanish (Latin America)
  163. Default                                  : No
  164. Forced                                   : No
  165. Text #10
  166. ID                                       : 12
  167. Format                                   : UTF-8
  168. Codec ID                                 : S_TEXT/UTF8
  169. Codec ID/Info                            : UTF-8 Plain Text
  170. Duration                                 : 1 h 8 min
  171. Bit rate                                 : 77 b/s
  172. Frame rate                               : 0.302 FPS
  173. Count of elements                        : 1235
  174. Stream size                              : 38.6 KiB (0%)
  175. Language                                 : Spanish (ES)
  176. Default                                  : No
  177. Forced                                   : No
  178. Text #11
  179. ID                                       : 13
  180. Format                                   : UTF-8
  181. Codec ID                                 : S_TEXT/UTF8
  182. Codec ID/Info                            : UTF-8 Plain Text
  183. Duration                                 : 1 h 8 min
  184. Bit rate                                 : 79 b/s
  185. Frame rate                               : 0.228 FPS
  186. Count of elements                        : 931
  187. Stream size                              : 39.5 KiB (0%)
  188. Language                                 : Finnish
  189. Default                                  : No
  190. Forced                                   : No
  191. Text #12
  192. ID                                       : 14
  193. Format                                   : UTF-8
  194. Codec ID                                 : S_TEXT/UTF8
  195. Codec ID/Info                            : UTF-8 Plain Text
  196. Duration                                 : 1 h 8 min
  197. Bit rate                                 : 84 b/s
  198. Frame rate                               : 0.270 FPS
  199. Count of elements                        : 1105
  200. Stream size                              : 42.3 KiB (0%)
  201. Language                                 : French
  202. Default                                  : No
  203. Forced                                   : No
  204. Text #13
  205. ID                                       : 15
  206. Format                                   : UTF-8
  207. Codec ID                                 : S_TEXT/UTF8
  208. Codec ID/Info                            : UTF-8 Plain Text
  209. Duration                                 : 1 h 8 min
  210. Bit rate                                 : 141 b/s
  211. Frame rate                               : 0.260 FPS
  212. Count of elements                        : 1062
  213. Stream size                              : 70.6 KiB (0%)
  214. Language                                 : Hebrew
  215. Default                                  : No
  216. Forced                                   : No
  217. Text #14
  218. ID                                       : 16
  219. Format                                   : UTF-8
  220. Codec ID                                 : S_TEXT/UTF8
  221. Codec ID/Info                            : UTF-8 Plain Text
  222. Duration                                 : 1 h 8 min
  223. Bit rate                                 : 86 b/s
  224. Frame rate                               : 0.271 FPS
  225. Count of elements                        : 1106
  226. Stream size                              : 43.1 KiB (0%)
  227. Language                                 : Croatian
  228. Default                                  : No
  229. Forced                                   : No
  230. Text #15
  231. ID                                       : 17
  232. Format                                   : UTF-8
  233. Codec ID                                 : S_TEXT/UTF8
  234. Codec ID/Info                            : UTF-8 Plain Text
  235. Duration                                 : 1 h 8 min
  236. Bit rate                                 : 92 b/s
  237. Frame rate                               : 0.240 FPS
  238. Count of elements                        : 982
  239. Stream size                              : 46.1 KiB (0%)
  240. Language                                 : Hungarian
  241. Default                                  : No
  242. Forced                                   : No
  243. Text #16
  244. ID                                       : 18
  245. Format                                   : UTF-8
  246. Codec ID                                 : S_TEXT/UTF8
  247. Codec ID/Info                            : UTF-8 Plain Text
  248. Duration                                 : 1 h 8 min
  249. Bit rate                                 : 88 b/s
  250. Frame rate                               : 0.272 FPS
  251. Count of elements                        : 1111
  252. Stream size                              : 44.4 KiB (0%)
  253. Language                                 : Indonesian
  254. Default                                  : No
  255. Forced                                   : No
  256. Text #17
  257. ID                                       : 19
  258. Format                                   : UTF-8
  259. Codec ID                                 : S_TEXT/UTF8
  260. Codec ID/Info                            : UTF-8 Plain Text
  261. Duration                                 : 1 h 7 min
  262. Bit rate                                 : 81 b/s
  263. Frame rate                               : 0.259 FPS
  264. Count of elements                        : 1055
  265. Stream size                              : 40.7 KiB (0%)
  266. Language                                 : Italian
  267. Default                                  : No
  268. Forced                                   : No
  269. Text #18
  270. ID                                       : 20
  271. Format                                   : UTF-8
  272. Codec ID                                 : S_TEXT/UTF8
  273. Codec ID/Info                            : UTF-8 Plain Text
  274. Duration                                 : 1 h 8 min
  275. Bit rate                                 : 102 b/s
  276. Frame rate                               : 0.270 FPS
  277. Count of elements                        : 1104
  278. Stream size                              : 51.1 KiB (0%)
  279. Language                                 : Japanese
  280. Default                                  : No
  281. Forced                                   : No
  282. Text #19
  283. ID                                       : 21
  284. Format                                   : UTF-8
  285. Codec ID                                 : S_TEXT/UTF8
  286. Codec ID/Info                            : UTF-8 Plain Text
  287. Duration                                 : 1 h 8 min
  288. Bit rate                                 : 117 b/s
  289. Frame rate                               : 0.286 FPS
  290. Count of elements                        : 1166
  291. Stream size                              : 58.7 KiB (0%)
  292. Language                                 : Korean
  293. Default                                  : No
  294. Forced                                   : No
  295. Text #20
  296. ID                                       : 22
  297. Format                                   : UTF-8
  298. Codec ID                                 : S_TEXT/UTF8
  299. Codec ID/Info                            : UTF-8 Plain Text
  300. Duration                                 : 1 h 8 min
  301. Bit rate                                 : 77 b/s
  302. Frame rate                               : 0.265 FPS
  303. Count of elements                        : 1083
  304. Stream size                              : 38.6 KiB (0%)
  305. Language                                 : Malay
  306. Default                                  : No
  307. Forced                                   : No
  308. Text #21
  309. ID                                       : 23
  310. Format                                   : UTF-8
  311. Codec ID                                 : S_TEXT/UTF8
  312. Codec ID/Info                            : UTF-8 Plain Text
  313. Duration                                 : 1 h 8 min
  314. Bit rate                                 : 80 b/s
  315. Frame rate                               : 0.221 FPS
  316. Count of elements                        : 901
  317. Stream size                              : 40.0 KiB (0%)
  318. Language                                 : Norwegian Bokmal
  319. Default                                  : No
  320. Forced                                   : No
  321. Text #22
  322. ID                                       : 24
  323. Format                                   : UTF-8
  324. Codec ID                                 : S_TEXT/UTF8
  325. Codec ID/Info                            : UTF-8 Plain Text
  326. Duration                                 : 1 h 8 min
  327. Bit rate                                 : 71 b/s
  328. Frame rate                               : 0.240 FPS
  329. Count of elements                        : 982
  330. Stream size                              : 35.9 KiB (0%)
  331. Language                                 : Dutch
  332. Default                                  : No
  333. Forced                                   : No
  334. Text #23
  335. ID                                       : 25
  336. Format                                   : UTF-8
  337. Codec ID                                 : S_TEXT/UTF8
  338. Codec ID/Info                            : UTF-8 Plain Text
  339. Duration                                 : 1 h 8 min
  340. Bit rate                                 : 79 b/s
  341. Frame rate                               : 0.269 FPS
  342. Count of elements                        : 1099
  343. Stream size                              : 39.5 KiB (0%)
  344. Language                                 : Polish
  345. Default                                  : No
  346. Forced                                   : No
  347. Text #24
  348. ID                                       : 26
  349. Format                                   : UTF-8
  350. Codec ID                                 : S_TEXT/UTF8
  351. Codec ID/Info                            : UTF-8 Plain Text
  352. Duration                                 : 1 h 8 min
  353. Bit rate                                 : 84 b/s
  354. Frame rate                               : 0.275 FPS
  355. Count of elements                        : 1124
  356. Stream size                              : 42.4 KiB (0%)
  357. Title                                    : Brazilian
  358. Language                                 : Portuguese (BR)
  359. Default                                  : No
  360. Forced                                   : No
  361. Text #25
  362. ID                                       : 27
  363. Format                                   : UTF-8
  364. Codec ID                                 : S_TEXT/UTF8
  365. Codec ID/Info                            : UTF-8 Plain Text
  366. Duration                                 : 1 h 8 min
  367. Bit rate                                 : 86 b/s
  368. Frame rate                               : 0.255 FPS
  369. Count of elements                        : 1041
  370. Stream size                              : 42.9 KiB (0%)
  371. Language                                 : Portuguese (PT)
  372. Default                                  : No
  373. Forced                                   : No
  374. Text #26
  375. ID                                       : 28
  376. Format                                   : UTF-8
  377. Codec ID                                 : S_TEXT/UTF8
  378. Codec ID/Info                            : UTF-8 Plain Text
  379. Duration                                 : 1 h 8 min
  380. Bit rate                                 : 98 b/s
  381. Frame rate                               : 0.265 FPS
  382. Count of elements                        : 1085
  383. Stream size                              : 49.2 KiB (0%)
  384. Language                                 : Romanian
  385. Default                                  : No
  386. Forced                                   : No
  387. Text #27
  388. ID                                       : 29
  389. Format                                   : UTF-8
  390. Codec ID                                 : S_TEXT/UTF8
  391. Codec ID/Info                            : UTF-8 Plain Text
  392. Duration                                 : 1 h 8 min
  393. Bit rate                                 : 132 b/s
  394. Frame rate                               : 0.276 FPS
  395. Count of elements                        : 1129
  396. Stream size                              : 66.2 KiB (0%)
  397. Language                                 : Russian
  398. Default                                  : No
  399. Forced                                   : No
  400. Text #28
  401. ID                                       : 30
  402. Format                                   : UTF-8
  403. Codec ID                                 : S_TEXT/UTF8
  404. Codec ID/Info                            : UTF-8 Plain Text
  405. Duration                                 : 1 h 8 min
  406. Bit rate                                 : 87 b/s
  407. Frame rate                               : 0.270 FPS
  408. Count of elements                        : 1102
  409. Stream size                              : 43.9 KiB (0%)
  410. Language                                 : Swedish
  411. Default                                  : No
  412. Forced                                   : No
  413. Text #29
  414. ID                                       : 31
  415. Format                                   : UTF-8
  416. Codec ID                                 : S_TEXT/UTF8
  417. Codec ID/Info                            : UTF-8 Plain Text
  418. Duration                                 : 1 h 8 min
  419. Bit rate                                 : 219 b/s
  420. Frame rate                               : 0.283 FPS
  421. Count of elements                        : 1155
  422. Stream size                              : 109 KiB (0%)
  423. Language                                 : Thai
  424. Default                                  : No
  425. Forced                                   : No
  426. Text #30
  427. ID                                       : 32
  428. Format                                   : UTF-8
  429. Codec ID                                 : S_TEXT/UTF8
  430. Codec ID/Info                            : UTF-8 Plain Text
  431. Duration                                 : 1 h 8 min
  432. Bit rate                                 : 84 b/s
  433. Frame rate                               : 0.270 FPS
  434. Count of elements                        : 1103
  435. Stream size                              : 42.0 KiB (0%)
  436. Language                                 : Turkish
  437. Default                                  : No
  438. Forced                                   : No
  439. Text #31
  440. ID                                       : 33
  441. Format                                   : UTF-8
  442. Codec ID                                 : S_TEXT/UTF8
  443. Codec ID/Info                            : UTF-8 Plain Text
  444. Duration                                 : 1 h 8 min
  445. Bit rate                                 : 146 b/s
  446. Frame rate                               : 0.278 FPS
  447. Count of elements                        : 1138
  448. Stream size                              : 73.3 KiB (0%)
  449. Language                                 : Ukrainian
  450. Default                                  : No
  451. Forced                                   : No
  452. Text #32
  453. ID                                       : 34
  454. Format                                   : UTF-8
  455. Codec ID                                 : S_TEXT/UTF8
  456. Codec ID/Info                            : UTF-8 Plain Text
  457. Duration                                 : 1 h 8 min
  458. Bit rate                                 : 120 b/s
  459. Frame rate                               : 0.269 FPS
  460. Count of elements                        : 1101
  461. Stream size                              : 60.3 KiB (0%)
  462. Language                                 : Vietnamese
  463. Default                                  : No
  464. Forced                                   : No
  465. Text #33
  466. ID                                       : 35
  467. Format                                   : UTF-8
  468. Codec ID                                 : S_TEXT/UTF8
  469. Codec ID/Info                            : UTF-8 Plain Text
  470. Duration                                 : 1 h 8 min
  471. Bit rate                                 : 94 b/s
  472. Frame rate                               : 0.275 FPS
  473. Count of elements                        : 1126
  474. Stream size                              : 47.0 KiB (0%)
  475. Title                                    : Simplified
  476. Language                                 : Chinese (Simplied)
  477. Default                                  : No
  478. Forced                                   : No
  479. Text #34
  480. ID                                       : 36
  481. Format                                   : UTF-8
  482. Codec ID                                 : S_TEXT/UTF8
  483. Codec ID/Info                            : UTF-8 Plain Text
  484. Duration                                 : 1 h 8 min
  485. Bit rate                                 : 86 b/s
  486. Frame rate                               : 0.270 FPS
  487. Count of elements                        : 1104
  488. Stream size                              : 43.2 KiB (0%)
  489. Title                                    : Traditional
  490. Language                                 : Chinese (Traditional)
  491. Default                                  : No
  492. Forced                                   : No
  493. Menu
  494. 01:04:56.000                             : en:End Credits
复制代码











回复

使用道具 举报

蓝光币
281
发表于 2023-1-3 12:52:04 | 显示全部楼层

楼主太厉害了!楼主,电影应该很好看我觉得蓝光电影网真是个好地方!
回复 1 0

使用道具 举报

蓝光币
223
发表于 2023-1-3 09:21:07 | 显示全部楼层

楼主太厉害了!楼主,电影应该很好看我觉得蓝光电影网真是个好地方!
回复

使用道具 举报

蓝光币
156
发表于 2023-1-3 13:12:09 | 显示全部楼层

楼主太厉害了!楼主,电影应该很好看我觉得蓝光电影网真是个好地方!
回复

使用道具 举报

蓝光币
365
发表于 2023-1-3 17:00:22 | 显示全部楼层


楼主太厉害了!楼主,电影应该很好看我觉得蓝光电影网真是个好地方
回复

使用道具 举报

蓝光币
383
发表于 2023-1-4 13:18:41 | 显示全部楼层
不错,非常可以
回复

使用道具 举报

蓝光币
22
发表于 2023-1-4 13:20:43 | 显示全部楼层
楼主发贴辛苦了,谢谢楼主分享!我觉得蓝光电影网是注册对了!
回复

使用道具 举报

蓝光币
281
发表于 2023-1-4 13:30:36 | 显示全部楼层

楼主太厉害了!楼主,电影应该很好看我觉得蓝光电影网真是个好地方!
回复

使用道具 举报

蓝光币
273
发表于 2023-1-4 13:54:17 | 显示全部楼层
不错,谢谢
回复

使用道具 举报

蓝光币
357
发表于 2023-1-4 17:03:52 | 显示全部楼层

~ 珍惜+支持 ~
回复

使用道具 举报

懒得打字嘛,点击右侧快捷回复 【右侧内容,后台自定义】
您需要登录后才可以回帖 登录 | 立即加入

本版积分规则

Copyright © 2024 Comsenz Inc. Powered by 蓝光电影网

本站内容由用户自主分享和转载自互联网,转载目的在于传递更多信息,并不代表本网赞同其观点和对其真实性负责。

如有侵权、违反国家法律政策行为,请联系我们,我们会第一时间及时清除和处理!

举报反馈邮箱:4k1080.com@gmail.com

快速回复 返回顶部 返回列表