找回密码

查看: 2330|回复: 2

少年歌行[第一季完结]Great.Journey.of.Teenagers.2018.S01.WEB-DL.4K.HEVC.AAC-PT5205 17.51GB

[复制链接]
蓝光币
1848
发表于 2023-1-3 21:24:45 | 显示全部楼层 |阅读模式
少年歌行[第一季结束]Great.Journey.of.Teenagers.2018.S01.WEB-DL.4K.HEVC.AAC-PT5205 17.51GB-1.jpg

◎译  名 Youths and Golden Coffin
◎片  名 少年歌行
◎年  代 2018
◎产  地 中国大陆
◎类  别 动画 / 奇异 / 古装
◎语  言 汉语普通话
◎上映日期 2018-12-26(中国大陆)
◎豆瓣评星 ★★★★✦
◎豆瓣评分 8.5/10 from 30,319 users
◎豆瓣链接 https://movie.douban.com/subject/30345127/
◎单集片长 24分钟
◎集  数 26
◎导  演 陈升垚 / Shengyao Chen
◎演  员 张博恒 / Boheng Zhang | 配 雷无桀
      赵毅 / Yi Zhao | 配 萧瑟/冥侯/忘忧
      张杰 / Jie Zhang | 配 无意
      杨婧 / Jing Yang | 配 月姬 / 伯庸
      魏超 / Chao Wei | 配 唐莲 / 持刀武僧
      姚雷 / Lei Yao | 配 鹤发仙 / 王人孙
      褚珺 / Jun Chu | 配 司空千落/无双
      齐斯伽 / Sijia Qi | 配 卢玉翟 / 无禅
      申秋香 / Qiuxiang Shen | 配 天女蕊 / 灵均
      苏俣 / Yu Su
      陈光 / Guang Chen
      马程 / Cheng Ma
      李璐 / Lu Li
◎编  剧 陈升垚 / Shengyao Chen
      周木楠 / Munan Zhou
      郭勇 / Guo Yong
◎制  片  人 龚宇 / Yu Gong
      李旎 / Ni Li
      郭勇 / Guo Yong
◎副  导  演 褚珺 / Jun Chu
      赵毅 / Yi Zhao

◎简  介 

  寒水寺忘忧大师坐化后,一口奥秘的黄金棺材出世,掀起江湖纷争。各方势力针锋相对,雷无桀、萧瑟、唐莲、司空千落、天女蕊等相继卷入争端,一场围绕黄金棺材的故事行将上演。 策马江湖梦,倚剑踏歌行。 黄金棺材的奥秘,逐步显现……
  1. Video
  2. ID             : 1
  3. Format           : HEVC
  4. Format/Info         : High Efficiency Video Coding
  5. Format profile       : Main @L5 @Main
  6. Codec ID          : hev1
  7. Codec ID/Info        : High Efficiency Video Coding
  8. Duration          : 23 min 13 s
  9. Bit rate          : 4 284 kb/s
  10. Width            : 3 840 pixels
  11. Height           : 2 160 pixels
  12. Display aspect ratio    : 16:9
  13. Frame rate mode       : Constant
  14. Frame rate         : 25.000 FPS
  15. Color space         : YUV
  16. Chroma subsampling     : 4:2:0
  17. Bit depth          : 8 bits
  18. Bits/(Pixel*Frame)     : 0.021
  19. Stream size         : 712 MiB (97%)
  20. Codec configuration box   : hvcC
  21. Audio
  22. ID             : 2
  23. Format           : AAC LC
  24. Format/Info         : Advanced Audio Codec Low Complexity
  25. Codec ID          : mp4a-40-2
  26. Duration          : 23 min 13 s
  27. Bit rate mode        : Variable
  28. Bit rate          : 125 kb/s
  29. Maximum bit rate      : 128 kb/s / 128 kb/s
  30. Channel(s)         : 2 channels
  31. Channel layout       : L R
  32. Sampling rate        : 44.1 kHz
  33. Frame rate         : 43.066 FPS (1024 SPF)
  34. Compression mode      : Lossy
  35. Stream size         : 20.7 MiB (3%)
  36. Default           : Yes
  37. Alternate group       : 1
复制代码











回复

使用道具 举报

蓝光币
420
发表于 2023-7-29 10:22:06 | 显示全部楼层

论坛不能没有像楼主这样的人才啊!我会一直支持蓝光电影网。
回复

使用道具 举报

蓝光币
258
发表于 2024-2-23 21:00:35 | 显示全部楼层
楼主发贴辛苦了,谢谢楼主分享!我觉得蓝光电影网是注册对了!
回复

使用道具 举报

懒得打字嘛,点击右侧快捷回复 【右侧内容,后台自定义】
您需要登录后才可以回帖 登录 | 立即加入

本版积分规则

Copyright © 2024 Comsenz Inc. Powered by 蓝光电影网

本站内容由用户自主分享和转载自互联网,转载目的在于传递更多信息,并不代表本网赞同其观点和对其真实性负责。

如有侵权、违反国家法律政策行为,请联系我们,我们会第一时间及时清除和处理!

举报反馈邮箱:4k1080.com@gmail.com

快速回复 返回顶部 返回列表