找回密码

查看: 1407|回复: 0

[2160p] 黑亚当.Black.Adam.2022.2160p.UHD.BluRay.x265.10bit.HDR.TrueHD.7.1.Atmos-B0MBARDiERS 22.34GB

[复制链接]
蓝光币
1840
发表于 2023-1-6 18:10:55 | 显示全部楼层 |阅读模式


◎标  题 黑亚当
◎译  名 轰隆亚当
◎片  名 Black Adam
◎年  代 2022
◎产  地 美国 / 加拿大 / 新西兰 / 匈牙利
◎类  别 行动 / 科幻 / 奇异 / 冒险
◎语  言 英语
◎上映日期 2022-10-19(法国) / 2022-10-21(美国)
◎IMDb评分 6.5/10 (194940人评价)
◎IMDb链接 https://www.imdb.com/title/tt6443346/
◎豆瓣评分 5.7/10 (60354人评价)
◎豆瓣链接 https://movie.douban.com/subject/26959697/
◎片  长 125分钟
◎导  演 佐米·希尔拉 Jaume Collet-Serra
◎编  剧 亚当·希泰凯尔 Adam Sztykiel
       罗里·海恩斯 Rory Haines
       苏哈·诺什瓦尼 Sohrab Noshirvani
       比尔·帕克 Bill Parker
       C·C·贝克 C.C. Beck
       奥托·班德 Otto Binder
◎演  员 道恩·强森 Dwayne Johnson
       阿尔迪斯·霍吉 Aldis Hodge
       皮尔斯·布鲁斯南 Pierce Brosnan
       诺亚·琴蒂内奥 Noah Centineo
       莎拉·夏希 Sarah Shahi
       昆泰莎·斯文戴尔 Quintessa Swindell
       马尔万·肯扎里 Marwan Kenzari
       博德希·萨邦圭 Bodhi Sabongui
       穆罕默德·阿米尔 Mohammed Amer
       詹姆斯·卡萨蒂-莫耶尔 James Cusati-Moyer
       哈隆·克里斯蒂安 Jalon Christian
       本杰明·帕特森 Benjamin Patterson
       奥德娅·哈尔维 Odelya Halevi
       乌利·拉图基孚 Uli Latukefu
       詹尼佛·霍兰德 Jennifer Holland
       亨利·温克勒 Henry Winkler
       哈伊姆·吉拉菲 Chaim Jeraffi
       杰曼·翰苏 Djimon Hounsou
       桑娜·海恩斯 Sanna Haynes
       托内亚·斯图尔特 Tonea Stewart
       帕特里克·萨邦圭 Patrick Sabongui
       约瑟夫·盖特 Joseph Gatt
       杰梅因·里弗斯 Jermaine Rivers
       里贾纳·陈婷 Regina Ting Chen
       卡梅隆·莫伊尔 Cameron Moir
       德里克·罗素 Derek Russo
       小安杰尔·罗萨里奥 Angel Rosario Jr.
       克里斯托弗·马修·库克 Christopher Matthew Cook
       娜塔莉·伯恩 Natalie Burn
       亨利·卡维尔 Henry Cavill
       维奥拉·戴维斯 Viola Davis
       施奎塔·詹姆斯 Shiquita James
       拉希姆·赖利 Rahiem Riley
       海拉姆·加西亚 Hiram Garcia
       道恩·强森 Dwayne Johnson
       达妮·加西亚 Dany Garcia
       托比·艾默里奇 Toby Emmerich
       沃尔特·滨田 Walter Hamada
       乔夫·琼斯 Geoff Johns
       艾瑞克·麦克勒德 Eric McLeod
       洛内·巴尔菲 Lorne Balfe
       劳伦斯·谢尔 Lawrence Sher
       汤姆·迈耶 Tom Meyer
       Kevin Gilbert Kevin Gilbert
       库尔特和巴尔特 Kurt and Bart
◎简  介
  这个天下需要超级豪杰…… 黑亚当来临。                                    
                                黑亚当(道恩·强森 饰)被赋予了现代诸神无所事事的气力,但很快就被封印。近五千年后,他终究重见天日,并将在现代天下以唯一无二的方式利用正义。
  1. Video
  2. ID                                       : 1
  3. Format                                   : HEVC
  4. Format/Info                              : High Efficiency Video Coding
  5. Format profile                           : Main 10@L5.1@High
  6. HDR format                               : Dolby Vision, Version 1.0, dvhe.08.06, BL+RPU, HDR10 compatible / SMPTE ST 2086, HDR10 compatible
  7. Codec ID                                 : V_MPEGH/ISO/HEVC
  8. Duration                                 : 2 h 4 min
  9. Bit rate                                 : 21.5 Mb/s
  10. Width                                    : 3 840 pixels
  11. Height                                   : 1 608 pixels
  12. Display aspect ratio                     : 2.40:1
  13. Frame rate mode                          : Constant
  14. Frame rate                               : 23.976 (24000/1001) FPS
  15. Color space                              : YUV
  16. Chroma subsampling                       : 4:2:0 (Type 2)
  17. Bit depth                                : 10 bits
  18. Bits/(Pixel*Frame)                       : 0.145
  19. Stream size                              : 18.8 GiB (84%)
  20. Writing library                          : x265 3.5+70-4da1198a9:[Windows][GCC 12.2.0][64 bit] 10bit
  21. Encoding settings                        : cpuid=1176575 / frame-threads=5 / numa-pools=36 / wpp / no-pmode / no-pme / no-psnr / no-ssim / log-level=2 / input-csp=1 / input-res=3840x1608 / interlace=0 / total-frames=179637 / level-idc=51 / high-tier=1 / uhd-bd=0 / ref=4 / no-allow-non-conformance / repeat-headers / annexb / aud / no-eob / no-eos / hrd / info / hash=0 / no-temporal-layers / open-gop / min-keyint=23 / keyint=250 / gop-lookahead=0 / bframes=4 / b-adapt=2 / b-pyramid / bframe-bias=0 / rc-lookahead=25 / lookahead-slices=4 / scenecut=40 / no-hist-scenecut / radl=0 / no-splice / no-intra-refresh / ctu=64 / min-cu-size=8 / rect / no-amp / max-tu-size=32 / tu-inter-depth=1 / tu-intra-depth=1 / limit-tu=0 / rdoq-level=2 / dynamic-rd=0.00 / no-ssim-rd / signhide / no-tskip / nr-intra=0 / nr-inter=0 / no-constrained-intra / strong-intra-smoothing / max-merge=3 / limit-refs=3 / limit-modes / me=3 / subme=3 / merange=57 / temporal-mvp / no-frame-dup / no-hme / weightp / no-weightb / no-analyze-src-pics / deblock=-3:-3 / no-sao / no-sao-non-deblock / rd=4 / selective-sao=0 / no-early-skip / rskip / no-fast-intra / no-tskip-fast / no-cu-lossless / no-b-intra / no-splitrd-skip / rdpenalty=0 / psy-rd=2.00 / psy-rdoq=1.00 / no-rd-refine / no-lossless / cbqpoffs=0 / crqpoffs=0 / rc=crf / crf=13.0 / qcomp=0.60 / qpstep=4 / stats-write=0 / stats-read=0 / vbv-maxrate=160000 / vbv-bufsize=160000 / vbv-init=0.9 / min-vbv-fullness=50.0 / max-vbv-fullness=80.0 / crf-max=0.0 / crf-min=0.0 / ipratio=1.40 / pbratio=1.30 / aq-mode=2 / aq-strength=1.00 / cutree / zone-count=0 / no-strict-cbr / qg-size=32 / no-rc-grain / qpmax=69 / qpmin=0 / no-const-vbv / sar=1 / overscan=0 / videoformat=5 / range=0 / colorprim=9 / transfer=16 / colormatrix=9 / chromaloc=1 / chromaloc-top=2 / chromaloc-bottom=2 / display-window=0 / master-display=G(13250,34500)B(7500,3000)R(34000,16000)WP(15635,16450)L(10000000,1) / cll=718,301 / min-luma=0 / max-luma=1023 / log2-max-poc-lsb=8 / vui-timing-info / vui-hrd-info / slices=1 / no-opt-qp-pps / no-opt-ref-list-length-pps / no-multi-pass-opt-rps / scenecut-bias=0.05 / no-opt-cu-delta-qp / no-aq-motion / no-sbrc / hdr10 / hdr10-opt / no-dhdr10-opt / no-idr-recovery-sei / analysis-reuse-level=0 / analysis-save-reuse-level=0 / analysis-load-reuse-level=0 / scale-factor=0 / refine-intra=0 / refine-inter=0 / refine-mv=1 / refine-ctu-distortion=0 / no-limit-sao / ctu-info=0 / no-lowpass-dct / refine-analysis-type=0 / copy-pic=1 / max-ausize-factor=1.0 / no-dynamic-refine / no-single-sei / no-hevc-aq / no-svt / no-field / qp-adaptation-range=1.00 / scenecut-aware-qp=0conformance-window-offsets / right=0 / bottom=0 / decoder-max-rate=0 / no-vbv-live-multi-pass / no-mcstf
  22. Default                                  : Yes
  23. Forced                                   : No
  24. Color range                              : Limited
  25. Color primaries                          : BT.2020
  26. Transfer characteristics                 : PQ
  27. Matrix coefficients                      : BT.2020 non-constant
  28. Mastering display color primaries        : Display P3
  29. Mastering display luminance              : min: 0.0001 cd/m2, max: 1000 cd/m2
  30. Maximum Content Light Level              : 718 cd/m2
  31. Maximum Frame-Average Light Level        : 301 cd/m2
  32. Audio #1
  33. ID                                       : 2
  34. Format                                   : MLP FBA 16-ch
  35. Format/Info                              : Meridian Lossless Packing FBA with 16-channel presentation
  36. Commercial name                          : Dolby TrueHD with Dolby Atmos
  37. Codec ID                                 : A_TRUEHD
  38. Duration                                 : 2 h 4 min
  39. Bit rate mode                            : Variable
  40. Bit rate                                 : 3 289 kb/s
  41. Maximum bit rate                         : 4 554 kb/s
  42. Channel(s)                               : 8 channels
  43. Channel layout                           : L R C LFE Ls Rs Lb Rb
  44. Sampling rate                            : 48.0 kHz
  45. Frame rate                               : 1 200.000 FPS (40 SPF)
  46. Compression mode                         : Lossless
  47. Stream size                              : 2.87 GiB (13%)
  48. Language                                 : English
  49. Default                                  : Yes
  50. Forced                                   : No
  51. Number of dynamic objects                : 11
  52. Bed channel count                        : 1 channel
  53. Bed channel configuration                : LFE
  54. Audio #2
  55. ID                                       : 3
  56. Format                                   : AC-3
  57. Format/Info                              : Audio Coding 3
  58. Commercial name                          : Dolby Digital
  59. Codec ID                                 : A_AC3
  60. Duration                                 : 2 h 4 min
  61. Bit rate mode                            : Constant
  62. Bit rate                                 : 640 kb/s
  63. Channel(s)                               : 6 channels
  64. Channel layout                           : L R C LFE Ls Rs
  65. Sampling rate                            : 48.0 kHz
  66. Frame rate                               : 31.250 FPS (1536 SPF)
  67. Compression mode                         : Lossy
  68. Stream size                              : 572 MiB (2%)
  69. Language                                 : English
  70. Service kind                             : Complete Main
  71. Default                                  : Yes
  72. Forced                                   : No
  73. Text #1
  74. ID                                       : 4
  75. Format                                   : UTF-8
  76. Codec ID                                 : S_TEXT/UTF8
  77. Codec ID/Info                            : UTF-8 Plain Text
  78. Duration                                 : 1 h 42 min
  79. Bit rate                                 : 2 b/s
  80. Frame rate                               : 0.013 FPS
  81. Count of elements                        : 81
  82. Stream size                              : 1.75 KiB (0%)
  83. Title                                    : English Forced
  84. Language                                 : English
  85. Default                                  : Yes
  86. Forced                                   : Yes
  87. Text #2
  88. ID                                       : 5
  89. Format                                   : PGS
  90. Muxing mode                              : zlib
  91. Codec ID                                 : S_HDMV/PGS
  92. Codec ID/Info                            : Picture based subtitle format used on BDs/HD-DVDs
  93. Duration                                 : 1 h 56 min
  94. Bit rate                                 : 36.3 kb/s
  95. Frame rate                               : 0.510 FPS
  96. Count of elements                        : 3565
  97. Stream size                              : 30.3 MiB (0%)
  98. Title                                    : English SDH
  99. Language                                 : English
  100. Default                                  : No
  101. Forced                                   : No
  102. Text #3
  103. ID                                       : 6
  104. Format                                   : PGS
  105. Muxing mode                              : zlib
  106. Codec ID                                 : S_HDMV/PGS
  107. Codec ID/Info                            : Picture based subtitle format used on BDs/HD-DVDs
  108. Duration                                 : 2 h 3 min
  109. Bit rate                                 : 22.5 kb/s
  110. Frame rate                               : 0.350 FPS
  111. Count of elements                        : 2594
  112. Stream size                              : 19.9 MiB (0%)
  113. Title                                    : French
  114. Language                                 : French
  115. Default                                  : No
  116. Forced                                   : No
  117. Text #4
  118. ID                                       : 7
  119. Format                                   : PGS
  120. Muxing mode                              : zlib
  121. Codec ID                                 : S_HDMV/PGS
  122. Codec ID/Info                            : Picture based subtitle format used on BDs/HD-DVDs
  123. Duration                                 : 2 h 4 min
  124. Bit rate                                 : 32.4 kb/s
  125. Frame rate                               : 0.375 FPS
  126. Count of elements                        : 2794
  127. Stream size                              : 28.8 MiB (0%)
  128. Title                                    : German
  129. Language                                 : German
  130. Default                                  : No
  131. Forced                                   : No
  132. Text #5
  133. ID                                       : 8
  134. Format                                   : PGS
  135. Muxing mode                              : zlib
  136. Codec ID                                 : S_HDMV/PGS
  137. Codec ID/Info                            : Picture based subtitle format used on BDs/HD-DVDs
  138. Duration                                 : 1 h 56 min
  139. Bit rate                                 : 34.5 kb/s
  140. Frame rate                               : 0.501 FPS
  141. Count of elements                        : 3500
  142. Stream size                              : 28.7 MiB (0%)
  143. Title                                    : Italian
  144. Language                                 : Italian
  145. Default                                  : No
  146. Forced                                   : No
  147. Text #6
  148. ID                                       : 9
  149. Format                                   : PGS
  150. Muxing mode                              : zlib
  151. Codec ID                                 : S_HDMV/PGS
  152. Codec ID/Info                            : Picture based subtitle format used on BDs/HD-DVDs
  153. Duration                                 : 2 h 3 min
  154. Bit rate                                 : 26.1 kb/s
  155. Frame rate                               : 0.339 FPS
  156. Count of elements                        : 2516
  157. Stream size                              : 23.1 MiB (0%)
  158. Title                                    : Spanish
  159. Language                                 : Spanish
  160. Default                                  : No
  161. Forced                                   : No
  162. Text #7
  163. ID                                       : 10
  164. Format                                   : PGS
  165. Muxing mode                              : zlib
  166. Codec ID                                 : S_HDMV/PGS
  167. Codec ID/Info                            : Picture based subtitle format used on BDs/HD-DVDs
  168. Duration                                 : 1 h 42 min
  169. Bit rate                                 : 1 424 b/s
  170. Frame rate                               : 0.026 FPS
  171. Count of elements                        : 162
  172. Stream size                              : 1.05 MiB (0%)
  173. Title                                    : English
  174. Language                                 : English
  175. Default                                  : No
  176. Forced                                   : No
  177. Text #8
  178. ID                                       : 11
  179. Format                                   : PGS
  180. Muxing mode                              : zlib
  181. Codec ID                                 : S_HDMV/PGS
  182. Codec ID/Info                            : Picture based subtitle format used on BDs/HD-DVDs
  183. Duration                                 : 1 h 42 min
  184. Bit rate                                 : 1 777 b/s
  185. Frame rate                               : 0.022 FPS
  186. Count of elements                        : 136
  187. Stream size                              : 1.30 MiB (0%)
  188. Title                                    : German
  189. Language                                 : German
  190. Default                                  : No
  191. Forced                                   : No
  192. Text #9
  193. ID                                       : 12
  194. Format                                   : PGS
  195. Muxing mode                              : zlib
  196. Codec ID                                 : S_HDMV/PGS
  197. Codec ID/Info                            : Picture based subtitle format used on BDs/HD-DVDs
  198. Duration                                 : 1 h 44 min
  199. Bit rate                                 : 1 745 b/s
  200. Frame rate                               : 0.028 FPS
  201. Count of elements                        : 178
  202. Stream size                              : 1.30 MiB (0%)
  203. Title                                    : Italian
  204. Language                                 : Italian
  205. Default                                  : No
  206. Forced                                   : No
  207. Text #10
  208. ID                                       : 13
  209. Format                                   : PGS
  210. Muxing mode                              : zlib
  211. Codec ID                                 : S_HDMV/PGS
  212. Codec ID/Info                            : Picture based subtitle format used on BDs/HD-DVDs
  213. Duration                                 : 1 h 44 min
  214. Bit rate                                 : 1 848 b/s
  215. Frame rate                               : 0.028 FPS
  216. Count of elements                        : 176
  217. Stream size                              : 1.38 MiB (0%)
  218. Title                                    : French
  219. Language                                 : French
  220. Default                                  : No
  221. Forced                                   : No
  222. Text #11
  223. ID                                       : 14
  224. Format                                   : PGS
  225. Muxing mode                              : zlib
  226. Codec ID                                 : S_HDMV/PGS
  227. Codec ID/Info                            : Picture based subtitle format used on BDs/HD-DVDs
  228. Duration                                 : 1 h 44 min
  229. Bit rate                                 : 1 820 b/s
  230. Frame rate                               : 0.030 FPS
  231. Count of elements                        : 188
  232. Stream size                              : 1.36 MiB (0%)
  233. Title                                    : Spanish
  234. Language                                 : Spanish
  235. Default                                  : No
  236. Forced                                   : No
  237. Text #12
  238. ID                                       : 15
  239. Format                                   : PGS
  240. Muxing mode                              : zlib
  241. Codec ID                                 : S_HDMV/PGS
  242. Codec ID/Info                            : Picture based subtitle format used on BDs/HD-DVDs
  243. Duration                                 : 2 h 3 min
  244. Bit rate                                 : 21.3 kb/s
  245. Frame rate                               : 0.223 FPS
  246. Count of elements                        : 1652
  247. Stream size                              : 18.9 MiB (0%)
  248. Title                                    : Danish
  249. Language                                 : Danish
  250. Default                                  : No
  251. Forced                                   : No
  252. Text #13
  253. ID                                       : 16
  254. Format                                   : PGS
  255. Muxing mode                              : zlib
  256. Codec ID                                 : S_HDMV/PGS
  257. Codec ID/Info                            : Picture based subtitle format used on BDs/HD-DVDs
  258. Duration                                 : 2 h 3 min
  259. Bit rate                                 : 23.7 kb/s
  260. Frame rate                               : 0.339 FPS
  261. Count of elements                        : 2516
  262. Stream size                              : 20.9 MiB (0%)
  263. Title                                    : Finnish
  264. Language                                 : Finnish
  265. Default                                  : No
  266. Forced                                   : No
  267. Text #14
  268. ID                                       : 17
  269. Format                                   : PGS
  270. Muxing mode                              : zlib
  271. Codec ID                                 : S_HDMV/PGS
  272. Codec ID/Info                            : Picture based subtitle format used on BDs/HD-DVDs
  273. Duration                                 : 2 h 3 min
  274. Bit rate                                 : 23.2 kb/s
  275. Frame rate                               : 0.255 FPS
  276. Count of elements                        : 1892
  277. Stream size                              : 20.5 MiB (0%)
  278. Title                                    : Norwegian
  279. Language                                 : Norwegian
  280. Default                                  : No
  281. Forced                                   : No
  282. Text #15
  283. ID                                       : 18
  284. Format                                   : PGS
  285. Muxing mode                              : zlib
  286. Codec ID                                 : S_HDMV/PGS
  287. Codec ID/Info                            : Picture based subtitle format used on BDs/HD-DVDs
  288. Duration                                 : 2 h 3 min
  289. Bit rate                                 : 22.6 kb/s
  290. Frame rate                               : 0.251 FPS
  291. Count of elements                        : 1860
  292. Stream size                              : 20.0 MiB (0%)
  293. Title                                    : Swedish
  294. Language                                 : Swedish
  295. Default                                  : No
  296. Forced                                   : No
  297. Menu
  298. 00:00:00.000                             : en:Chapter 01
  299. 00:10:23.581                             : en:Chapter 02
  300. 00:19:57.613                             : en:Chapter 03
  301. 00:29:29.893                             : en:Chapter 04
  302. 00:38:35.146                             : en:Chapter 05
  303. 00:50:42.081                             : en:Chapter 06
  304. 01:00:21.409                             : en:Chapter 07
  305. 01:09:44.722                             : en:Chapter 08
  306. 01:19:36.271                             : en:Chapter 09
  307. 01:29:12.305                             : en:Chapter 10
  308. 01:40:20.389                             : en:Chapter 11
  309. 01:49:40.991                             : en:Chapter 12
  310. 01:53:13.078                             : en:Chapter 13
  311. 02:04:52.110                             : en:Chapter 14
复制代码











回复

使用道具 举报

懒得打字嘛,点击右侧快捷回复 【右侧内容,后台自定义】
您需要登录后才可以回帖 登录 | 立即加入

本版积分规则

Copyright © 2024 Comsenz Inc. Powered by 蓝光电影网

本站内容由用户自主分享和转载自互联网,转载目的在于传递更多信息,并不代表本网赞同其观点和对其真实性负责。

如有侵权、违反国家法律政策行为,请联系我们,我们会第一时间及时清除和处理!

举报反馈邮箱:4k1080.com@gmail.com

快速回复 返回顶部 返回列表