找回密码

查看: 834|回复: 0

[剧情] 杏仁体与海马体.The.Almond.And.The.Seahorse.2022.1080p.WEBRip.DDP5.1.x264-PTP 3.08GB

[复制链接]
蓝光币
1840
发表于 2023-1-6 18:12:22 | 显示全部楼层 |阅读模式


◎标  题 杏仁体与海马体
◎片  名 The Almond and the Seahorse
◎年  代 2022
◎产  地 英国
◎类  别 剧情
◎语  言 英语
◎上映日期 2022-12-16(美国)
◎IMDb评分 6.8/10 (60人评价)
◎IMDb链接 https://www.imdb.com/title/tt7326608/
◎豆瓣链接 https://movie.douban.com/subject/35292878/
◎片  长 96分钟
◎导  演 汤姆·斯特恩 Tom Stern
       塞林·琼斯 Celyn Jones
◎编  剧 塞林·琼斯 Celyn Jones
◎演  员 蕾蓓尔·威尔森 Rebel Wilson
       夏洛特·甘斯布 Charlotte Gainsbourg
       塞林·琼斯 Celyn Jones
◎简  介
  夏洛特·甘斯布、蕾蓓尔·威尔森将携手主演英国自力制片新作[杏仁体与海马体](The Almond And The Seahorse,暂译)。影片由汤姆·斯特恩(克林特·伊斯特伍德御用摄影师)和塞林·琼斯配合执导,改编自凯特·奥雷利撰写的同名舞台剧剧本,琼斯和奥雷利配合撰写电影剧本。故事围绕着一个考古学家和一个修建师展开,他们在面临创伤性脑损伤使他们渐渐忘记所爱之人时,决议倡议抗争重新架构自己的未来。影片将于2021年3月在利物浦和北威尔士开机。
  1. Video
  2. ID                                       : 1
  3. Format                                   : AVC
  4. Format/Info                              : Advanced Video Codec
  5. Format profile                           : High@L4
  6. Format settings                          : CABAC / 4 Ref Frames
  7. Format settings, CABAC                   : Yes
  8. Format settings, Reference frames        : 4 frames
  9. Codec ID                                 : V_MPEG4/ISO/AVC
  10. Duration                                 : 1 h 35 min
  11. Bit rate                                 : 4 500 kb/s
  12. Width                                    : 1 920 pixels
  13. Height                                   : 1 080 pixels
  14. Display aspect ratio                     : 16:9
  15. Frame rate mode                          : Constant
  16. Frame rate                               : 23.976 (24000/1001) FPS
  17. Color space                              : YUV
  18. Chroma subsampling                       : 4:2:0
  19. Bit depth                                : 8 bits
  20. Scan type                                : Progressive
  21. Bits/(Pixel*Frame)                       : 0.091
  22. Stream size                              : 2.89 GiB (94%)
  23. Writing library                          : x264 core 164 r3095 baee400
  24. Encoding settings                        : cabac=1 / ref=4 / deblock=1:0:0 / analyse=0x3:0x113 / me=hex / subme=8 / psy=1 / psy_rd=1.00:0.00 / mixed_ref=1 / me_range=16 / chroma_me=1 / trellis=2 / 8x8dct=1 / cqm=0 / deadzone=21,11 / fast_pskip=1 / chroma_qp_offset=-2 / threads=12 / lookahead_threads=2 / sliced_threads=0 / nr=0 / decimate=1 / interlaced=0 / bluray_compat=0 / stitchable=1 / constrained_intra=0 / bframes=3 / b_pyramid=2 / b_adapt=1 / b_bias=0 / direct=3 / weightb=1 / open_gop=0 / weightp=2 / keyint=48 / keyint_min=4 / scenecut=0 / intra_refresh=0 / rc_lookahead=48 / rc=2pass / mbtree=1 / bitrate=4500 / ratetol=1.0 / qcomp=0.60 / qpmin=0 / qpmax=69 / qpstep=4 / cplxblur=20.0 / qblur=0.5 / vbv_maxrate=5400 / vbv_bufsize=4500 / nal_hrd=none / filler=0 / ip_ratio=1.40 / aq=1:1.00
  25. Default                                  : Yes
  26. Forced                                   : No
  27. Color range                              : Limited
  28. Color primaries                          : BT.709
  29. Transfer characteristics                 : BT.709
  30. Matrix coefficients                      : BT.709
  31. Audio
  32. ID                                       : 2
  33. Format                                   : E-AC-3
  34. Format/Info                              : Enhanced AC-3
  35. Commercial name                          : Dolby Digital Plus
  36. Codec ID                                 : A_EAC3
  37. Duration                                 : 1 h 35 min
  38. Bit rate mode                            : Constant
  39. Bit rate                                 : 192 kb/s
  40. Channel(s)                               : 6 channels
  41. Channel layout                           : L R C LFE Ls Rs
  42. Sampling rate                            : 48.0 kHz
  43. Frame rate                               : 31.250 FPS (1536 SPF)
  44. Bit depth                                : 32 bits
  45. Compression mode                         : Lossy
  46. Stream size                              : 131 MiB (4%)
  47. Language                                 : English
  48. Service kind                             : Complete Main
  49. Default                                  : Yes
  50. Forced                                   : No
  51. Text
  52. ID                                       : 3
  53. Format                                   : UTF-8
  54. Codec ID                                 : S_TEXT/UTF8
  55. Codec ID/Info                            : UTF-8 Plain Text
  56. Duration                                 : 1 h 31 min
  57. Writing library                          : Lavc58.52.101 srt
  58. Default                                  : No
  59. Forced                                   : No
复制代码











回复

使用道具 举报

懒得打字嘛,点击右侧快捷回复 【右侧内容,后台自定义】
您需要登录后才可以回帖 登录 | 立即加入

本版积分规则

Copyright © 2024 Comsenz Inc. Powered by 蓝光电影网

本站内容由用户自主分享和转载自互联网,转载目的在于传递更多信息,并不代表本网赞同其观点和对其真实性负责。

如有侵权、违反国家法律政策行为,请联系我们,我们会第一时间及时清除和处理!

举报反馈邮箱:4k1080.com@gmail.com

快速回复 返回顶部 返回列表