找回密码

查看: 1540|回复: 0

[2160p] 灰天鹅绒上的四只苍蝇.Four.Flies.on.Grey.Velvet.1971.ITALIAN.2160p.BluRay.x264.8bit.SDR.DTS-HD.MA.2.0-SWTYBLZ 52.83GB

[复制链接]
蓝光币
1848
发表于 2023-1-6 23:06:15 | 显示全部楼层 |阅读模式


◎标  题 灰天鹅绒上的四只苍蝇
◎译  名 Four Flies on Grey Velvet
◎片  名 4 mosche di velluto grigio
◎年  代 1971
◎产  地 意大利 / 法国
◎类  别 悬疑 / 惊悚 / 可骇
◎语  言 意大利语
◎上映日期 1971-12-17
◎IMDb评分 6.6/10 (8877人评价)
◎IMDb链接 https://www.imdb.com/title/tt0066735/
◎豆瓣评分 6.6/10 (422人评价)
◎豆瓣链接 https://movie.douban.com/subject/1849128/
◎片  长 104 分钟
◎导  演 达里奥·阿基多 Dario Argento
◎编  剧 达里奥·阿基多 Dario Argento
       路易吉·科齐 Luigi Cozzi
◎演  员 迈克尔·布兰登 Michael Brandon
       梅茜·珐玛 Mimsy Farmer
       让-皮埃尔·马里埃尔 Jean-Pierre Marielle
       弗朗辛·拉塞特 Francine Racette
       劳拉·德罗塞勒 Laura Troschel
       Marisa Fabbri Marisa Fabbri
       斯特凡诺·萨塔·弗洛雷斯 Stefano Satta Flores
       斯特法诺·奥佩迪萨诺 Stefano Oppedisano
       Diego Morreale Diego Morreale
       Fabrizio Moroni Fabrizio Moroni
       Corrado Olmi Corrado Olmi
       伦佐·马里尼亚诺 Renzo Marignano
       奥莱斯特·莱内罗 Oreste Lionello
       布德·斯藩塞 Bud Spencer
       路易吉·科齐 Luigi Cozzi
       Calisto Calisti Calisto Calisti
       Guerrino Crivello Guerrino Crivello
       桑德罗·铎尼 Sandro Dori
       阿尔多·巴菲·兰迪 Aldo Bufi Landi
       恩尼奥·莫里康内 Ennio Morricone
       Franco Di Giacomo Franco Di Giacomo
       弗朗西斯·波诺娃 Françoise Bonnot
       恩里科·萨巴蒂尼 Enrico Sabbatini
◎简  介
  Roberto, a drummer in a rock band, keeps receiving weird phone calls and being followed by a mysterious man. One night he manages to catch up with his persecutor and tries to get him to talk but in the ensuing struggle he accidentally stabs him. He runs away, but he understands his troubles have just begun when the following day he receives an envelope with photos of him killin...
  1. Video
  2. ID                                       : 1
  3. Format                                   : AVC
  4. Format/Info                              : Advanced Video Codec
  5. Format profile                           : High@L5.1
  6. Format settings                          : CABAC / 5 Ref Frames
  7. Format settings, CABAC                   : Yes
  8. Format settings, Reference frames        : 5 frames
  9. Codec ID                                 : V_MPEG4/ISO/AVC
  10. Duration                                 : 1 h 43 min
  11. Bit rate                                 : 67.8 Mb/s
  12. Width                                    : 3 840 pixels
  13. Height                                   : 1 600 pixels
  14. Display aspect ratio                     : 2.40:1
  15. Frame rate mode                          : Constant
  16. Frame rate                               : 23.976 (24000/1001) FPS
  17. Color space                              : YUV
  18. Chroma subsampling                       : 4:2:0
  19. Bit depth                                : 8 bits
  20. Scan type                                : Progressive
  21. Bits/(Pixel*Frame)                       : 0.460
  22. Stream size                              : 49.0 GiB (93%)
  23. Writing library                          : x264 core 157 r2935 545de2f
  24. Encoding settings                        : cabac=1 / ref=5 / deblock=1:-1:-1 / analyse=0x3:0x113 / me=umh / subme=10 / psy=1 / psy_rd=1.00:0.15 / mixed_ref=1 / me_range=48 / chroma_me=1 / trellis=2 / 8x8dct=1 / cqm=0 / deadzone=21,11 / fast_pskip=1 / chroma_qp_offset=-3 / threads=50 / lookahead_threads=4 / sliced_threads=0 / nr=0 / decimate=0 / interlaced=0 / bluray_compat=0 / constrained_intra=0 / bframes=3 / b_pyramid=2 / b_adapt=2 / b_bias=0 / direct=3 / weightb=1 / open_gop=0 / weightp=2 / keyint=250 / keyint_min=23 / scenecut=40 / intra_refresh=0 / rc_lookahead=50 / rc=crf / mbtree=1 / crf=18.0 / qcomp=0.60 / qpmin=0 / qpmax=69 / qpstep=4 / ip_ratio=1.40 / aq=1:1.00
  25. Default                                  : Yes
  26. Forced                                   : No
  27. Audio #1
  28. ID                                       : 2
  29. ID in the original source medium         : 4353 (0x1101)
  30. Format                                   : DTS XLL
  31. Format/Info                              : Digital Theater Systems
  32. Commercial name                          : DTS-HD Master Audio
  33. Codec ID                                 : A_DTS
  34. Duration                                 : 1 h 43 min
  35. Bit rate mode                            : Variable
  36. Bit rate                                 : 1 828 kb/s
  37. Channel(s)                               : 2 channels
  38. Channel layout                           : L R
  39. Sampling rate                            : 48.0 kHz
  40. Frame rate                               : 93.750 FPS (512 SPF)
  41. Bit depth                                : 24 bits
  42. Compression mode                         : Lossless
  43. Stream size                              : 1.32 GiB (3%)
  44. Title                                    : DTS-HD MA 2.0
  45. Language                                 : Italian
  46. Default                                  : Yes
  47. Forced                                   : No
  48. Original source medium                   : Blu-ray
  49. Audio #2
  50. ID                                       : 3
  51. Format                                   : AC-3
  52. Format/Info                              : Audio Coding 3
  53. Commercial name                          : Dolby Digital
  54. Codec ID                                 : A_AC3
  55. Duration                                 : 1 h 43 min
  56. Bit rate mode                            : Constant
  57. Bit rate                                 : 640 kb/s
  58. Channel(s)                               : 2 channels
  59. Channel layout                           : L R
  60. Sampling rate                            : 48.0 kHz
  61. Frame rate                               : 31.250 FPS (1536 SPF)
  62. Compression mode                         : Lossy
  63. Stream size                              : 473 MiB (1%)
  64. Title                                    : DD 2.0
  65. Language                                 : Italian
  66. Service kind                             : Complete Main
  67. Default                                  : No
  68. Forced                                   : No
  69. Audio #3
  70. ID                                       : 4
  71. ID in the original source medium         : 4352 (0x1100)
  72. Format                                   : DTS XLL
  73. Format/Info                              : Digital Theater Systems
  74. Commercial name                          : DTS-HD Master Audio
  75. Codec ID                                 : A_DTS
  76. Duration                                 : 1 h 43 min
  77. Bit rate mode                            : Variable
  78. Bit rate                                 : 1 843 kb/s
  79. Channel(s)                               : 2 channels
  80. Channel layout                           : L R
  81. Sampling rate                            : 48.0 kHz
  82. Frame rate                               : 93.750 FPS (512 SPF)
  83. Bit depth                                : 24 bits
  84. Compression mode                         : Lossless
  85. Stream size                              : 1.33 GiB (3%)
  86. Title                                    : DTS-HD MA 2.0
  87. Language                                 : English
  88. Default                                  : No
  89. Forced                                   : No
  90. Original source medium                   : Blu-ray
  91. Audio #4
  92. ID                                       : 5
  93. Format                                   : AC-3
  94. Format/Info                              : Audio Coding 3
  95. Commercial name                          : Dolby Digital
  96. Codec ID                                 : A_AC3
  97. Duration                                 : 1 h 43 min
  98. Bit rate mode                            : Constant
  99. Bit rate                                 : 640 kb/s
  100. Channel(s)                               : 2 channels
  101. Channel layout                           : L R
  102. Sampling rate                            : 48.0 kHz
  103. Frame rate                               : 31.250 FPS (1536 SPF)
  104. Compression mode                         : Lossy
  105. Stream size                              : 473 MiB (1%)
  106. Title                                    : DD 2.0
  107. Language                                 : English
  108. Service kind                             : Complete Main
  109. Default                                  : No
  110. Forced                                   : No
  111. Text #1
  112. ID                                       : 6
  113. Format                                   : UTF-8
  114. Codec ID                                 : S_TEXT/UTF8
  115. Codec ID/Info                            : UTF-8 Plain Text
  116. Duration                                 : 1 h 33 min
  117. Bit rate                                 : 1 b/s
  118. Frame rate                               : 0.005 FPS
  119. Count of elements                        : 28
  120. Stream size                              : 959 Bytes (0%)
  121. Title                                    : FORCED
  122. Language                                 : English
  123. Default                                  : No
  124. Forced                                   : No
  125. Text #2
  126. ID                                       : 7
  127. Format                                   : UTF-8
  128. Codec ID                                 : S_TEXT/UTF8
  129. Codec ID/Info                            : UTF-8 Plain Text
  130. Duration                                 : 1 h 39 min
  131. Bit rate                                 : 36 b/s
  132. Frame rate                               : 0.116 FPS
  133. Count of elements                        : 690
  134. Stream size                              : 26.3 KiB (0%)
  135. Language                                 : English
  136. Default                                  : Yes
  137. Forced                                   : No
  138. Text #3
  139. ID                                       : 8
  140. Format                                   : UTF-8
  141. Codec ID                                 : S_TEXT/UTF8
  142. Codec ID/Info                            : UTF-8 Plain Text
  143. Duration                                 : 1 h 35 min
  144. Bit rate                                 : 33 b/s
  145. Frame rate                               : 0.163 FPS
  146. Count of elements                        : 939
  147. Stream size                              : 23.3 KiB (0%)
  148. Title                                    : for EN DUB
  149. Language                                 : English
  150. Default                                  : No
  151. Forced                                   : No
  152. Text #4
  153. ID                                       : 9
  154. Format                                   : UTF-8
  155. Codec ID                                 : S_TEXT/UTF8
  156. Codec ID/Info                            : UTF-8 Plain Text
  157. Duration                                 : 1 h 42 min
  158. Bit rate                                 : 37 b/s
  159. Frame rate                               : 0.186 FPS
  160. Count of elements                        : 1147
  161. Stream size                              : 28.0 KiB (0%)
  162. Title                                    : SDH for EN DUB
  163. Language                                 : English
  164. Default                                  : No
  165. Forced                                   : No
  166. Text #5
  167. ID                                       : 10
  168. ID in the original source medium         : 4768 (0x12A0)
  169. Format                                   : PGS
  170. Muxing mode                              : zlib
  171. Codec ID                                 : S_HDMV/PGS
  172. Codec ID/Info                            : Picture based subtitle format used on BDs/HD-DVDs
  173. Duration                                 : 1 h 33 min
  174. Bit rate                                 : 970 b/s
  175. Frame rate                               : 0.012 FPS
  176. Count of elements                        : 68
  177. Stream size                              : 663 KiB (0%)
  178. Language                                 : English
  179. Default                                  : No
  180. Forced                                   : No
  181. Original source medium                   : Blu-ray
  182. Text #6
  183. ID                                       : 11
  184. ID in the original source medium         : 4769 (0x12A1)
  185. Format                                   : PGS
  186. Muxing mode                              : zlib
  187. Codec ID                                 : S_HDMV/PGS
  188. Codec ID/Info                            : Picture based subtitle format used on BDs/HD-DVDs
  189. Duration                                 : 1 h 42 min
  190. Bit rate                                 : 24.3 kb/s
  191. Frame rate                               : 0.290 FPS
  192. Count of elements                        : 1791
  193. Stream size                              : 17.9 MiB (0%)
  194. Language                                 : English
  195. Default                                  : No
  196. Forced                                   : No
  197. Original source medium                   : Blu-ray
  198. Text #7
  199. ID                                       : 12
  200. ID in the original source medium         : 4770 (0x12A2)
  201. Format                                   : PGS
  202. Muxing mode                              : zlib
  203. Codec ID                                 : S_HDMV/PGS
  204. Codec ID/Info                            : Picture based subtitle format used on BDs/HD-DVDs
  205. Duration                                 : 1 h 39 min
  206. Bit rate                                 : 22.2 kb/s
  207. Frame rate                               : 0.237 FPS
  208. Count of elements                        : 1414
  209. Stream size                              : 15.7 MiB (0%)
  210. Language                                 : English
  211. Default                                  : No
  212. Forced                                   : No
  213. Original source medium                   : Blu-ray
  214. Menu
  215. 00:00:00.000                             : en:Chapter 01
  216. 00:07:13.975                             : en:Chapter 02
  217. 00:21:41.842                             : en:Chapter 03
  218. 00:29:39.402                             : en:Chapter 04
  219. 00:41:29.570                             : en:Chapter 05
  220. 00:52:23.932                             : en:Chapter 06
  221. 00:59:47.500                             : en:Chapter 07
  222. 01:09:54.273                             : en:Chapter 08
  223. 01:15:03.290                             : en:Chapter 09
  224. 01:22:55.387                             : en:Chapter 10
  225. 01:28:04.654                             : en:Chapter 11
  226. 01:40:05.708                             : en:Chapter 12
复制代码















灰天鹅绒上的四只苍蝇.Four.Flies.on.Grey.Velvet.1971.ITALIAN.2160p.BluRay.x264.8bit.SDR.DTS-HD.MA.2.0-SWTYBLZ 52.83GB

Four.Flies.on.Grey.Velvet.1971.ITALIAN.2160p.BluRay.x264.8bit.SDR.DTS-HD.MA.2.0-.torrent

66.78 KB, 下载次数: 4, 下载积分: 蓝光币 -2

回复

使用道具 举报

懒得打字嘛,点击右侧快捷回复 【右侧内容,后台自定义】
您需要登录后才可以回帖 登录 | 立即加入

本版积分规则

Copyright © 2024 Comsenz Inc. Powered by 蓝光电影网

本站内容由用户自主分享和转载自互联网,转载目的在于传递更多信息,并不代表本网赞同其观点和对其真实性负责。

如有侵权、违反国家法律政策行为,请联系我们,我们会第一时间及时清除和处理!

举报反馈邮箱:4k1080.com@gmail.com

快速回复 返回顶部 返回列表