找回密码

查看: 1364|回复: 0

[2160p-WEB] 丢失的彩票[中文字幕].The.Lost.Lotteries.2022.THAI.2160p.NF.WEB-DL.x265.10bit.HDR.DDP5.1-THEEND 9.40GB

[复制链接]
蓝光币
1840
发表于 2023-1-6 23:12:51 | 显示全部楼层 |阅读模式


◎标  题 丧失的彩票
◎译  名 The Lost Lotteries
◎片  名 ปฏิบัติการกู้หวย
◎年  代 2022
◎产  地 泰国
◎类  别 笑剧 / 犯罪
◎语  言 泰语
◎上映日期 2022-11-16(泰国收集)
◎IMDb链接 https://www.imdb.com/title/tt22695198/
◎豆瓣链接 https://movie.douban.com/subject/36119436/
◎片  长 106分钟
◎导  演 普鲁克萨·阿玛鲁奇 Prueksa Amaruji
◎编  剧 普鲁克萨·阿玛鲁奇 Prueksa Amaruji
◎演  员 翁拉维·那提通 Wongravee Nateetorn
       芬蒂拉·皮皮亚克隆 Phantira Pipityakorn
       娜帕帕·丹特拉库尔 Napapa Tantragul
       苏提拉克·素维杰拉 Sutthirak Subvijitra
       娜帕帕·丹特拉库尔 Napapa Thantrakul
       卡纳潘·佩泽坤 Kanaphan Puitrakul
◎简  介
  A heist-comedy film about a group of people who live from hand to mouth come together as a team with a mission to get their winning lottery tickets back from a mafia creditor who took the winning lottery tickets without knowing that it wins the prize of 30 million baht!
  1. Video
  2. ID                                       : 1
  3. Format                                   : HEVC
  4. Format/Info                              : High Efficiency Video Coding
  5. Format profile                           : Main 10@L5@Main
  6. HDR format                               : Dolby Vision, Version 1.0, dvhe.08.06, BL+RPU, HDR10 compatible / SMPTE ST 2086, HDR10 compatible
  7. Codec ID                                 : V_MPEGH/ISO/HEVC
  8. Duration                                 : 1 h 46 min
  9. Bit rate                                 : 12.0 Mb/s
  10. Width                                    : 3 840 pixels
  11. Height                                   : 2 160 pixels
  12. Display aspect ratio                     : 16:9
  13. Frame rate mode                          : Constant
  14. Frame rate                               : 24.000 FPS
  15. Color space                              : YUV
  16. Chroma subsampling                       : 4:2:0 (Type 2)
  17. Bit depth                                : 10 bits
  18. Bits/(Pixel*Frame)                       : 0.060
  19. Stream size                              : 8.92 GiB (95%)
  20. Language                                 : Thai
  21. Default                                  : Yes
  22. Forced                                   : No
  23. Color range                              : Limited
  24. Color primaries                          : BT.2020
  25. Transfer characteristics                 : PQ
  26. Matrix coefficients                      : BT.2020 non-constant
  27. Mastering display color primaries        : Display P3
  28. Mastering display luminance              : min: 0.0001 cd/m2, max: 1000 cd/m2
  29. Maximum Content Light Level              : 1099 cd/m2
  30. Maximum Frame-Average Light Level        : 802 cd/m2
  31. Audio
  32. ID                                       : 2
  33. Format                                   : E-AC-3
  34. Format/Info                              : Enhanced AC-3
  35. Commercial name                          : Dolby Digital Plus
  36. Codec ID                                 : A_EAC3
  37. Duration                                 : 1 h 46 min
  38. Bit rate mode                            : Constant
  39. Bit rate                                 : 640 kb/s
  40. Channel(s)                               : 6 channels
  41. Channel layout                           : L R C LFE Ls Rs
  42. Sampling rate                            : 48.0 kHz
  43. Frame rate                               : 31.250 FPS (1536 SPF)
  44. Compression mode                         : Lossy
  45. Stream size                              : 488 MiB (5%)
  46. Language                                 : Thai
  47. Service kind                             : Complete Main
  48. Default                                  : Yes
  49. Forced                                   : No
  50. Text #1
  51. ID                                       : 3
  52. Format                                   : UTF-8
  53. Codec ID                                 : S_TEXT/UTF8
  54. Codec ID/Info                            : UTF-8 Plain Text
  55. Duration                                 : 58 min 14 s
  56. Bit rate                                 : 0 b/s
  57. Frame rate                               : 0.001 FPS
  58. Count of elements                        : 2
  59. Stream size                              : 40.0 Bytes (0%)
  60. Title                                    : Forced
  61. Language                                 : Thai
  62. Default                                  : Yes
  63. Forced                                   : Yes
  64. Text #2
  65. ID                                       : 4
  66. Format                                   : UTF-8
  67. Codec ID                                 : S_TEXT/UTF8
  68. Codec ID/Info                            : UTF-8 Plain Text
  69. Duration                                 : 1 h 39 min
  70. Bit rate                                 : 121 b/s
  71. Frame rate                               : 0.272 FPS
  72. Count of elements                        : 1622
  73. Stream size                              : 88.3 KiB (0%)
  74. Language                                 : Thai
  75. Default                                  : No
  76. Forced                                   : No
  77. Text #3
  78. ID                                       : 5
  79. Format                                   : UTF-8
  80. Codec ID                                 : S_TEXT/UTF8
  81. Codec ID/Info                            : UTF-8 Plain Text
  82. Duration                                 : 1 h 39 min
  83. Bit rate                                 : 141 b/s
  84. Frame rate                               : 0.272 FPS
  85. Count of elements                        : 1622
  86. Stream size                              : 103 KiB (0%)
  87. Title                                    : SDH
  88. Language                                 : Thai
  89. Default                                  : No
  90. Forced                                   : No
  91. Text #4
  92. ID                                       : 6
  93. Format                                   : UTF-8
  94. Codec ID                                 : S_TEXT/UTF8
  95. Codec ID/Info                            : UTF-8 Plain Text
  96. Duration                                 : 1 h 45 min
  97. Bit rate                                 : 82 b/s
  98. Frame rate                               : 0.197 FPS
  99. Count of elements                        : 1248
  100. Stream size                              : 64.1 KiB (0%)
  101. Language                                 : Arabic
  102. Default                                  : No
  103. Forced                                   : No
  104. Text #5
  105. ID                                       : 7
  106. Format                                   : UTF-8
  107. Codec ID                                 : S_TEXT/UTF8
  108. Codec ID/Info                            : UTF-8 Plain Text
  109. Duration                                 : 1 h 45 min
  110. Bit rate                                 : 46 b/s
  111. Frame rate                               : 0.199 FPS
  112. Count of elements                        : 1265
  113. Stream size                              : 36.0 KiB (0%)
  114. Language                                 : Czech
  115. Default                                  : No
  116. Forced                                   : No
  117. Text #6
  118. ID                                       : 8
  119. Format                                   : UTF-8
  120. Codec ID                                 : S_TEXT/UTF8
  121. Codec ID/Info                            : UTF-8 Plain Text
  122. Duration                                 : 1 h 45 min
  123. Bit rate                                 : 46 b/s
  124. Frame rate                               : 0.196 FPS
  125. Count of elements                        : 1244
  126. Stream size                              : 36.1 KiB (0%)
  127. Language                                 : Danish
  128. Default                                  : No
  129. Forced                                   : No
  130. Text #7
  131. ID                                       : 9
  132. Format                                   : UTF-8
  133. Codec ID                                 : S_TEXT/UTF8
  134. Codec ID/Info                            : UTF-8 Plain Text
  135. Duration                                 : 1 h 45 min
  136. Bit rate                                 : 46 b/s
  137. Frame rate                               : 0.184 FPS
  138. Count of elements                        : 1165
  139. Stream size                              : 36.2 KiB (0%)
  140. Language                                 : German
  141. Default                                  : No
  142. Forced                                   : No
  143. Text #8
  144. ID                                       : 10
  145. Format                                   : UTF-8
  146. Codec ID                                 : S_TEXT/UTF8
  147. Codec ID/Info                            : UTF-8 Plain Text
  148. Duration                                 : 1 h 45 min
  149. Bit rate                                 : 75 b/s
  150. Frame rate                               : 0.196 FPS
  151. Count of elements                        : 1245
  152. Stream size                              : 58.8 KiB (0%)
  153. Language                                 : Greek
  154. Default                                  : No
  155. Forced                                   : No
  156. Text #9
  157. ID                                       : 11
  158. Format                                   : UTF-8
  159. Codec ID                                 : S_TEXT/UTF8
  160. Codec ID/Info                            : UTF-8 Plain Text
  161. Duration                                 : 1 h 39 min
  162. Bit rate                                 : 50 b/s
  163. Frame rate                               : 0.211 FPS
  164. Count of elements                        : 1256
  165. Stream size                              : 36.8 KiB (0%)
  166. Language                                 : English
  167. Default                                  : No
  168. Forced                                   : No
  169. Text #10
  170. ID                                       : 12
  171. Format                                   : UTF-8
  172. Codec ID                                 : S_TEXT/UTF8
  173. Codec ID/Info                            : UTF-8 Plain Text
  174. Duration                                 : 1 h 42 min
  175. Bit rate                                 : 74 b/s
  176. Frame rate                               : 0.307 FPS
  177. Count of elements                        : 1890
  178. Stream size                              : 55.7 KiB (0%)
  179. Title                                    : SDH
  180. Language                                 : English (PH)
  181. Default                                  : No
  182. Forced                                   : No
  183. Text #11
  184. ID                                       : 13
  185. Format                                   : UTF-8
  186. Codec ID                                 : S_TEXT/UTF8
  187. Codec ID/Info                            : UTF-8 Plain Text
  188. Duration                                 : 1 h 42 min
  189. Bit rate                                 : 74 b/s
  190. Frame rate                               : 0.307 FPS
  191. Count of elements                        : 1890
  192. Stream size                              : 55.7 KiB (0%)
  193. Title                                    : SDH
  194. Language                                 : English
  195. Default                                  : No
  196. Forced                                   : No
  197. Text #12
  198. ID                                       : 14
  199. Format                                   : UTF-8
  200. Codec ID                                 : S_TEXT/UTF8
  201. Codec ID/Info                            : UTF-8 Plain Text
  202. Duration                                 : 1 h 45 min
  203. Bit rate                                 : 44 b/s
  204. Frame rate                               : 0.192 FPS
  205. Count of elements                        : 1219
  206. Stream size                              : 34.1 KiB (0%)
  207. Title                                    : Latin American
  208. Language                                 : Spanish (Latin America)
  209. Default                                  : No
  210. Forced                                   : No
  211. Text #13
  212. ID                                       : 15
  213. Format                                   : UTF-8
  214. Codec ID                                 : S_TEXT/UTF8
  215. Codec ID/Info                            : UTF-8 Plain Text
  216. Duration                                 : 1 h 45 min
  217. Bit rate                                 : 46 b/s
  218. Frame rate                               : 0.186 FPS
  219. Count of elements                        : 1181
  220. Stream size                              : 35.7 KiB (0%)
  221. Language                                 : Spanish (ES)
  222. Default                                  : No
  223. Forced                                   : No
  224. Text #14
  225. ID                                       : 16
  226. Format                                   : UTF-8
  227. Codec ID                                 : S_TEXT/UTF8
  228. Codec ID/Info                            : UTF-8 Plain Text
  229. Duration                                 : 1 h 45 min
  230. Bit rate                                 : 41 b/s
  231. Frame rate                               : 0.170 FPS
  232. Count of elements                        : 1074
  233. Stream size                              : 32.3 KiB (0%)
  234. Language                                 : Finnish
  235. Default                                  : No
  236. Forced                                   : No
  237. Text #15
  238. ID                                       : 17
  239. Format                                   : UTF-8
  240. Codec ID                                 : S_TEXT/UTF8
  241. Codec ID/Info                            : UTF-8 Plain Text
  242. Duration                                 : 1 h 45 min
  243. Bit rate                                 : 44 b/s
  244. Frame rate                               : 0.196 FPS
  245. Count of elements                        : 1247
  246. Stream size                              : 34.5 KiB (0%)
  247. Language                                 : fil
  248. Default                                  : No
  249. Forced                                   : No
  250. Text #16
  251. ID                                       : 18
  252. Format                                   : UTF-8
  253. Codec ID                                 : S_TEXT/UTF8
  254. Codec ID/Info                            : UTF-8 Plain Text
  255. Duration                                 : 1 h 45 min
  256. Bit rate                                 : 46 b/s
  257. Frame rate                               : 0.188 FPS
  258. Count of elements                        : 1193
  259. Stream size                              : 35.7 KiB (0%)
  260. Language                                 : French
  261. Default                                  : No
  262. Forced                                   : No
  263. Text #17
  264. ID                                       : 19
  265. Format                                   : UTF-8
  266. Codec ID                                 : S_TEXT/UTF8
  267. Codec ID/Info                            : UTF-8 Plain Text
  268. Duration                                 : 1 h 45 min
  269. Bit rate                                 : 73 b/s
  270. Frame rate                               : 0.198 FPS
  271. Count of elements                        : 1259
  272. Stream size                              : 56.8 KiB (0%)
  273. Language                                 : Hebrew
  274. Default                                  : No
  275. Forced                                   : No
  276. Text #18
  277. ID                                       : 20
  278. Format                                   : UTF-8
  279. Codec ID                                 : S_TEXT/UTF8
  280. Codec ID/Info                            : UTF-8 Plain Text
  281. Duration                                 : 1 h 45 min
  282. Bit rate                                 : 42 b/s
  283. Frame rate                               : 0.192 FPS
  284. Count of elements                        : 1221
  285. Stream size                              : 33.1 KiB (0%)
  286. Language                                 : Croatian
  287. Default                                  : No
  288. Forced                                   : No
  289. Text #19
  290. ID                                       : 21
  291. Format                                   : UTF-8
  292. Codec ID                                 : S_TEXT/UTF8
  293. Codec ID/Info                            : UTF-8 Plain Text
  294. Duration                                 : 1 h 45 min
  295. Bit rate                                 : 46 b/s
  296. Frame rate                               : 0.188 FPS
  297. Count of elements                        : 1192
  298. Stream size                              : 36.3 KiB (0%)
  299. Language                                 : Hungarian
  300. Default                                  : No
  301. Forced                                   : No
  302. Text #20
  303. ID                                       : 22
  304. Format                                   : UTF-8
  305. Codec ID                                 : S_TEXT/UTF8
  306. Codec ID/Info                            : UTF-8 Plain Text
  307. Duration                                 : 1 h 45 min
  308. Bit rate                                 : 44 b/s
  309. Frame rate                               : 0.197 FPS
  310. Count of elements                        : 1248
  311. Stream size                              : 34.3 KiB (0%)
  312. Language                                 : Indonesian
  313. Default                                  : No
  314. Forced                                   : No
  315. Text #21
  316. ID                                       : 23
  317. Format                                   : UTF-8
  318. Codec ID                                 : S_TEXT/UTF8
  319. Codec ID/Info                            : UTF-8 Plain Text
  320. Duration                                 : 1 h 45 min
  321. Bit rate                                 : 44 b/s
  322. Frame rate                               : 0.194 FPS
  323. Count of elements                        : 1229
  324. Stream size                              : 34.5 KiB (0%)
  325. Language                                 : Italian
  326. Default                                  : No
  327. Forced                                   : No
  328. Text #22
  329. ID                                       : 24
  330. Format                                   : UTF-8
  331. Codec ID                                 : S_TEXT/UTF8
  332. Codec ID/Info                            : UTF-8 Plain Text
  333. Duration                                 : 1 h 45 min
  334. Bit rate                                 : 44 b/s
  335. Frame rate                               : 0.183 FPS
  336. Count of elements                        : 1163
  337. Stream size                              : 34.3 KiB (0%)
  338. Language                                 : Japanese
  339. Default                                  : No
  340. Forced                                   : No
  341. Text #23
  342. ID                                       : 25
  343. Format                                   : UTF-8
  344. Codec ID                                 : S_TEXT/UTF8
  345. Codec ID/Info                            : UTF-8 Plain Text
  346. Duration                                 : 1 h 45 min
  347. Bit rate                                 : 58 b/s
  348. Frame rate                               : 0.213 FPS
  349. Count of elements                        : 1353
  350. Stream size                              : 45.0 KiB (0%)
  351. Language                                 : Korean
  352. Default                                  : No
  353. Forced                                   : No
  354. Text #24
  355. ID                                       : 26
  356. Format                                   : UTF-8
  357. Codec ID                                 : S_TEXT/UTF8
  358. Codec ID/Info                            : UTF-8 Plain Text
  359. Duration                                 : 1 h 45 min
  360. Bit rate                                 : 46 b/s
  361. Frame rate                               : 0.197 FPS
  362. Count of elements                        : 1248
  363. Stream size                              : 36.2 KiB (0%)
  364. Language                                 : Malay
  365. Default                                  : No
  366. Forced                                   : No
  367. Text #25
  368. ID                                       : 27
  369. Format                                   : UTF-8
  370. Codec ID                                 : S_TEXT/UTF8
  371. Codec ID/Info                            : UTF-8 Plain Text
  372. Duration                                 : 1 h 45 min
  373. Bit rate                                 : 42 b/s
  374. Frame rate                               : 0.176 FPS
  375. Count of elements                        : 1114
  376. Stream size                              : 33.2 KiB (0%)
  377. Language                                 : Norwegian Bokmal
  378. Default                                  : No
  379. Forced                                   : No
  380. Text #26
  381. ID                                       : 28
  382. Format                                   : UTF-8
  383. Codec ID                                 : S_TEXT/UTF8
  384. Codec ID/Info                            : UTF-8 Plain Text
  385. Duration                                 : 1 h 45 min
  386. Bit rate                                 : 43 b/s
  387. Frame rate                               : 0.179 FPS
  388. Count of elements                        : 1138
  389. Stream size                              : 33.7 KiB (0%)
  390. Language                                 : Dutch
  391. Default                                  : No
  392. Forced                                   : No
  393. Text #27
  394. ID                                       : 29
  395. Format                                   : UTF-8
  396. Codec ID                                 : S_TEXT/UTF8
  397. Codec ID/Info                            : UTF-8 Plain Text
  398. Duration                                 : 1 h 45 min
  399. Bit rate                                 : 40 b/s
  400. Frame rate                               : 0.193 FPS
  401. Count of elements                        : 1225
  402. Stream size                              : 31.4 KiB (0%)
  403. Language                                 : Polish
  404. Default                                  : No
  405. Forced                                   : No
  406. Text #28
  407. ID                                       : 30
  408. Format                                   : UTF-8
  409. Codec ID                                 : S_TEXT/UTF8
  410. Codec ID/Info                            : UTF-8 Plain Text
  411. Duration                                 : 1 h 45 min
  412. Bit rate                                 : 45 b/s
  413. Frame rate                               : 0.196 FPS
  414. Count of elements                        : 1243
  415. Stream size                              : 35.5 KiB (0%)
  416. Title                                    : Brazilian
  417. Language                                 : Portuguese (BR)
  418. Default                                  : No
  419. Forced                                   : No
  420. Text #29
  421. ID                                       : 31
  422. Format                                   : UTF-8
  423. Codec ID                                 : S_TEXT/UTF8
  424. Codec ID/Info                            : UTF-8 Plain Text
  425. Duration                                 : 1 h 45 min
  426. Bit rate                                 : 47 b/s
  427. Frame rate                               : 0.198 FPS
  428. Count of elements                        : 1256
  429. Stream size                              : 36.5 KiB (0%)
  430. Language                                 : Portuguese (PT)
  431. Default                                  : No
  432. Forced                                   : No
  433. Text #30
  434. ID                                       : 32
  435. Format                                   : UTF-8
  436. Codec ID                                 : S_TEXT/UTF8
  437. Codec ID/Info                            : UTF-8 Plain Text
  438. Duration                                 : 1 h 45 min
  439. Bit rate                                 : 51 b/s
  440. Frame rate                               : 0.183 FPS
  441. Count of elements                        : 1162
  442. Stream size                              : 39.9 KiB (0%)
  443. Language                                 : Romanian
  444. Default                                  : No
  445. Forced                                   : No
  446. Text #31
  447. ID                                       : 33
  448. Format                                   : UTF-8
  449. Codec ID                                 : S_TEXT/UTF8
  450. Codec ID/Info                            : UTF-8 Plain Text
  451. Duration                                 : 1 h 45 min
  452. Bit rate                                 : 72 b/s
  453. Frame rate                               : 0.196 FPS
  454. Count of elements                        : 1241
  455. Stream size                              : 56.0 KiB (0%)
  456. Language                                 : Russian
  457. Default                                  : No
  458. Forced                                   : No
  459. Text #32
  460. ID                                       : 34
  461. Format                                   : UTF-8
  462. Codec ID                                 : S_TEXT/UTF8
  463. Codec ID/Info                            : UTF-8 Plain Text
  464. Duration                                 : 1 h 45 min
  465. Bit rate                                 : 42 b/s
  466. Frame rate                               : 0.183 FPS
  467. Count of elements                        : 1161
  468. Stream size                              : 33.1 KiB (0%)
  469. Language                                 : Swedish
  470. Default                                  : No
  471. Forced                                   : No
  472. Text #33
  473. ID                                       : 35
  474. Format                                   : UTF-8
  475. Codec ID                                 : S_TEXT/UTF8
  476. Codec ID/Info                            : UTF-8 Plain Text
  477. Duration                                 : 1 h 45 min
  478. Bit rate                                 : 45 b/s
  479. Frame rate                               : 0.194 FPS
  480. Count of elements                        : 1234
  481. Stream size                              : 35.1 KiB (0%)
  482. Language                                 : Turkish
  483. Default                                  : No
  484. Forced                                   : No
  485. Text #34
  486. ID                                       : 36
  487. Format                                   : UTF-8
  488. Codec ID                                 : S_TEXT/UTF8
  489. Codec ID/Info                            : UTF-8 Plain Text
  490. Duration                                 : 1 h 45 min
  491. Bit rate                                 : 76 b/s
  492. Frame rate                               : 0.199 FPS
  493. Count of elements                        : 1261
  494. Stream size                              : 59.0 KiB (0%)
  495. Language                                 : Ukrainian
  496. Default                                  : No
  497. Forced                                   : No
  498. Text #35
  499. ID                                       : 37
  500. Format                                   : UTF-8
  501. Codec ID                                 : S_TEXT/UTF8
  502. Codec ID/Info                            : UTF-8 Plain Text
  503. Duration                                 : 1 h 45 min
  504. Bit rate                                 : 64 b/s
  505. Frame rate                               : 0.198 FPS
  506. Count of elements                        : 1253
  507. Stream size                              : 50.0 KiB (0%)
  508. Language                                 : Vietnamese
  509. Default                                  : No
  510. Forced                                   : No
  511. Text #36
  512. ID                                       : 38
  513. Format                                   : UTF-8
  514. Codec ID                                 : S_TEXT/UTF8
  515. Codec ID/Info                            : UTF-8 Plain Text
  516. Duration                                 : 1 h 45 min
  517. Bit rate                                 : 50 b/s
  518. Frame rate                               : 0.199 FPS
  519. Count of elements                        : 1264
  520. Stream size                              : 39.0 KiB (0%)
  521. Title                                    : Simplified
  522. Language                                 : Chinese (Simplied)
  523. Default                                  : No
  524. Forced                                   : No
  525. Text #37
  526. ID                                       : 39
  527. Format                                   : UTF-8
  528. Codec ID                                 : S_TEXT/UTF8
  529. Codec ID/Info                            : UTF-8 Plain Text
  530. Duration                                 : 1 h 45 min
  531. Bit rate                                 : 47 b/s
  532. Frame rate                               : 0.196 FPS
  533. Count of elements                        : 1245
  534. Stream size                              : 36.5 KiB (0%)
  535. Title                                    : Traditional
  536. Language                                 : Chinese (Traditional)
  537. Default                                  : No
  538. Forced                                   : No
  539. Menu
  540. 01:40:10.000                             : en:End Credits
复制代码











回复

使用道具 举报

懒得打字嘛,点击右侧快捷回复 【右侧内容,后台自定义】
您需要登录后才可以回帖 登录 | 立即加入

本版积分规则

Copyright © 2024 Comsenz Inc. Powered by 蓝光电影网

本站内容由用户自主分享和转载自互联网,转载目的在于传递更多信息,并不代表本网赞同其观点和对其真实性负责。

如有侵权、违反国家法律政策行为,请联系我们,我们会第一时间及时清除和处理!

举报反馈邮箱:4k1080.com@gmail.com

快速回复 返回顶部 返回列表