找回密码

蓝光电影网

查看: 1119|回复: 0

[2160p-WEB] 唯我独尊[中文字幕].Me.Time.2022.2160p.NF.WEB-DL.DDP5.1.Atmos.DV.MKV.x265-CM 8.79GB

[复制链接]
蓝光币
1704
发表于 2023-1-6 23:13:08 | 显示全部楼层 |阅读模式


◎标  题 惟我独尊
◎译  名 放飞的奶爸 / 爸爸Me Time
◎片  名 Me Time
◎年  代 2022
◎产  地 美国
◎类  别 笑剧
◎语  言 英语
◎上映日期 2022-08-26(美国收集)
◎IMDb评分 5.1/10 (33238人评价)
◎IMDb链接 https://www.imdb.com/title/tt14309446/
◎豆瓣评分 5.3/10 (2711人评价)
◎豆瓣链接 https://movie.douban.com/subject/35567352/
◎片  长 101分钟
◎导  演 约翰·汉博格 John Hamburg
◎编  剧 约翰·汉博格 John Hamburg
◎演  员 凯文·哈特 Kevin Hart
       马克·沃尔伯格 Mark Wahlberg
       雷吉娜·赫尔 Regina Hall
       欧阳万成 Jimmy O. Yang
       塔吉·莫里 Tahj Mowry
       卡尔洛·罗塔 Carlo Rota
       路易斯·赫拉尔多·门德斯 Luis Gerardo Méndez
       梅兰妮·米尼奇诺 Melanie Minichino
       德博拉·S·克雷格 Deborah S. Craig
       伊利娅·伊索雷利·保利诺 Ilia Isorelýs Paulino
        Kieran
       桑德拉·罗斯科 Sandra Rosko
       Michelle DeShon Michelle DeShon
       Allison Bills Allison Bills
       康妮·陈 Connie Chen
       布拉德·李·温德 Brad Lee Wind
◎简  介
  一位全职爸爸辛劳多年,终究可以趁妻儿不在家享用Me Time。他与昔日的死党重逢,过了一个疯狂周末,却差点令自己的人生天翻地覆。
  1. Video
  2. ID                                       : 1
  3. Format                                   : HEVC
  4. Format/Info                              : High Efficiency Video Coding
  5. Format profile                           : Main 10@L5@Main
  6. HDR format                               : Dolby Vision, Version 1.0, dvhe.05.06, BL+RPU
  7. Codec ID                                 : V_MPEGH/ISO/HEVC
  8. Duration                                 : 1 h 44 min
  9. Bit rate                                 : 11.3 Mb/s
  10. Width                                    : 3 840 pixels
  11. Height                                   : 2 160 pixels
  12. Display aspect ratio                     : 16:9
  13. Frame rate mode                          : Constant
  14. Frame rate                               : 24.000 FPS
  15. Color space                              : YUV
  16. Chroma subsampling                       : 4:2:0
  17. Bit depth                                : 10 bits
  18. Bits/(Pixel*Frame)                       : 0.057
  19. Stream size                              : 8.23 GiB (94%)
  20. Default                                  : Yes
  21. Forced                                   : No
  22. Color range                              : Full
  23. Audio
  24. ID                                       : 2
  25. Format                                   : E-AC-3 JOC
  26. Format/Info                              : Enhanced AC-3 with Joint Object Coding
  27. Commercial name                          : Dolby Digital Plus with Dolby Atmos
  28. Codec ID                                 : A_EAC3
  29. Duration                                 : 1 h 44 min
  30. Bit rate mode                            : Constant
  31. Bit rate                                 : 768 kb/s
  32. Channel(s)                               : 6 channels
  33. Channel layout                           : L R C LFE Ls Rs
  34. Sampling rate                            : 48.0 kHz
  35. Frame rate                               : 31.250 FPS (1536 SPF)
  36. Compression mode                         : Lossy
  37. Stream size                              : 572 MiB (6%)
  38. Title                                    : English
  39. Language                                 : English
  40. Service kind                             : Complete Main
  41. Default                                  : No
  42. Forced                                   : No
  43. Complexity index                         : 16
  44. Number of dynamic objects                : 15
  45. Bed channel count                        : 1 channel
  46. Bed channel configuration                : LFE
  47. Text #1
  48. ID                                       : 3
  49. Format                                   : UTF-8
  50. Codec ID                                 : S_TEXT/UTF8
  51. Codec ID/Info                            : UTF-8 Plain Text
  52. Duration                                 : 1 h 35 min
  53. Bit rate                                 : 185 b/s
  54. Frame rate                               : 0.355 FPS
  55. Count of elements                        : 2028
  56. Stream size                              : 129 KiB (0%)
  57. Title                                    : Arabic
  58. Language                                 : Arabic
  59. Default                                  : No
  60. Forced                                   : No
  61. Text #2
  62. ID                                       : 4
  63. Format                                   : UTF-8
  64. Codec ID                                 : S_TEXT/UTF8
  65. Codec ID/Info                            : UTF-8 Plain Text
  66. Duration                                 : 1 h 41 min
  67. Bit rate                                 : 84 b/s
  68. Frame rate                               : 0.324 FPS
  69. Count of elements                        : 1978
  70. Stream size                              : 62.8 KiB (0%)
  71. Title                                    : Basque
  72. Language                                 : Basque
  73. Default                                  : No
  74. Forced                                   : No
  75. Text #3
  76. ID                                       : 5
  77. Format                                   : UTF-8
  78. Codec ID                                 : S_TEXT/UTF8
  79. Codec ID/Info                            : UTF-8 Plain Text
  80. Duration                                 : 1 h 41 min
  81. Bit rate                                 : 81 b/s
  82. Frame rate                               : 0.324 FPS
  83. Count of elements                        : 1981
  84. Stream size                              : 60.9 KiB (0%)
  85. Title                                    : Catalan
  86. Language                                 : Catalan
  87. Default                                  : No
  88. Forced                                   : No
  89. Text #4
  90. ID                                       : 6
  91. Format                                   : UTF-8
  92. Codec ID                                 : S_TEXT/UTF8
  93. Codec ID/Info                            : UTF-8 Plain Text
  94. Duration                                 : 1 h 41 min
  95. Bit rate                                 : 101 b/s
  96. Frame rate                               : 0.333 FPS
  97. Count of elements                        : 2037
  98. Stream size                              : 75.8 KiB (0%)
  99. Title                                    : Chinese Simplified
  100. Language                                 : Chinese
  101. Default                                  : No
  102. Forced                                   : No
  103. Text #5
  104. ID                                       : 7
  105. Format                                   : UTF-8
  106. Codec ID                                 : S_TEXT/UTF8
  107. Codec ID/Info                            : UTF-8 Plain Text
  108. Duration                                 : 1 h 41 min
  109. Bit rate                                 : 99 b/s
  110. Frame rate                               : 0.359 FPS
  111. Count of elements                        : 2192
  112. Stream size                              : 73.9 KiB (0%)
  113. Title                                    : Chinese Traditional
  114. Language                                 : Chinese
  115. Default                                  : No
  116. Forced                                   : No
  117. Text #6
  118. ID                                       : 8
  119. Format                                   : UTF-8
  120. Codec ID                                 : S_TEXT/UTF8
  121. Codec ID/Info                            : UTF-8 Plain Text
  122. Duration                                 : 1 h 41 min
  123. Bit rate                                 : 85 b/s
  124. Frame rate                               : 0.329 FPS
  125. Count of elements                        : 2013
  126. Stream size                              : 64.1 KiB (0%)
  127. Title                                    : Czech
  128. Language                                 : Czech
  129. Default                                  : No
  130. Forced                                   : No
  131. Text #7
  132. ID                                       : 9
  133. Format                                   : UTF-8
  134. Codec ID                                 : S_TEXT/UTF8
  135. Codec ID/Info                            : UTF-8 Plain Text
  136. Duration                                 : 1 h 41 min
  137. Bit rate                                 : 81 b/s
  138. Frame rate                               : 0.308 FPS
  139. Count of elements                        : 1881
  140. Stream size                              : 60.6 KiB (0%)
  141. Title                                    : Danish
  142. Language                                 : Danish
  143. Default                                  : No
  144. Forced                                   : No
  145. Text #8
  146. ID                                       : 10
  147. Format                                   : UTF-8
  148. Codec ID                                 : S_TEXT/UTF8
  149. Codec ID/Info                            : UTF-8 Plain Text
  150. Duration                                 : 1 h 41 min
  151. Bit rate                                 : 81 b/s
  152. Frame rate                               : 0.281 FPS
  153. Count of elements                        : 1718
  154. Stream size                              : 60.9 KiB (0%)
  155. Title                                    : Dutch
  156. Language                                 : Dutch
  157. Default                                  : No
  158. Forced                                   : No
  159. Text #9
  160. ID                                       : 11
  161. Format                                   : UTF-8
  162. Codec ID                                 : S_TEXT/UTF8
  163. Codec ID/Info                            : UTF-8 Plain Text
  164. Duration                                 : 1 h 41 min
  165. Bit rate                                 : 120 b/s
  166. Frame rate                               : 0.378 FPS
  167. Count of elements                        : 2298
  168. Stream size                              : 89.6 KiB (0%)
  169. Title                                    : English [SDH]
  170. Language                                 : English
  171. Default                                  : No
  172. Forced                                   : No
  173. Text #10
  174. ID                                       : 12
  175. Format                                   : UTF-8
  176. Codec ID                                 : S_TEXT/UTF8
  177. Codec ID/Info                            : UTF-8 Plain Text
  178. Duration                                 : 1 h 35 min
  179. Bit rate                                 : 112 b/s
  180. Frame rate                               : 0.364 FPS
  181. Count of elements                        : 2079
  182. Stream size                              : 78.6 KiB (0%)
  183. Title                                    : English
  184. Language                                 : English
  185. Default                                  : No
  186. Forced                                   : No
  187. Text #11
  188. ID                                       : 13
  189. Format                                   : UTF-8
  190. Codec ID                                 : S_TEXT/UTF8
  191. Codec ID/Info                            : UTF-8 Plain Text
  192. Duration                                 : 1 h 41 min
  193. Bit rate                                 : 82 b/s
  194. Frame rate                               : 0.309 FPS
  195. Count of elements                        : 1889
  196. Stream size                              : 61.4 KiB (0%)
  197. Title                                    : Finnish
  198. Language                                 : Finnish
  199. Default                                  : No
  200. Forced                                   : No
  201. Text #12
  202. ID                                       : 14
  203. Format                                   : UTF-8
  204. Codec ID                                 : S_TEXT/UTF8
  205. Codec ID/Info                            : UTF-8 Plain Text
  206. Duration                                 : 1 h 41 min
  207. Bit rate                                 : 109 b/s
  208. Frame rate                               : 0.341 FPS
  209. Count of elements                        : 2076
  210. Stream size                              : 81.4 KiB (0%)
  211. Title                                    : French [SDH]
  212. Language                                 : French
  213. Default                                  : No
  214. Forced                                   : No
  215. Text #13
  216. ID                                       : 15
  217. Format                                   : UTF-8
  218. Codec ID                                 : S_TEXT/UTF8
  219. Codec ID/Info                            : UTF-8 Plain Text
  220. Duration                                 : 1 h 35 min
  221. Bit rate                                 : 108 b/s
  222. Frame rate                               : 0.338 FPS
  223. Count of elements                        : 1935
  224. Stream size                              : 75.7 KiB (0%)
  225. Title                                    : French
  226. Language                                 : French
  227. Default                                  : No
  228. Forced                                   : No
  229. Text #14
  230. ID                                       : 16
  231. Format                                   : UTF-8
  232. Codec ID                                 : S_TEXT/UTF8
  233. Codec ID/Info                            : UTF-8 Plain Text
  234. Duration                                 : 1 h 41 min
  235. Bit rate                                 : 117 b/s
  236. Frame rate                               : 0.341 FPS
  237. Count of elements                        : 2073
  238. Stream size                              : 87.1 KiB (0%)
  239. Title                                    : German [SDH]
  240. Language                                 : German
  241. Default                                  : No
  242. Forced                                   : No
  243. Text #15
  244. ID                                       : 17
  245. Format                                   : UTF-8
  246. Codec ID                                 : S_TEXT/UTF8
  247. Codec ID/Info                            : UTF-8 Plain Text
  248. Duration                                 : 1 h 35 min
  249. Bit rate                                 : 113 b/s
  250. Frame rate                               : 0.336 FPS
  251. Count of elements                        : 1921
  252. Stream size                              : 79.4 KiB (0%)
  253. Title                                    : German
  254. Language                                 : German
  255. Default                                  : No
  256. Forced                                   : No
  257. Text #16
  258. ID                                       : 18
  259. Format                                   : UTF-8
  260. Codec ID                                 : S_TEXT/UTF8
  261. Codec ID/Info                            : UTF-8 Plain Text
  262. Duration                                 : 1 h 41 min
  263. Bit rate                                 : 79 b/s
  264. Frame rate                               : 0.326 FPS
  265. Count of elements                        : 1995
  266. Stream size                              : 59.5 KiB (0%)
  267. Title                                    : Galician
  268. Language                                 : Galician
  269. Default                                  : No
  270. Forced                                   : No
  271. Text #17
  272. ID                                       : 19
  273. Format                                   : UTF-8
  274. Codec ID                                 : S_TEXT/UTF8
  275. Codec ID/Info                            : UTF-8 Plain Text
  276. Duration                                 : 1 h 41 min
  277. Bit rate                                 : 138 b/s
  278. Frame rate                               : 0.326 FPS
  279. Count of elements                        : 1994
  280. Stream size                              : 103 KiB (0%)
  281. Title                                    : Greek
  282. Language                                 : Greek
  283. Default                                  : No
  284. Forced                                   : No
  285. Text #18
  286. ID                                       : 20
  287. Format                                   : UTF-8
  288. Codec ID                                 : S_TEXT/UTF8
  289. Codec ID/Info                            : UTF-8 Plain Text
  290. Duration                                 : 1 h 41 min
  291. Bit rate                                 : 151 b/s
  292. Frame rate                               : 0.321 FPS
  293. Count of elements                        : 1963
  294. Stream size                              : 113 KiB (0%)
  295. Title                                    : Hebrew
  296. Language                                 : Hebrew
  297. Default                                  : No
  298. Forced                                   : No
  299. Text #19
  300. ID                                       : 21
  301. Format                                   : UTF-8
  302. Codec ID                                 : S_TEXT/UTF8
  303. Codec ID/Info                            : UTF-8 Plain Text
  304. Duration                                 : 1 h 41 min
  305. Bit rate                                 : 82 b/s
  306. Frame rate                               : 0.329 FPS
  307. Count of elements                        : 2012
  308. Stream size                              : 61.3 KiB (0%)
  309. Title                                    : Croatian
  310. Language                                 : Croatian
  311. Default                                  : No
  312. Forced                                   : No
  313. Text #20
  314. ID                                       : 22
  315. Format                                   : UTF-8
  316. Codec ID                                 : S_TEXT/UTF8
  317. Codec ID/Info                            : UTF-8 Plain Text
  318. Duration                                 : 1 h 41 min
  319. Bit rate                                 : 82 b/s
  320. Frame rate                               : 0.326 FPS
  321. Count of elements                        : 1991
  322. Stream size                              : 61.4 KiB (0%)
  323. Title                                    : Hungarian
  324. Language                                 : Hungarian
  325. Default                                  : No
  326. Forced                                   : No
  327. Text #21
  328. ID                                       : 23
  329. Format                                   : UTF-8
  330. Codec ID                                 : S_TEXT/UTF8
  331. Codec ID/Info                            : UTF-8 Plain Text
  332. Duration                                 : 1 h 41 min
  333. Bit rate                                 : 86 b/s
  334. Frame rate                               : 0.332 FPS
  335. Count of elements                        : 2027
  336. Stream size                              : 64.2 KiB (0%)
  337. Title                                    : Indonesian
  338. Language                                 : Indonesian
  339. Default                                  : No
  340. Forced                                   : No
  341. Text #22
  342. ID                                       : 24
  343. Format                                   : UTF-8
  344. Codec ID                                 : S_TEXT/UTF8
  345. Codec ID/Info                            : UTF-8 Plain Text
  346. Duration                                 : 1 h 41 min
  347. Bit rate                                 : 78 b/s
  348. Frame rate                               : 0.331 FPS
  349. Count of elements                        : 2025
  350. Stream size                              : 58.4 KiB (0%)
  351. Title                                    : Italian
  352. Language                                 : Italian
  353. Default                                  : No
  354. Forced                                   : No
  355. Text #23
  356. ID                                       : 25
  357. Format                                   : UTF-8
  358. Codec ID                                 : S_TEXT/UTF8
  359. Codec ID/Info                            : UTF-8 Plain Text
  360. Duration                                 : 1 h 41 min
  361. Bit rate                                 : 77 b/s
  362. Frame rate                               : 0.354 FPS
  363. Count of elements                        : 2161
  364. Stream size                              : 57.7 KiB (0%)
  365. Title                                    : Japanese
  366. Language                                 : Japanese
  367. Default                                  : No
  368. Forced                                   : No
  369. Text #24
  370. ID                                       : 26
  371. Format                                   : UTF-8
  372. Codec ID                                 : S_TEXT/UTF8
  373. Codec ID/Info                            : UTF-8 Plain Text
  374. Duration                                 : 1 h 41 min
  375. Bit rate                                 : 120 b/s
  376. Frame rate                               : 0.337 FPS
  377. Count of elements                        : 2059
  378. Stream size                              : 90.2 KiB (0%)
  379. Title                                    : Korean
  380. Language                                 : Korean
  381. Default                                  : No
  382. Forced                                   : No
  383. Text #25
  384. ID                                       : 27
  385. Format                                   : UTF-8
  386. Codec ID                                 : S_TEXT/UTF8
  387. Codec ID/Info                            : UTF-8 Plain Text
  388. Duration                                 : 1 h 41 min
  389. Bit rate                                 : 83 b/s
  390. Frame rate                               : 0.330 FPS
  391. Count of elements                        : 2020
  392. Stream size                              : 62.2 KiB (0%)
  393. Title                                    : Malay
  394. Language                                 : Malay
  395. Default                                  : No
  396. Forced                                   : No
  397. Text #26
  398. ID                                       : 28
  399. Format                                   : UTF-8
  400. Codec ID                                 : S_TEXT/UTF8
  401. Codec ID/Info                            : UTF-8 Plain Text
  402. Duration                                 : 1 h 41 min
  403. Bit rate                                 : 85 b/s
  404. Frame rate                               : 0.311 FPS
  405. Count of elements                        : 1901
  406. Stream size                              : 64.1 KiB (0%)
  407. Title                                    : Norwegian Bokmal
  408. Language                                 : Norwegian Bokmal
  409. Default                                  : No
  410. Forced                                   : No
  411. Text #27
  412. ID                                       : 29
  413. Format                                   : UTF-8
  414. Codec ID                                 : S_TEXT/UTF8
  415. Codec ID/Info                            : UTF-8 Plain Text
  416. Duration                                 : 1 h 41 min
  417. Bit rate                                 : 92 b/s
  418. Frame rate                               : 0.328 FPS
  419. Count of elements                        : 2002
  420. Stream size                              : 69.3 KiB (0%)
  421. Title                                    : Filipino
  422. Language                                 : phi
  423. Default                                  : No
  424. Forced                                   : No
  425. Text #28
  426. ID                                       : 30
  427. Format                                   : UTF-8
  428. Codec ID                                 : S_TEXT/UTF8
  429. Codec ID/Info                            : UTF-8 Plain Text
  430. Duration                                 : 1 h 41 min
  431. Bit rate                                 : 71 b/s
  432. Frame rate                               : 0.324 FPS
  433. Count of elements                        : 1983
  434. Stream size                              : 53.5 KiB (0%)
  435. Title                                    : Polish
  436. Language                                 : Polish
  437. Default                                  : No
  438. Forced                                   : No
  439. Text #29
  440. ID                                       : 31
  441. Format                                   : UTF-8
  442. Codec ID                                 : S_TEXT/UTF8
  443. Codec ID/Info                            : UTF-8 Plain Text
  444. Duration                                 : 1 h 35 min
  445. Bit rate                                 : 116 b/s
  446. Frame rate                               : 0.393 FPS
  447. Count of elements                        : 2254
  448. Stream size                              : 81.5 KiB (0%)
  449. Title                                    : Brazilian Portuguese [SDH]
  450. Language                                 : Portuguese
  451. Default                                  : No
  452. Forced                                   : No
  453. Text #30
  454. ID                                       : 32
  455. Format                                   : UTF-8
  456. Codec ID                                 : S_TEXT/UTF8
  457. Codec ID/Info                            : UTF-8 Plain Text
  458. Duration                                 : 1 h 35 min
  459. Bit rate                                 : 106 b/s
  460. Frame rate                               : 0.358 FPS
  461. Count of elements                        : 2057
  462. Stream size                              : 74.5 KiB (0%)
  463. Title                                    : Brazilian Portuguese
  464. Language                                 : Portuguese
  465. Default                                  : No
  466. Forced                                   : No
  467. Text #31
  468. ID                                       : 33
  469. Format                                   : UTF-8
  470. Codec ID                                 : S_TEXT/UTF8
  471. Codec ID/Info                            : UTF-8 Plain Text
  472. Duration                                 : 1 h 41 min
  473. Bit rate                                 : 80 b/s
  474. Frame rate                               : 0.328 FPS
  475. Count of elements                        : 2004
  476. Stream size                              : 60.0 KiB (0%)
  477. Title                                    : Portuguese
  478. Language                                 : Portuguese
  479. Default                                  : No
  480. Forced                                   : No
  481. Text #32
  482. ID                                       : 34
  483. Format                                   : UTF-8
  484. Codec ID                                 : S_TEXT/UTF8
  485. Codec ID/Info                            : UTF-8 Plain Text
  486. Duration                                 : 1 h 41 min
  487. Bit rate                                 : 96 b/s
  488. Frame rate                               : 0.323 FPS
  489. Count of elements                        : 1973
  490. Stream size                              : 72.2 KiB (0%)
  491. Title                                    : Romanian
  492. Language                                 : Romanian
  493. Default                                  : No
  494. Forced                                   : No
  495. Text #33
  496. ID                                       : 35
  497. Format                                   : UTF-8
  498. Codec ID                                 : S_TEXT/UTF8
  499. Codec ID/Info                            : UTF-8 Plain Text
  500. Duration                                 : 1 h 41 min
  501. Bit rate                                 : 132 b/s
  502. Frame rate                               : 0.333 FPS
  503. Count of elements                        : 2038
  504. Stream size                              : 99.1 KiB (0%)
  505. Title                                    : Russian
  506. Language                                 : Russian
  507. Default                                  : No
  508. Forced                                   : No
  509. Text #34
  510. ID                                       : 36
  511. Format                                   : UTF-8
  512. Codec ID                                 : S_TEXT/UTF8
  513. Codec ID/Info                            : UTF-8 Plain Text
  514. Duration                                 : 1 h 41 min
  515. Bit rate                                 : 85 b/s
  516. Frame rate                               : 0.312 FPS
  517. Count of elements                        : 1906
  518. Stream size                              : 63.9 KiB (0%)
  519. Title                                    : European Spanish
  520. Language                                 : Spanish
  521. Default                                  : No
  522. Forced                                   : No
  523. Text #35
  524. ID                                       : 37
  525. Format                                   : UTF-8
  526. Codec ID                                 : S_TEXT/UTF8
  527. Codec ID/Info                            : UTF-8 Plain Text
  528. Duration                                 : 1 h 41 min
  529. Bit rate                                 : 107 b/s
  530. Frame rate                               : 0.350 FPS
  531. Count of elements                        : 2140
  532. Stream size                              : 80.1 KiB (0%)
  533. Title                                    : Spanish [SDH]
  534. Language                                 : Spanish
  535. Default                                  : No
  536. Forced                                   : No
  537. Text #36
  538. ID                                       : 38
  539. Format                                   : UTF-8
  540. Codec ID                                 : S_TEXT/UTF8
  541. Codec ID/Info                            : UTF-8 Plain Text
  542. Duration                                 : 1 h 41 min
  543. Bit rate                                 : 101 b/s
  544. Frame rate                               : 0.327 FPS
  545. Count of elements                        : 2000
  546. Stream size                              : 75.6 KiB (0%)
  547. Title                                    : Spanish
  548. Language                                 : Spanish
  549. Default                                  : No
  550. Forced                                   : No
  551. Text #37
  552. ID                                       : 39
  553. Format                                   : UTF-8
  554. Codec ID                                 : S_TEXT/UTF8
  555. Codec ID/Info                            : UTF-8 Plain Text
  556. Duration                                 : 1 h 41 min
  557. Bit rate                                 : 82 b/s
  558. Frame rate                               : 0.276 FPS
  559. Count of elements                        : 1686
  560. Stream size                              : 61.5 KiB (0%)
  561. Title                                    : Swedish
  562. Language                                 : Swedish
  563. Default                                  : No
  564. Forced                                   : No
  565. Text #38
  566. ID                                       : 40
  567. Format                                   : UTF-8
  568. Codec ID                                 : S_TEXT/UTF8
  569. Codec ID/Info                            : UTF-8 Plain Text
  570. Duration                                 : 1 h 41 min
  571. Bit rate                                 : 234 b/s
  572. Frame rate                               : 0.333 FPS
  573. Count of elements                        : 2035
  574. Stream size                              : 175 KiB (0%)
  575. Title                                    : Thai
  576. Language                                 : Thai
  577. Default                                  : No
  578. Forced                                   : No
  579. Text #39
  580. ID                                       : 41
  581. Format                                   : UTF-8
  582. Codec ID                                 : S_TEXT/UTF8
  583. Codec ID/Info                            : UTF-8 Plain Text
  584. Duration                                 : 1 h 41 min
  585. Bit rate                                 : 85 b/s
  586. Frame rate                               : 0.329 FPS
  587. Count of elements                        : 2012
  588. Stream size                              : 63.8 KiB (0%)
  589. Title                                    : Turkish
  590. Language                                 : Turkish
  591. Default                                  : No
  592. Forced                                   : No
  593. Text #40
  594. ID                                       : 42
  595. Format                                   : UTF-8
  596. Codec ID                                 : S_TEXT/UTF8
  597. Codec ID/Info                            : UTF-8 Plain Text
  598. Duration                                 : 1 h 41 min
  599. Bit rate                                 : 134 b/s
  600. Frame rate                               : 0.331 FPS
  601. Count of elements                        : 2025
  602. Stream size                              : 100 KiB (0%)
  603. Title                                    : Ukrainian
  604. Language                                 : Ukrainian
  605. Default                                  : No
  606. Forced                                   : No
  607. Text #41
  608. ID                                       : 43
  609. Format                                   : UTF-8
  610. Codec ID                                 : S_TEXT/UTF8
  611. Codec ID/Info                            : UTF-8 Plain Text
  612. Duration                                 : 1 h 41 min
  613. Bit rate                                 : 125 b/s
  614. Frame rate                               : 0.327 FPS
  615. Count of elements                        : 1999
  616. Stream size                              : 93.6 KiB (0%)
  617. Title                                    : Vietnamese
  618. Language                                 : Vietnamese
  619. Default                                  : No
  620. Forced                                   : No
复制代码











回复

使用道具 举报

懒得打字嘛,点击右侧快捷回复 【右侧内容,后台自定义】
您需要登录后才可以回帖 登录 | 立即加入

本版积分规则

Archiver|小黑屋| 蓝光电影网 |网站地图

Copyright © 2021 Comsenz Inc. Powered by 蓝光电影网

蓝光电影网

本站内容由用户自主分享和转载自互联网,转载目的在于传递更多信息,并不代表本网赞同其观点和对其真实性负责。

如有侵权、违反国家法律政策行为,请联系我们,我们会第一时间及时清除和处理!

举报反馈邮箱:4k1080.com@gmail.com

快速回复 返回顶部 返回列表