找回密码

蓝光电影网

查看: 1114|回复: 0

[2160p-WEB] 善恶魔法学院[中文字幕].The.School.for.Good.and.Evil.2022.2160p.NF.WEB-DL.DDP5.1.Atmos.DV.MP4.x265-DVSUX 20.61GB

[复制链接]
蓝光币
1704
发表于 2023-1-6 23:13:19 | 显示全部楼层 |阅读模式


◎标  题 善恶魔法学院
◎译  名 善恶黉舍 / 善恶学院
◎片  名 The School for Good and Evil
◎年  代 2022
◎产  地 美国
◎类  别 剧情 / 行动 / 奇异
◎语  言 英语
◎上映日期 2022-10-19(美国收集)
◎IMDb评分 5.8/10 (26436人评价)
◎IMDb链接 https://www.imdb.com/title/tt2935622/
◎豆瓣评分 5.6/10 (6874人评价)
◎豆瓣链接 https://movie.douban.com/subject/35017053/
◎片  长 147分钟
◎导  演 保罗·费格 Paul Feig
◎编  剧 索曼·查纳尼 Soman Chainani
       大卫·麦基 David Magee
       劳拉·索隆 Laura Solon
◎演  员 查理兹·塞隆 Charlize Theron
       凯丽·华盛顿 Kerry Washington
       索菲亚·怀利 Sofia Wylie
       索菲娅·安妮·卡鲁索 Sophia Anne Caruso
       杨紫琼 Michelle Yeoh
       凯特·布兰切特 Cate Blanchett
       本·金斯利 Ben Kingsley
       劳伦斯·菲什伯恩 Laurence Fishburne
       罗伯·德兰尼 Rob Delaney
       蕾切尔·布鲁姆 Rachel Bloom
       帕蒂·卢波恩 Patti LuPone
       马克·希普 Mark Heap
       厄尔·凯夫 Earl Cave
        Rosie Graham
       杰米·福雷特斯 Jamie Flatters
       基特·杨 Kit Young
       Freya Parks Freya Parks
       钦尼·埃祖杜 Chinenye Ezeudu
       Demi Isaac Oviawe Demi Isaac Oviawe
        Holly Sturton
       阿里·坎 Ali Khan
       乔尔·艾米丽 Joelle Amery
        Olivia Booth-Ford
        Abigail Stones
        Stephanie Siadatan
       彼得·塞拉菲诺威茨 Peter Serafinowicz
       哈维·斯克林肖 Harvey Scrimshaw
       亚当·雷 Adam Ray
       艾玛·刘 Emma Lau
        Briony Scarlett
        Petra Hajduk
        Naomi Weijand
        Kaitlyn Akinpelumi
        Myles Kamwendo
        Oliver Watson
        Misia Butler
        Steven Calvert
       安迪·尼克尔森 Andy Nicholson
       蕾妮·厄尔里奇·卡尔夫斯 Renee Ehrlich Kalfus
◎简  介
  在加瓦尔顿村,两个分歧群的好朋友索菲(索菲娅·安妮·卡鲁索饰)和阿加莎(索菲亚·怀利饰)上演着她们之间不成思议的友谊。索菲是童话爱好者,胡想着逃离普通的村落生活;而阿加莎则具有冷峻的表面,具有实在的女巫所具有的气质。一天早晨,在血红的月亮下,一股强大的气利巴她们带到了善恶魔法学院,每一个出色童话中的实在故事都在这里拉开帷幕。但是,形式从一路头便有些不妙:索菲进了邪恶学院,由魅力四射但措辞刻薄尖锐的莱索夫人(查理兹·塞隆饰)负责;阿加莎则入选善念学院,由阳光善良的多维教授(凯丽·华盛顿饰)监管。据校长(劳伦斯·菲什伯恩饰)所言,与灰姑娘和胡克船主的后代以及亚瑟王英俊的儿子(杰米·福雷特斯)一路上课似乎还算不上是什么困难,只要真爱之吻才能改变法则,让女孩们进入自己原本该去的黉舍。可是,当一个与索菲有着奥秘关系的黑暗危险人物(基特·扬饰)再次出现,并威胁要...
  1. Video
  2. ID                                       : 1
  3. Format                                   : HEVC
  4. Format/Info                              : High Efficiency Video Coding
  5. Format profile                           : Main 10@L5@Main
  6. HDR format                               : Dolby Vision, Version 1.0, dvhe.05.06, BL+RPU
  7. Codec ID                                 : dvhe
  8. Codec ID/Info                            : High Efficiency Video Coding with Dolby Vision
  9. Duration                                 : 2 h 28 min
  10. Bit rate                                 : 19.0 Mb/s
  11. Width                                    : 3 840 pixels
  12. Height                                   : 2 160 pixels
  13. Display aspect ratio                     : 16:9
  14. Frame rate mode                          : Constant
  15. Frame rate                               : 24.000 FPS
  16. Color space                              : YUV
  17. Chroma subsampling                       : 4:2:0
  18. Bit depth                                : 10 bits
  19. Bits/(Pixel*Frame)                       : 0.096
  20. Stream size                              : 19.8 GiB (96%)
  21. Default                                  : Yes
  22. Alternate group                          : 1
  23. Encoded date                             : UTC 2023-01-03 13:02:12
  24. Tagged date                              : UTC 2023-01-03 13:09:05
  25. Color range                              : Full
  26. Codec configuration box                  : hvcC+dvcC
  27. Audio
  28. ID                                       : 2
  29. Format                                   : E-AC-3 JOC
  30. Format/Info                              : Enhanced AC-3 with Joint Object Coding
  31. Commercial name                          : Dolby Digital Plus with Dolby Atmos
  32. Codec ID                                 : ec-3
  33. Duration                                 : 2 h 29 min
  34. Bit rate mode                            : Constant
  35. Bit rate                                 : 768 kb/s
  36. Maximum bit rate                         : 811 kb/s
  37. Channel(s)                               : 6 channels
  38. Channel layout                           : L R C LFE Ls Rs
  39. Sampling rate                            : 48.0 kHz
  40. Frame rate                               : 31.250 FPS (1536 SPF)
  41. Compression mode                         : Lossy
  42. Stream size                              : 819 MiB (4%)
  43. Title                                    : English
  44. Language                                 : English
  45. Service kind                             : Complete Main
  46. Default                                  : Yes
  47. Alternate group                          : 1
  48. Tagged date                              : UTC 2023-01-03 13:09:05
  49. Complexity index                         : Not present / 16
  50. Number of dynamic objects                : 15
  51. Bed channel count                        : 1 channel
  52. Bed channel configuration                : LFE
  53. Text #1
  54. ID                                       : 3
  55. Format                                   : Timed Text
  56. Codec ID                                 : tx3g
  57. Duration                                 : 2 h 17 min
  58. Bit rate mode                            : Variable
  59. Bit rate                                 : 64 b/s
  60. Frame rate                               : 0.479 FPS
  61. Stream size                              : 64.3 KiB (0%)
  62. Title                                    : English
  63. Language                                 : English
  64. Forced                                   : No
  65. Encoded date                             : UTC 2023-01-03 13:08:58
  66. Tagged date                              : UTC 2023-01-03 13:09:05
  67. Text #2
  68. ID                                       : 4
  69. Format                                   : Timed Text
  70. Codec ID                                 : tx3g
  71. Duration                                 : 2 h 26 min
  72. Bit rate mode                            : Variable
  73. Bit rate                                 : 99 b/s
  74. Frame rate                               : 0.714 FPS
  75. Stream size                              : 106 KiB (0%)
  76. Title                                    : English
  77. Language                                 : English
  78. Forced                                   : No
  79. Encoded date                             : UTC 2023-01-03 13:08:58
  80. Tagged date                              : UTC 2023-01-03 13:09:05
  81. Text #3
  82. ID                                       : 5
  83. Format                                   : Timed Text
  84. Codec ID                                 : tx3g
  85. Duration                                 : 2 h 26 min
  86. Bit rate mode                            : Variable
  87. Bit rate                                 : 99 b/s
  88. Frame rate                               : 0.433 FPS
  89. Stream size                              : 106 KiB (0%)
  90. Title                                    : Arabic
  91. Language                                 : Arabic
  92. Forced                                   : No
  93. Encoded date                             : UTC 2023-01-03 13:08:58
  94. Tagged date                              : UTC 2023-01-03 13:09:05
  95. Text #4
  96. ID                                       : 6
  97. Format                                   : Timed Text
  98. Codec ID                                 : tx3g
  99. Duration                                 : 2 h 26 min
  100. Bit rate mode                            : Variable
  101. Bit rate                                 : 55 b/s
  102. Frame rate                               : 0.424 FPS
  103. Stream size                              : 59.2 KiB (0%)
  104. Title                                    : Chinese-Simplified
  105. Language                                 : Chinese (Simplied)
  106. Forced                                   : No
  107. Encoded date                             : UTC 2023-01-03 13:08:58
  108. Tagged date                              : UTC 2023-01-03 13:09:05
  109. Text #5
  110. ID                                       : 7
  111. Format                                   : Timed Text
  112. Codec ID                                 : tx3g
  113. Duration                                 : 2 h 26 min
  114. Bit rate mode                            : Variable
  115. Bit rate                                 : 62 b/s
  116. Frame rate                               : 0.438 FPS
  117. Stream size                              : 66.8 KiB (0%)
  118. Title                                    : Chinese-Traditional
  119. Language                                 : Chinese (Traditional)
  120. Forced                                   : No
  121. Encoded date                             : UTC 2023-01-03 13:08:59
  122. Tagged date                              : UTC 2023-01-03 13:09:05
  123. Text #6
  124. ID                                       : 8
  125. Format                                   : Timed Text
  126. Codec ID                                 : tx3g
  127. Duration                                 : 2 h 26 min
  128. Bit rate mode                            : Variable
  129. Bit rate                                 : 52 b/s
  130. Frame rate                               : 0.423 FPS
  131. Stream size                              : 56.1 KiB (0%)
  132. Title                                    : Croatian
  133. Language                                 : Croatian
  134. Forced                                   : No
  135. Encoded date                             : UTC 2023-01-03 13:08:59
  136. Tagged date                              : UTC 2023-01-03 13:09:05
  137. Text #7
  138. ID                                       : 9
  139. Format                                   : Timed Text
  140. Codec ID                                 : tx3g
  141. Duration                                 : 2 h 26 min
  142. Bit rate mode                            : Variable
  143. Bit rate                                 : 90 b/s
  144. Frame rate                               : 0.684 FPS
  145. Stream size                              : 97.0 KiB (0%)
  146. Title                                    : Czech
  147. Language                                 : Czech
  148. Forced                                   : No
  149. Encoded date                             : UTC 2023-01-03 13:08:59
  150. Tagged date                              : UTC 2023-01-03 13:09:05
  151. Text #8
  152. ID                                       : 10
  153. Format                                   : Timed Text
  154. Codec ID                                 : tx3g
  155. Duration                                 : 2 h 17 min
  156. Bit rate mode                            : Variable
  157. Bit rate                                 : 62 b/s
  158. Frame rate                               : 0.464 FPS
  159. Stream size                              : 62.4 KiB (0%)
  160. Title                                    : Czech
  161. Language                                 : Czech
  162. Forced                                   : No
  163. Encoded date                             : UTC 2023-01-03 13:08:59
  164. Tagged date                              : UTC 2023-01-03 13:09:05
  165. Text #9
  166. ID                                       : 11
  167. Format                                   : Timed Text
  168. Codec ID                                 : tx3g
  169. Duration                                 : 2 h 26 min
  170. Bit rate mode                            : Variable
  171. Bit rate                                 : 55 b/s
  172. Frame rate                               : 0.404 FPS
  173. Stream size                              : 58.6 KiB (0%)
  174. Title                                    : Danish
  175. Language                                 : Danish
  176. Forced                                   : No
  177. Encoded date                             : UTC 2023-01-03 13:08:59
  178. Tagged date                              : UTC 2023-01-03 13:09:05
  179. Text #10
  180. ID                                       : 12
  181. Format                                   : Timed Text
  182. Codec ID                                 : tx3g
  183. Duration                                 : 2 h 26 min
  184. Bit rate mode                            : Variable
  185. Bit rate                                 : 52 b/s
  186. Frame rate                               : 0.375 FPS
  187. Stream size                              : 55.8 KiB (0%)
  188. Title                                    : Dutch
  189. Language                                 : Dutch
  190. Forced                                   : No
  191. Encoded date                             : UTC 2023-01-03 13:08:59
  192. Tagged date                              : UTC 2023-01-03 13:09:05
  193. Text #11
  194. ID                                       : 13
  195. Format                                   : Timed Text
  196. Codec ID                                 : tx3g
  197. Duration                                 : 2 h 26 min
  198. Bit rate mode                            : Variable
  199. Bit rate                                 : 59 b/s
  200. Frame rate                               : 0.415 FPS
  201. Stream size                              : 63.0 KiB (0%)
  202. Title                                    : Filipino
  203. Language                                 : phi
  204. Forced                                   : No
  205. Encoded date                             : UTC 2023-01-03 13:08:59
  206. Tagged date                              : UTC 2023-01-03 13:09:05
  207. Text #12
  208. ID                                       : 14
  209. Format                                   : Timed Text
  210. Codec ID                                 : tx3g
  211. Duration                                 : 2 h 26 min
  212. Bit rate mode                            : Variable
  213. Bit rate                                 : 55 b/s
  214. Frame rate                               : 0.361 FPS
  215. Stream size                              : 58.9 KiB (0%)
  216. Title                                    : Finnish
  217. Language                                 : Finnish
  218. Forced                                   : No
  219. Encoded date                             : UTC 2023-01-03 13:09:00
  220. Tagged date                              : UTC 2023-01-03 13:09:05
  221. Text #13
  222. ID                                       : 15
  223. Format                                   : Timed Text
  224. Codec ID                                 : tx3g
  225. Duration                                 : 2 h 25 min
  226. Bit rate mode                            : Variable
  227. Bit rate                                 : 89 b/s
  228. Frame rate                               : 0.618 FPS
  229. Stream size                              : 95.0 KiB (0%)
  230. Title                                    : French
  231. Language                                 : French
  232. Forced                                   : No
  233. Encoded date                             : UTC 2023-01-03 13:09:00
  234. Tagged date                              : UTC 2023-01-03 13:09:05
  235. Text #14
  236. ID                                       : 16
  237. Format                                   : Timed Text
  238. Codec ID                                 : tx3g
  239. Duration                                 : 2 h 17 min
  240. Bit rate mode                            : Variable
  241. Bit rate                                 : 73 b/s
  242. Frame rate                               : 0.472 FPS
  243. Stream size                              : 73.5 KiB (0%)
  244. Title                                    : French
  245. Language                                 : French
  246. Forced                                   : No
  247. Encoded date                             : UTC 2023-01-03 13:09:00
  248. Tagged date                              : UTC 2023-01-03 13:09:05
  249. Text #15
  250. ID                                       : 17
  251. Format                                   : Timed Text
  252. Codec ID                                 : tx3g
  253. Duration                                 : 2 h 26 min
  254. Bit rate mode                            : Variable
  255. Bit rate                                 : 104 b/s
  256. Frame rate                               : 0.697 FPS
  257. Stream size                              : 112 KiB (0%)
  258. Title                                    : German
  259. Language                                 : German
  260. Forced                                   : No
  261. Encoded date                             : UTC 2023-01-03 13:09:00
  262. Tagged date                              : UTC 2023-01-03 13:09:05
  263. Text #16
  264. ID                                       : 18
  265. Format                                   : Timed Text
  266. Codec ID                                 : tx3g
  267. Duration                                 : 2 h 17 min
  268. Bit rate mode                            : Variable
  269. Bit rate                                 : 73 b/s
  270. Frame rate                               : 0.482 FPS
  271. Stream size                              : 73.2 KiB (0%)
  272. Title                                    : German
  273. Language                                 : German
  274. Forced                                   : No
  275. Encoded date                             : UTC 2023-01-03 13:09:00
  276. Tagged date                              : UTC 2023-01-03 13:09:05
  277. Text #17
  278. ID                                       : 19
  279. Format                                   : Timed Text
  280. Codec ID                                 : tx3g
  281. Duration                                 : 2 h 26 min
  282. Bit rate mode                            : Variable
  283. Bit rate                                 : 94 b/s
  284. Frame rate                               : 0.410 FPS
  285. Stream size                              : 101 KiB (0%)
  286. Title                                    : Greek
  287. Language                                 : Greek
  288. Forced                                   : No
  289. Encoded date                             : UTC 2023-01-03 13:09:01
  290. Tagged date                              : UTC 2023-01-03 13:09:05
  291. Text #18
  292. ID                                       : 20
  293. Format                                   : Timed Text
  294. Codec ID                                 : tx3g
  295. Duration                                 : 2 h 26 min
  296. Bit rate mode                            : Variable
  297. Bit rate                                 : 88 b/s
  298. Frame rate                               : 0.403 FPS
  299. Stream size                              : 94.2 KiB (0%)
  300. Title                                    : Hebrew
  301. Language                                 : Hebrew
  302. Forced                                   : No
  303. Encoded date                             : UTC 2023-01-03 13:09:01
  304. Tagged date                              : UTC 2023-01-03 13:09:05
  305. Text #19
  306. ID                                       : 21
  307. Format                                   : Timed Text
  308. Codec ID                                 : tx3g
  309. Duration                                 : 2 h 25 min
  310. Bit rate mode                            : Variable
  311. Bit rate                                 : 91 b/s
  312. Frame rate                               : 0.615 FPS
  313. Stream size                              : 96.8 KiB (0%)
  314. Title                                    : Hungarian
  315. Language                                 : Hungarian
  316. Forced                                   : No
  317. Encoded date                             : UTC 2023-01-03 13:09:02
  318. Tagged date                              : UTC 2023-01-03 13:09:05
  319. Text #20
  320. ID                                       : 22
  321. Format                                   : Timed Text
  322. Codec ID                                 : tx3g
  323. Duration                                 : 2 h 17 min
  324. Bit rate mode                            : Variable
  325. Bit rate                                 : 65 b/s
  326. Frame rate                               : 0.453 FPS
  327. Stream size                              : 65.4 KiB (0%)
  328. Title                                    : Hungarian
  329. Language                                 : Hungarian
  330. Forced                                   : No
  331. Encoded date                             : UTC 2023-01-03 13:09:02
  332. Tagged date                              : UTC 2023-01-03 13:09:05
  333. Text #21
  334. ID                                       : 23
  335. Format                                   : Timed Text
  336. Codec ID                                 : tx3g
  337. Duration                                 : 2 h 17 min
  338. Bit rate mode                            : Variable
  339. Bit rate                                 : 67 b/s
  340. Frame rate                               : 0.456 FPS
  341. Stream size                              : 67.5 KiB (0%)
  342. Title                                    : Indonesian
  343. Language                                 : Indonesian
  344. Forced                                   : No
  345. Encoded date                             : UTC 2023-01-03 13:09:02
  346. Tagged date                              : UTC 2023-01-03 13:09:05
  347. Text #22
  348. ID                                       : 24
  349. Format                                   : Timed Text
  350. Codec ID                                 : tx3g
  351. Duration                                 : 2 h 17 min
  352. Bit rate mode                            : Variable
  353. Bit rate                                 : 83 b/s
  354. Frame rate                               : 0.564 FPS
  355. Stream size                              : 83.8 KiB (0%)
  356. Title                                    : Indonesian
  357. Language                                 : Indonesian
  358. Forced                                   : No
  359. Encoded date                             : UTC 2023-01-03 13:09:02
  360. Tagged date                              : UTC 2023-01-03 13:09:05
  361. Text #23
  362. ID                                       : 25
  363. Format                                   : Timed Text
  364. Codec ID                                 : tx3g
  365. Duration                                 : 2 h 26 min
  366. Bit rate mode                            : Variable
  367. Bit rate                                 : 83 b/s
  368. Frame rate                               : 0.631 FPS
  369. Stream size                              : 89.0 KiB (0%)
  370. Title                                    : Italian
  371. Language                                 : Italian
  372. Forced                                   : No
  373. Encoded date                             : UTC 2023-01-03 13:09:02
  374. Tagged date                              : UTC 2023-01-03 13:09:05
  375. Text #24
  376. ID                                       : 26
  377. Format                                   : Timed Text
  378. Codec ID                                 : tx3g
  379. Duration                                 : 2 h 17 min
  380. Bit rate mode                            : Variable
  381. Bit rate                                 : 67 b/s
  382. Frame rate                               : 0.486 FPS
  383. Stream size                              : 67.9 KiB (0%)
  384. Title                                    : Italian
  385. Language                                 : Italian
  386. Forced                                   : No
  387. Encoded date                             : UTC 2023-01-03 13:09:02
  388. Tagged date                              : UTC 2023-01-03 13:09:05
  389. Text #25
  390. ID                                       : 27
  391. Format                                   : Timed Text
  392. Codec ID                                 : tx3g
  393. Duration                                 : 2 h 26 min
  394. Bit rate mode                            : Variable
  395. Bit rate                                 : 61 b/s
  396. Frame rate                               : 0.420 FPS
  397. Stream size                              : 65.7 KiB (0%)
  398. Title                                    : Japanese
  399. Language                                 : Japanese
  400. Forced                                   : No
  401. Encoded date                             : UTC 2023-01-03 13:09:02
  402. Tagged date                              : UTC 2023-01-03 13:09:05
  403. Text #26
  404. ID                                       : 28
  405. Format                                   : Timed Text
  406. Codec ID                                 : tx3g
  407. Duration                                 : 2 h 26 min
  408. Bit rate mode                            : Variable
  409. Bit rate                                 : 68 b/s
  410. Frame rate                               : 0.429 FPS
  411. Stream size                              : 72.5 KiB (0%)
  412. Title                                    : Korean
  413. Language                                 : Korean
  414. Forced                                   : No
  415. Encoded date                             : UTC 2023-01-03 13:09:03
  416. Tagged date                              : UTC 2023-01-03 13:09:05
  417. Text #27
  418. ID                                       : 29
  419. Format                                   : Timed Text
  420. Codec ID                                 : tx3g
  421. Duration                                 : 2 h 26 min
  422. Bit rate mode                            : Variable
  423. Bit rate                                 : 54 b/s
  424. Frame rate                               : 0.419 FPS
  425. Stream size                              : 58.4 KiB (0%)
  426. Title                                    : Malay
  427. Language                                 : Malay
  428. Forced                                   : No
  429. Encoded date                             : UTC 2023-01-03 13:09:03
  430. Tagged date                              : UTC 2023-01-03 13:09:05
  431. Text #28
  432. ID                                       : 30
  433. Format                                   : Timed Text
  434. Codec ID                                 : tx3g
  435. Duration                                 : 2 h 26 min
  436. Bit rate mode                            : Variable
  437. Bit rate                                 : 54 b/s
  438. Frame rate                               : 0.390 FPS
  439. Stream size                              : 57.6 KiB (0%)
  440. Title                                    : Norwegian
  441. Language                                 : Norwegian Bokmal
  442. Forced                                   : No
  443. Encoded date                             : UTC 2023-01-03 13:09:03
  444. Tagged date                              : UTC 2023-01-03 13:09:05
  445. Text #29
  446. ID                                       : 31
  447. Format                                   : Timed Text
  448. Codec ID                                 : tx3g
  449. Duration                                 : 2 h 25 min
  450. Bit rate mode                            : Variable
  451. Bit rate                                 : 70 b/s
  452. Frame rate                               : 0.508 FPS
  453. Stream size                              : 74.5 KiB (0%)
  454. Title                                    : Polish
  455. Language                                 : Polish
  456. Forced                                   : No
  457. Encoded date                             : UTC 2023-01-03 13:09:03
  458. Tagged date                              : UTC 2023-01-03 13:09:05
  459. Text #30
  460. ID                                       : 32
  461. Format                                   : Timed Text
  462. Codec ID                                 : tx3g
  463. Duration                                 : 2 h 17 min
  464. Bit rate mode                            : Variable
  465. Bit rate                                 : 60 b/s
  466. Frame rate                               : 0.442 FPS
  467. Stream size                              : 60.7 KiB (0%)
  468. Title                                    : Polish
  469. Language                                 : Polish
  470. Forced                                   : No
  471. Encoded date                             : UTC 2023-01-03 13:09:03
  472. Tagged date                              : UTC 2023-01-03 13:09:05
  473. Text #31
  474. ID                                       : 33
  475. Format                                   : Timed Text
  476. Codec ID                                 : tx3g
  477. Duration                                 : 2 h 17 min
  478. Bit rate mode                            : Variable
  479. Bit rate                                 : 66 b/s
  480. Frame rate                               : 0.490 FPS
  481. Stream size                              : 66.6 KiB (0%)
  482. Title                                    : Portuguese
  483. Language                                 : Portuguese
  484. Forced                                   : No
  485. Encoded date                             : UTC 2023-01-03 13:09:03
  486. Tagged date                              : UTC 2023-01-03 13:09:05
  487. Text #32
  488. ID                                       : 34
  489. Format                                   : Timed Text
  490. Codec ID                                 : tx3g
  491. Duration                                 : 2 h 26 min
  492. Bit rate mode                            : Variable
  493. Bit rate                                 : 56 b/s
  494. Frame rate                               : 0.410 FPS
  495. Stream size                              : 60.2 KiB (0%)
  496. Title                                    : Portuguese
  497. Language                                 : Portuguese
  498. Forced                                   : No
  499. Encoded date                             : UTC 2023-01-03 13:09:03
  500. Tagged date                              : UTC 2023-01-03 13:09:05
  501. Text #33
  502. ID                                       : 35
  503. Format                                   : Timed Text
  504. Codec ID                                 : tx3g
  505. Duration                                 : 2 h 17 min
  506. Bit rate mode                            : Variable
  507. Bit rate                                 : 80 b/s
  508. Frame rate                               : 0.619 FPS
  509. Stream size                              : 80.5 KiB (0%)
  510. Title                                    : Portuguese
  511. Language                                 : Portuguese
  512. Forced                                   : No
  513. Encoded date                             : UTC 2023-01-03 13:09:03
  514. Tagged date                              : UTC 2023-01-03 13:09:05
  515. Text #34
  516. ID                                       : 36
  517. Format                                   : Timed Text
  518. Codec ID                                 : tx3g
  519. Duration                                 : 2 h 26 min
  520. Bit rate mode                            : Variable
  521. Bit rate                                 : 65 b/s
  522. Frame rate                               : 0.406 FPS
  523. Stream size                              : 69.1 KiB (0%)
  524. Title                                    : Romanian
  525. Language                                 : Romanian
  526. Forced                                   : No
  527. Encoded date                             : UTC 2023-01-03 13:09:04
  528. Tagged date                              : UTC 2023-01-03 13:09:05
  529. Text #35
  530. ID                                       : 37
  531. Format                                   : Timed Text
  532. Codec ID                                 : tx3g
  533. Duration                                 : 2 h 26 min
  534. Bit rate mode                            : Variable
  535. Bit rate                                 : 88 b/s
  536. Frame rate                               : 0.425 FPS
  537. Stream size                              : 93.8 KiB (0%)
  538. Title                                    : Russian
  539. Language                                 : Russian
  540. Forced                                   : No
  541. Encoded date                             : UTC 2023-01-03 13:09:04
  542. Tagged date                              : UTC 2023-01-03 13:09:05
  543. Text #36
  544. ID                                       : 38
  545. Format                                   : Timed Text
  546. Codec ID                                 : tx3g
  547. Duration                                 : 2 h 17 min
  548. Bit rate mode                            : Variable
  549. Bit rate                                 : 67 b/s
  550. Frame rate                               : 0.475 FPS
  551. Stream size                              : 67.6 KiB (0%)
  552. Title                                    : Spanish-EU
  553. Language                                 : Spanish
  554. Forced                                   : No
  555. Encoded date                             : UTC 2023-01-03 13:09:04
  556. Tagged date                              : UTC 2023-01-03 13:09:05
  557. Text #37
  558. ID                                       : 39
  559. Format                                   : Timed Text
  560. Codec ID                                 : tx3g
  561. Duration                                 : 2 h 25 min
  562. Bit rate mode                            : Variable
  563. Bit rate                                 : 67 b/s
  564. Frame rate                               : 0.492 FPS
  565. Stream size                              : 71.2 KiB (0%)
  566. Title                                    : Spanish-EU
  567. Language                                 : Spanish
  568. Forced                                   : No
  569. Encoded date                             : UTC 2023-01-03 13:09:04
  570. Tagged date                              : UTC 2023-01-03 13:09:05
  571. Text #38
  572. ID                                       : 40
  573. Format                                   : Timed Text
  574. Codec ID                                 : tx3g
  575. Duration                                 : 2 h 17 min
  576. Bit rate mode                            : Variable
  577. Bit rate                                 : 64 b/s
  578. Frame rate                               : 0.459 FPS
  579. Stream size                              : 64.5 KiB (0%)
  580. Title                                    : Spanish-EU
  581. Language                                 : Spanish
  582. Forced                                   : No
  583. Encoded date                             : UTC 2023-01-03 13:09:04
  584. Tagged date                              : UTC 2023-01-03 13:09:05
  585. Text #39
  586. ID                                       : 41
  587. Format                                   : Timed Text
  588. Codec ID                                 : tx3g
  589. Duration                                 : 2 h 25 min
  590. Bit rate mode                            : Variable
  591. Bit rate                                 : 93 b/s
  592. Frame rate                               : 0.647 FPS
  593. Stream size                              : 99.1 KiB (0%)
  594. Title                                    : Spanish-EU
  595. Language                                 : Spanish
  596. Forced                                   : No
  597. Encoded date                             : UTC 2023-01-03 13:09:04
  598. Tagged date                              : UTC 2023-01-03 13:09:05
  599. Text #40
  600. ID                                       : 42
  601. Format                                   : Timed Text
  602. Codec ID                                 : tx3g
  603. Duration                                 : 2 h 26 min
  604. Bit rate mode                            : Variable
  605. Bit rate                                 : 55 b/s
  606. Frame rate                               : 0.389 FPS
  607. Stream size                              : 58.5 KiB (0%)
  608. Title                                    : Swedish
  609. Language                                 : Swedish
  610. Forced                                   : No
  611. Encoded date                             : UTC 2023-01-03 13:09:04
  612. Tagged date                              : UTC 2023-01-03 13:09:05
  613. Text #41
  614. ID                                       : 43
  615. Format                                   : Timed Text
  616. Codec ID                                 : tx3g
  617. Duration                                 : 2 h 26 min
  618. Bit rate mode                            : Variable
  619. Bit rate                                 : 140 b/s
  620. Frame rate                               : 0.426 FPS
  621. Stream size                              : 150 KiB (0%)
  622. Title                                    : Thai
  623. Language                                 : Thai
  624. Forced                                   : No
  625. Encoded date                             : UTC 2023-01-03 13:09:05
  626. Tagged date                              : UTC 2023-01-03 13:09:05
  627. Text #42
  628. ID                                       : 44
  629. Format                                   : Timed Text
  630. Codec ID                                 : tx3g
  631. Duration                                 : 2 h 17 min
  632. Bit rate mode                            : Variable
  633. Bit rate                                 : 66 b/s
  634. Frame rate                               : 0.406 FPS
  635. Stream size                              : 66.4 KiB (0%)
  636. Title                                    : Turkish
  637. Language                                 : Turkish
  638. Forced                                   : No
  639. Encoded date                             : UTC 2023-01-03 13:09:05
  640. Tagged date                              : UTC 2023-01-03 13:09:05
  641. Text #43
  642. ID                                       : 45
  643. Format                                   : Timed Text
  644. Codec ID                                 : tx3g
  645. Duration                                 : 2 h 17 min
  646. Bit rate mode                            : Variable
  647. Bit rate                                 : 87 b/s
  648. Frame rate                               : 0.510 FPS
  649. Stream size                              : 87.9 KiB (0%)
  650. Title                                    : Turkish
  651. Language                                 : Turkish
  652. Forced                                   : No
  653. Encoded date                             : UTC 2023-01-03 13:09:05
  654. Tagged date                              : UTC 2023-01-03 13:09:05
  655. Text #44
  656. ID                                       : 46
  657. Format                                   : Timed Text
  658. Codec ID                                 : tx3g
  659. Duration                                 : 2 h 26 min
  660. Bit rate mode                            : Variable
  661. Bit rate                                 : 90 b/s
  662. Frame rate                               : 0.423 FPS
  663. Stream size                              : 96.8 KiB (0%)
  664. Title                                    : Ukrainian
  665. Language                                 : Ukrainian
  666. Forced                                   : No
  667. Encoded date                             : UTC 2023-01-03 13:09:05
  668. Tagged date                              : UTC 2023-01-03 13:09:05
  669. Text #45
  670. ID                                       : 47
  671. Format                                   : Timed Text
  672. Codec ID                                 : tx3g
  673. Duration                                 : 2 h 26 min
  674. Bit rate mode                            : Variable
  675. Bit rate                                 : 80 b/s
  676. Frame rate                               : 0.418 FPS
  677. Stream size                              : 85.6 KiB (0%)
  678. Title                                    : Vietnamese
  679. Language                                 : Vietnamese
  680. Forced                                   : No
  681. Encoded date                             : UTC 2023-01-03 13:09:05
  682. Tagged date                              : UTC 2023-01-03 13:09:05
复制代码











回复

使用道具 举报

懒得打字嘛,点击右侧快捷回复 【右侧内容,后台自定义】
您需要登录后才可以回帖 登录 | 立即加入

本版积分规则

Archiver|小黑屋| 蓝光电影网 |网站地图

Copyright © 2021 Comsenz Inc. Powered by 蓝光电影网

蓝光电影网

本站内容由用户自主分享和转载自互联网,转载目的在于传递更多信息,并不代表本网赞同其观点和对其真实性负责。

如有侵权、违反国家法律政策行为,请联系我们,我们会第一时间及时清除和处理!

举报反馈邮箱:4k1080.com@gmail.com

快速回复 返回顶部 返回列表