找回密码

蓝光电影网

查看: 1039|回复: 0

[2160p-WEB] 爱与冰激凌[中文字幕].Love.And.Gelato.2022.2160p.NF.WEB-DL.x265.10bit.HDR.DDP5.1-KKKK 12.39GB

[复制链接]
蓝光币
1704
发表于 2023-1-6 23:13:21 | 显示全部楼层 |阅读模式


◎标  题 爱与冰激凌
◎片  名 Love & Gelato
◎年  代 2022
◎产  地 美国
◎类  别 剧情 / 笑剧 / 恋爱
◎语  言 英语
◎上映日期 2022-06-22(美国收集)
◎IMDb评分 5.1/10 (5374人评价)
◎IMDb链接 https://www.imdb.com/title/tt15521050/
◎豆瓣评分 5.4/10 (797人评价)
◎豆瓣链接 https://movie.douban.com/subject/35700211/
◎片  长 110分钟
◎导  演 布兰登·坎普 Brandon Camp
◎编  剧 布兰登·坎普 Brandon Camp
◎演  员 瓦伦蒂娜·洛多文尼 Valentina Lodovini
       欧文·麦克唐纳 Owen McDonnell
       苏珊娜·斯卡格斯 Susanna Skaggs
       安杰利卡·华盛顿 Anjelika Washington
       罗宾·汤尼 Robin Tunney
       萨尔·南尼 Saul Nanni
       托比亚·德·安杰利斯 Tobia De Angelis
◎简  介
  为了完成母亲的遗言,莉娜在罗马度过大学起头前的暑假。她在那边发现了浪漫和奇遇,也迷上了意式冰淇淋。
  1. Video
  2. ID                                       : 1
  3. Format                                   : HEVC
  4. Format/Info                              : High Efficiency Video Coding
  5. Format profile                           : Main 10@L5@Main
  6. HDR format                               : SMPTE ST 2086, HDR10 compatible
  7. Codec ID                                 : V_MPEGH/ISO/HEVC
  8. Duration                                 : 1 h 50 min
  9. Bit rate                                 : 15.4 Mb/s
  10. Width                                    : 3 840 pixels
  11. Height                                   : 2 160 pixels
  12. Display aspect ratio                     : 16:9
  13. Frame rate mode                          : Constant
  14. Frame rate                               : 24.000 FPS
  15. Color space                              : YUV
  16. Chroma subsampling                       : 4:2:0 (Type 2)
  17. Bit depth                                : 10 bits
  18. Bits/(Pixel*Frame)                       : 0.077
  19. Stream size                              : 11.9 GiB (96%)
  20. Language                                 : English
  21. Default                                  : Yes
  22. Forced                                   : No
  23. Color range                              : Limited
  24. Color primaries                          : BT.2020
  25. Transfer characteristics                 : PQ
  26. Matrix coefficients                      : BT.2020 non-constant
  27. Mastering display color primaries        : Display P3
  28. Mastering display luminance              : min: 0.0001 cd/m2, max: 1000 cd/m2
  29. Maximum Content Light Level              : 1141 cd/m2
  30. Maximum Frame-Average Light Level        : 240 cd/m2
  31. Audio
  32. ID                                       : 2
  33. Format                                   : E-AC-3
  34. Format/Info                              : Enhanced AC-3
  35. Commercial name                          : Dolby Digital Plus
  36. Codec ID                                 : A_EAC3
  37. Duration                                 : 1 h 52 min
  38. Bit rate mode                            : Constant
  39. Bit rate                                 : 640 kb/s
  40. Channel(s)                               : 6 channels
  41. Channel layout                           : L R C LFE Ls Rs
  42. Sampling rate                            : 48.0 kHz
  43. Frame rate                               : 31.250 FPS (1536 SPF)
  44. Compression mode                         : Lossy
  45. Stream size                              : 514 MiB (4%)
  46. Language                                 : English
  47. Service kind                             : Complete Main
  48. Default                                  : Yes
  49. Forced                                   : No
  50. Text #1
  51. ID                                       : 3
  52. Format                                   : UTF-8
  53. Codec ID                                 : S_TEXT/UTF8
  54. Codec ID/Info                            : UTF-8 Plain Text
  55. Duration                                 : 1 h 39 min
  56. Bit rate                                 : 13 b/s
  57. Frame rate                               : 0.063 FPS
  58. Count of elements                        : 379
  59. Stream size                              : 9.88 KiB (0%)
  60. Title                                    : Forced
  61. Language                                 : English
  62. Default                                  : Yes
  63. Forced                                   : Yes
  64. Text #2
  65. ID                                       : 4
  66. Format                                   : UTF-8
  67. Codec ID                                 : S_TEXT/UTF8
  68. Codec ID/Info                            : UTF-8 Plain Text
  69. Duration                                 : 1 h 47 min
  70. Bit rate                                 : 69 b/s
  71. Frame rate                               : 0.328 FPS
  72. Count of elements                        : 2106
  73. Stream size                              : 54.6 KiB (0%)
  74. Title                                    : SDH
  75. Language                                 : English
  76. Default                                  : No
  77. Forced                                   : No
  78. Text #3
  79. ID                                       : 5
  80. Format                                   : UTF-8
  81. Codec ID                                 : S_TEXT/UTF8
  82. Codec ID/Info                            : UTF-8 Plain Text
  83. Duration                                 : 1 h 45 min
  84. Bit rate                                 : 106 b/s
  85. Frame rate                               : 0.294 FPS
  86. Count of elements                        : 1857
  87. Stream size                              : 82.4 KiB (0%)
  88. Language                                 : Arabic
  89. Default                                  : No
  90. Forced                                   : No
  91. Text #4
  92. ID                                       : 6
  93. Format                                   : UTF-8
  94. Codec ID                                 : S_TEXT/UTF8
  95. Codec ID/Info                            : UTF-8 Plain Text
  96. Duration                                 : 1 h 50 min
  97. Bit rate                                 : 54 b/s
  98. Frame rate                               : 0.278 FPS
  99. Count of elements                        : 1836
  100. Stream size                              : 44.4 KiB (0%)
  101. Language                                 : Catalan
  102. Default                                  : No
  103. Forced                                   : No
  104. Text #5
  105. ID                                       : 7
  106. Format                                   : UTF-8
  107. Codec ID                                 : S_TEXT/UTF8
  108. Codec ID/Info                            : UTF-8 Plain Text
  109. Duration                                 : 1 h 45 min
  110. Bit rate                                 : 57 b/s
  111. Frame rate                               : 0.285 FPS
  112. Count of elements                        : 1798
  113. Stream size                              : 44.0 KiB (0%)
  114. Language                                 : Czech
  115. Default                                  : No
  116. Forced                                   : No
  117. Text #6
  118. ID                                       : 8
  119. Format                                   : UTF-8
  120. Codec ID                                 : S_TEXT/UTF8
  121. Codec ID/Info                            : UTF-8 Plain Text
  122. Duration                                 : 1 h 50 min
  123. Bit rate                                 : 55 b/s
  124. Frame rate                               : 0.271 FPS
  125. Count of elements                        : 1796
  126. Stream size                              : 44.7 KiB (0%)
  127. Language                                 : Danish
  128. Default                                  : No
  129. Forced                                   : No
  130. Text #7
  131. ID                                       : 9
  132. Format                                   : UTF-8
  133. Codec ID                                 : S_TEXT/UTF8
  134. Codec ID/Info                            : UTF-8 Plain Text
  135. Duration                                 : 1 h 45 min
  136. Bit rate                                 : 65 b/s
  137. Frame rate                               : 0.279 FPS
  138. Count of elements                        : 1767
  139. Stream size                              : 50.3 KiB (0%)
  140. Language                                 : German
  141. Default                                  : No
  142. Forced                                   : No
  143. Text #8
  144. ID                                       : 10
  145. Format                                   : UTF-8
  146. Codec ID                                 : S_TEXT/UTF8
  147. Codec ID/Info                            : UTF-8 Plain Text
  148. Duration                                 : 1 h 50 min
  149. Bit rate                                 : 95 b/s
  150. Frame rate                               : 0.268 FPS
  151. Count of elements                        : 1776
  152. Stream size                              : 77.2 KiB (0%)
  153. Language                                 : Greek
  154. Default                                  : No
  155. Forced                                   : No
  156. Text #9
  157. ID                                       : 11
  158. Format                                   : UTF-8
  159. Codec ID                                 : S_TEXT/UTF8
  160. Codec ID/Info                            : UTF-8 Plain Text
  161. Duration                                 : 1 h 45 min
  162. Bit rate                                 : 65 b/s
  163. Frame rate                               : 0.285 FPS
  164. Count of elements                        : 1801
  165. Stream size                              : 50.8 KiB (0%)
  166. Title                                    : SDH
  167. Language                                 : Spanish
  168. Default                                  : No
  169. Forced                                   : No
  170. Text #10
  171. ID                                       : 12
  172. Format                                   : UTF-8
  173. Codec ID                                 : S_TEXT/UTF8
  174. Codec ID/Info                            : UTF-8 Plain Text
  175. Duration                                 : 1 h 50 min
  176. Bit rate                                 : 54 b/s
  177. Frame rate                               : 0.256 FPS
  178. Count of elements                        : 1692
  179. Stream size                              : 44.3 KiB (0%)
  180. Language                                 : Spanish
  181. Default                                  : No
  182. Forced                                   : No
  183. Text #11
  184. ID                                       : 13
  185. Format                                   : UTF-8
  186. Codec ID                                 : S_TEXT/UTF8
  187. Codec ID/Info                            : UTF-8 Plain Text
  188. Duration                                 : 1 h 45 min
  189. Bit rate                                 : 60 b/s
  190. Frame rate                               : 0.282 FPS
  191. Count of elements                        : 1776
  192. Stream size                              : 46.8 KiB (0%)
  193. Language                                 : Spanish
  194. Default                                  : No
  195. Forced                                   : No
  196. Text #12
  197. ID                                       : 14
  198. Format                                   : UTF-8
  199. Codec ID                                 : S_TEXT/UTF8
  200. Codec ID/Info                            : UTF-8 Plain Text
  201. Duration                                 : 1 h 45 min
  202. Bit rate                                 : 63 b/s
  203. Frame rate                               : 0.286 FPS
  204. Count of elements                        : 1809
  205. Stream size                              : 48.9 KiB (0%)
  206. Title                                    : Europe
  207. Language                                 : Spanish (150)
  208. Default                                  : No
  209. Forced                                   : No
  210. Text #13
  211. ID                                       : 15
  212. Format                                   : UTF-8
  213. Codec ID                                 : S_TEXT/UTF8
  214. Codec ID/Info                            : UTF-8 Plain Text
  215. Duration                                 : 1 h 45 min
  216. Bit rate                                 : 59 b/s
  217. Frame rate                               : 0.305 FPS
  218. Count of elements                        : 1927
  219. Stream size                              : 45.7 KiB (0%)
  220. Language                                 : Basque
  221. Default                                  : No
  222. Forced                                   : No
  223. Text #14
  224. ID                                       : 16
  225. Format                                   : UTF-8
  226. Codec ID                                 : S_TEXT/UTF8
  227. Codec ID/Info                            : UTF-8 Plain Text
  228. Duration                                 : 1 h 45 min
  229. Bit rate                                 : 58 b/s
  230. Frame rate                               : 0.274 FPS
  231. Count of elements                        : 1727
  232. Stream size                              : 45.4 KiB (0%)
  233. Language                                 : Finnish
  234. Default                                  : No
  235. Forced                                   : No
  236. Text #15
  237. ID                                       : 17
  238. Format                                   : UTF-8
  239. Codec ID                                 : S_TEXT/UTF8
  240. Codec ID/Info                            : UTF-8 Plain Text
  241. Duration                                 : 1 h 50 min
  242. Bit rate                                 : 61 b/s
  243. Frame rate                               : 0.268 FPS
  244. Count of elements                        : 1777
  245. Stream size                              : 49.5 KiB (0%)
  246. Language                                 : fil
  247. Default                                  : No
  248. Forced                                   : No
  249. Text #16
  250. ID                                       : 18
  251. Format                                   : UTF-8
  252. Codec ID                                 : S_TEXT/UTF8
  253. Codec ID/Info                            : UTF-8 Plain Text
  254. Duration                                 : 1 h 50 min
  255. Bit rate                                 : 58 b/s
  256. Frame rate                               : 0.283 FPS
  257. Count of elements                        : 1873
  258. Stream size                              : 47.5 KiB (0%)
  259. Language                                 : French
  260. Default                                  : No
  261. Forced                                   : No
  262. Text #17
  263. ID                                       : 19
  264. Format                                   : UTF-8
  265. Codec ID                                 : S_TEXT/UTF8
  266. Codec ID/Info                            : UTF-8 Plain Text
  267. Duration                                 : 1 h 50 min
  268. Bit rate                                 : 53 b/s
  269. Frame rate                               : 0.278 FPS
  270. Count of elements                        : 1841
  271. Stream size                              : 43.4 KiB (0%)
  272. Language                                 : Galician
  273. Default                                  : No
  274. Forced                                   : No
  275. Text #18
  276. ID                                       : 20
  277. Format                                   : UTF-8
  278. Codec ID                                 : S_TEXT/UTF8
  279. Codec ID/Info                            : UTF-8 Plain Text
  280. Duration                                 : 1 h 45 min
  281. Bit rate                                 : 100 b/s
  282. Frame rate                               : 0.294 FPS
  283. Count of elements                        : 1854
  284. Stream size                              : 77.2 KiB (0%)
  285. Language                                 : Hebrew
  286. Default                                  : No
  287. Forced                                   : No
  288. Text #19
  289. ID                                       : 21
  290. Format                                   : UTF-8
  291. Codec ID                                 : S_TEXT/UTF8
  292. Codec ID/Info                            : UTF-8 Plain Text
  293. Duration                                 : 1 h 50 min
  294. Bit rate                                 : 50 b/s
  295. Frame rate                               : 0.290 FPS
  296. Count of elements                        : 1924
  297. Stream size                              : 40.9 KiB (0%)
  298. Language                                 : Croatian
  299. Default                                  : No
  300. Forced                                   : No
  301. Text #20
  302. ID                                       : 22
  303. Format                                   : UTF-8
  304. Codec ID                                 : S_TEXT/UTF8
  305. Codec ID/Info                            : UTF-8 Plain Text
  306. Duration                                 : 1 h 45 min
  307. Bit rate                                 : 61 b/s
  308. Frame rate                               : 0.281 FPS
  309. Count of elements                        : 1776
  310. Stream size                              : 47.2 KiB (0%)
  311. Language                                 : Hungarian
  312. Default                                  : No
  313. Forced                                   : No
  314. Text #21
  315. ID                                       : 23
  316. Format                                   : UTF-8
  317. Codec ID                                 : S_TEXT/UTF8
  318. Codec ID/Info                            : UTF-8 Plain Text
  319. Duration                                 : 1 h 45 min
  320. Bit rate                                 : 59 b/s
  321. Frame rate                               : 0.306 FPS
  322. Count of elements                        : 1934
  323. Stream size                              : 45.6 KiB (0%)
  324. Language                                 : Indonesian
  325. Default                                  : No
  326. Forced                                   : No
  327. Text #22
  328. ID                                       : 24
  329. Format                                   : UTF-8
  330. Codec ID                                 : S_TEXT/UTF8
  331. Codec ID/Info                            : UTF-8 Plain Text
  332. Duration                                 : 1 h 50 min
  333. Bit rate                                 : 78 b/s
  334. Frame rate                               : 0.316 FPS
  335. Count of elements                        : 2098
  336. Stream size                              : 63.5 KiB (0%)
  337. Title                                    : SDH
  338. Language                                 : Italian
  339. Default                                  : No
  340. Forced                                   : No
  341. Text #23
  342. ID                                       : 25
  343. Format                                   : UTF-8
  344. Codec ID                                 : S_TEXT/UTF8
  345. Codec ID/Info                            : UTF-8 Plain Text
  346. Duration                                 : 1 h 50 min
  347. Bit rate                                 : 43 b/s
  348. Frame rate                               : 0.208 FPS
  349. Count of elements                        : 1380
  350. Stream size                              : 35.1 KiB (0%)
  351. Language                                 : Italian
  352. Default                                  : No
  353. Forced                                   : No
  354. Text #24
  355. ID                                       : 26
  356. Format                                   : UTF-8
  357. Codec ID                                 : S_TEXT/UTF8
  358. Codec ID/Info                            : UTF-8 Plain Text
  359. Duration                                 : 1 h 45 min
  360. Bit rate                                 : 66 b/s
  361. Frame rate                               : 0.285 FPS
  362. Count of elements                        : 1794
  363. Stream size                              : 51.2 KiB (0%)
  364. Language                                 : Italian
  365. Default                                  : No
  366. Forced                                   : No
  367. Text #25
  368. ID                                       : 27
  369. Format                                   : UTF-8
  370. Codec ID                                 : S_TEXT/UTF8
  371. Codec ID/Info                            : UTF-8 Plain Text
  372. Duration                                 : 1 h 45 min
  373. Bit rate                                 : 64 b/s
  374. Frame rate                               : 0.301 FPS
  375. Count of elements                        : 1902
  376. Stream size                              : 50.0 KiB (0%)
  377. Language                                 : Japanese
  378. Default                                  : No
  379. Forced                                   : No
  380. Text #26
  381. ID                                       : 28
  382. Format                                   : UTF-8
  383. Codec ID                                 : S_TEXT/UTF8
  384. Codec ID/Info                            : UTF-8 Plain Text
  385. Duration                                 : 1 h 50 min
  386. Bit rate                                 : 75 b/s
  387. Frame rate                               : 0.284 FPS
  388. Count of elements                        : 1881
  389. Stream size                              : 61.3 KiB (0%)
  390. Language                                 : Korean
  391. Default                                  : No
  392. Forced                                   : No
  393. Text #27
  394. ID                                       : 29
  395. Format                                   : UTF-8
  396. Codec ID                                 : S_TEXT/UTF8
  397. Codec ID/Info                            : UTF-8 Plain Text
  398. Duration                                 : 1 h 50 min
  399. Bit rate                                 : 56 b/s
  400. Frame rate                               : 0.278 FPS
  401. Count of elements                        : 1839
  402. Stream size                              : 45.9 KiB (0%)
  403. Language                                 : Malay
  404. Default                                  : No
  405. Forced                                   : No
  406. Text #28
  407. ID                                       : 30
  408. Format                                   : UTF-8
  409. Codec ID                                 : S_TEXT/UTF8
  410. Codec ID/Info                            : UTF-8 Plain Text
  411. Duration                                 : 1 h 50 min
  412. Bit rate                                 : 56 b/s
  413. Frame rate                               : 0.218 FPS
  414. Count of elements                        : 1440
  415. Stream size                              : 45.5 KiB (0%)
  416. Language                                 : Norwegian Bokmal
  417. Default                                  : No
  418. Forced                                   : No
  419. Text #29
  420. ID                                       : 31
  421. Format                                   : UTF-8
  422. Codec ID                                 : S_TEXT/UTF8
  423. Codec ID/Info                            : UTF-8 Plain Text
  424. Duration                                 : 1 h 45 min
  425. Bit rate                                 : 58 b/s
  426. Frame rate                               : 0.222 FPS
  427. Count of elements                        : 1400
  428. Stream size                              : 45.2 KiB (0%)
  429. Language                                 : Dutch
  430. Default                                  : No
  431. Forced                                   : No
  432. Text #30
  433. ID                                       : 32
  434. Format                                   : UTF-8
  435. Codec ID                                 : S_TEXT/UTF8
  436. Codec ID/Info                            : UTF-8 Plain Text
  437. Duration                                 : 1 h 45 min
  438. Bit rate                                 : 56 b/s
  439. Frame rate                               : 0.294 FPS
  440. Count of elements                        : 1854
  441. Stream size                              : 43.6 KiB (0%)
  442. Language                                 : Polish
  443. Default                                  : No
  444. Forced                                   : No
  445. Text #31
  446. ID                                       : 33
  447. Format                                   : UTF-8
  448. Codec ID                                 : S_TEXT/UTF8
  449. Codec ID/Info                            : UTF-8 Plain Text
  450. Duration                                 : 1 h 50 min
  451. Bit rate                                 : 58 b/s
  452. Frame rate                               : 0.257 FPS
  453. Count of elements                        : 1703
  454. Stream size                              : 47.2 KiB (0%)
  455. Language                                 : Portuguese
  456. Default                                  : No
  457. Forced                                   : No
  458. Text #32
  459. ID                                       : 34
  460. Format                                   : UTF-8
  461. Codec ID                                 : S_TEXT/UTF8
  462. Codec ID/Info                            : UTF-8 Plain Text
  463. Duration                                 : 1 h 45 min
  464. Bit rate                                 : 77 b/s
  465. Frame rate                               : 0.304 FPS
  466. Count of elements                        : 1922
  467. Stream size                              : 59.6 KiB (0%)
  468. Title                                    : Brazil (SDH)
  469. Language                                 : Portuguese (BR)
  470. Default                                  : No
  471. Forced                                   : No
  472. Text #33
  473. ID                                       : 35
  474. Format                                   : UTF-8
  475. Codec ID                                 : S_TEXT/UTF8
  476. Codec ID/Info                            : UTF-8 Plain Text
  477. Duration                                 : 1 h 50 min
  478. Bit rate                                 : 55 b/s
  479. Frame rate                               : 0.277 FPS
  480. Count of elements                        : 1831
  481. Stream size                              : 44.8 KiB (0%)
  482. Title                                    : Brazil
  483. Language                                 : Portuguese (BR)
  484. Default                                  : No
  485. Forced                                   : No
  486. Text #34
  487. ID                                       : 36
  488. Format                                   : UTF-8
  489. Codec ID                                 : S_TEXT/UTF8
  490. Codec ID/Info                            : UTF-8 Plain Text
  491. Duration                                 : 1 h 45 min
  492. Bit rate                                 : 68 b/s
  493. Frame rate                               : 0.280 FPS
  494. Count of elements                        : 1765
  495. Stream size                              : 52.6 KiB (0%)
  496. Title                                    : Brazil
  497. Language                                 : Portuguese (BR)
  498. Default                                  : No
  499. Forced                                   : No
  500. Text #35
  501. ID                                       : 37
  502. Format                                   : UTF-8
  503. Codec ID                                 : S_TEXT/UTF8
  504. Codec ID/Info                            : UTF-8 Plain Text
  505. Duration                                 : 1 h 50 min
  506. Bit rate                                 : 61 b/s
  507. Frame rate                               : 0.232 FPS
  508. Count of elements                        : 1533
  509. Stream size                              : 49.7 KiB (0%)
  510. Language                                 : Romanian
  511. Default                                  : No
  512. Forced                                   : No
  513. Text #36
  514. ID                                       : 38
  515. Format                                   : UTF-8
  516. Codec ID                                 : S_TEXT/UTF8
  517. Codec ID/Info                            : UTF-8 Plain Text
  518. Duration                                 : 1 h 50 min
  519. Bit rate                                 : 92 b/s
  520. Frame rate                               : 0.273 FPS
  521. Count of elements                        : 1806
  522. Stream size                              : 75.0 KiB (0%)
  523. Language                                 : Russian
  524. Default                                  : No
  525. Forced                                   : No
  526. Text #37
  527. ID                                       : 39
  528. Format                                   : UTF-8
  529. Codec ID                                 : S_TEXT/UTF8
  530. Codec ID/Info                            : UTF-8 Plain Text
  531. Duration                                 : 1 h 45 min
  532. Bit rate                                 : 59 b/s
  533. Frame rate                               : 0.232 FPS
  534. Count of elements                        : 1467
  535. Stream size                              : 45.8 KiB (0%)
  536. Language                                 : Swedish
  537. Default                                  : No
  538. Forced                                   : No
  539. Text #38
  540. ID                                       : 40
  541. Format                                   : UTF-8
  542. Codec ID                                 : S_TEXT/UTF8
  543. Codec ID/Info                            : UTF-8 Plain Text
  544. Duration                                 : 1 h 45 min
  545. Bit rate                                 : 155 b/s
  546. Frame rate                               : 0.298 FPS
  547. Count of elements                        : 1879
  548. Stream size                              : 120 KiB (0%)
  549. Language                                 : Thai
  550. Default                                  : No
  551. Forced                                   : No
  552. Text #39
  553. ID                                       : 41
  554. Format                                   : UTF-8
  555. Codec ID                                 : S_TEXT/UTF8
  556. Codec ID/Info                            : UTF-8 Plain Text
  557. Duration                                 : 1 h 50 min
  558. Bit rate                                 : 57 b/s
  559. Frame rate                               : 0.259 FPS
  560. Count of elements                        : 1713
  561. Stream size                              : 46.4 KiB (0%)
  562. Language                                 : Turkish
  563. Default                                  : No
  564. Forced                                   : No
  565. Text #40
  566. ID                                       : 42
  567. Format                                   : UTF-8
  568. Codec ID                                 : S_TEXT/UTF8
  569. Codec ID/Info                            : UTF-8 Plain Text
  570. Duration                                 : 1 h 50 min
  571. Bit rate                                 : 90 b/s
  572. Frame rate                               : 0.278 FPS
  573. Count of elements                        : 1841
  574. Stream size                              : 73.0 KiB (0%)
  575. Language                                 : Ukrainian
  576. Default                                  : No
  577. Forced                                   : No
  578. Text #41
  579. ID                                       : 43
  580. Format                                   : UTF-8
  581. Codec ID                                 : S_TEXT/UTF8
  582. Codec ID/Info                            : UTF-8 Plain Text
  583. Duration                                 : 1 h 45 min
  584. Bit rate                                 : 82 b/s
  585. Frame rate                               : 0.253 FPS
  586. Count of elements                        : 1598
  587. Stream size                              : 63.9 KiB (0%)
  588. Language                                 : Vietnamese
  589. Default                                  : No
  590. Forced                                   : No
  591. Text #42
  592. ID                                       : 44
  593. Format                                   : UTF-8
  594. Codec ID                                 : S_TEXT/UTF8
  595. Codec ID/Info                            : UTF-8 Plain Text
  596. Duration                                 : 1 h 45 min
  597. Bit rate                                 : 64 b/s
  598. Frame rate                               : 0.306 FPS
  599. Count of elements                        : 1931
  600. Stream size                              : 50.1 KiB (0%)
  601. Title                                    : Simplified
  602. Language                                 : Chinese (Simplied)
  603. Default                                  : No
  604. Forced                                   : No
  605. Text #43
  606. ID                                       : 45
  607. Format                                   : UTF-8
  608. Codec ID                                 : S_TEXT/UTF8
  609. Codec ID/Info                            : UTF-8 Plain Text
  610. Duration                                 : 1 h 50 min
  611. Bit rate                                 : 61 b/s
  612. Frame rate                               : 0.286 FPS
  613. Count of elements                        : 1896
  614. Stream size                              : 49.5 KiB (0%)
  615. Title                                    : Traditional
  616. Language                                 : Chinese (Traditional)
  617. Default                                  : No
  618. Forced                                   : No
复制代码











回复

使用道具 举报

懒得打字嘛,点击右侧快捷回复 【右侧内容,后台自定义】
您需要登录后才可以回帖 登录 | 立即加入

本版积分规则

Archiver|小黑屋| 蓝光电影网 |网站地图

Copyright © 2021 Comsenz Inc. Powered by 蓝光电影网

蓝光电影网

本站内容由用户自主分享和转载自互联网,转载目的在于传递更多信息,并不代表本网赞同其观点和对其真实性负责。

如有侵权、违反国家法律政策行为,请联系我们,我们会第一时间及时清除和处理!

举报反馈邮箱:4k1080.com@gmail.com

快速回复 返回顶部 返回列表