找回密码

蓝光电影网

查看: 1054|回复: 3

[2160p] 黑亚当.Black.Adam.2022.2160p.UHD.BluRay.x265.10bit.HDR.DDP5.1.Atmos-RARBG 7.67GB

[复制链接]
蓝光币
1704
发表于 2023-1-7 01:47:54 | 显示全部楼层 |阅读模式


◎标  题 黑亚当
◎译  名 轰隆亚当
◎片  名 Black Adam
◎年  代 2022
◎产  地 美国 / 加拿大 / 新西兰 / 匈牙利
◎类  别 行动 / 科幻 / 奇异 / 冒险
◎语  言 英语
◎上映日期 2022-10-19(法国) / 2022-10-21(美国)
◎IMDb评分 6.5/10 (197037人评价)
◎IMDb链接 https://www.imdb.com/title/tt6443346/
◎豆瓣评分 5.7/10 (60354人评价)
◎豆瓣链接 https://movie.douban.com/subject/26959697/
◎片  长 125分钟
◎导  演 佐米·希尔拉 Jaume Collet-Serra
◎编  剧 亚当·希泰凯尔 Adam Sztykiel
       罗里·海恩斯 Rory Haines
       苏哈·诺什瓦尼 Sohrab Noshirvani
       比尔·帕克 Bill Parker
       C·C·贝克 C.C. Beck
       奥托·班德 Otto Binder
◎演  员 道恩·强森 Dwayne Johnson
       阿尔迪斯·霍吉 Aldis Hodge
       皮尔斯·布鲁斯南 Pierce Brosnan
       诺亚·琴蒂内奥 Noah Centineo
       莎拉·夏希 Sarah Shahi
       昆泰莎·斯文戴尔 Quintessa Swindell
       马尔万·肯扎里 Marwan Kenzari
       博德希·萨邦圭 Bodhi Sabongui
       穆罕默德·阿米尔 Mohammed Amer
       詹姆斯·卡萨蒂-莫耶尔 James Cusati-Moyer
       哈隆·克里斯蒂安 Jalon Christian
       本杰明·帕特森 Benjamin Patterson
       奥德娅·哈尔维 Odelya Halevi
       乌利·拉图基孚 Uli Latukefu
       詹尼佛·霍兰德 Jennifer Holland
       亨利·温克勒 Henry Winkler
       哈伊姆·吉拉菲 Chaim Jeraffi
       杰曼·翰苏 Djimon Hounsou
       桑娜·海恩斯 Sanna Haynes
       托内亚·斯图尔特 Tonea Stewart
       帕特里克·萨邦圭 Patrick Sabongui
       约瑟夫·盖特 Joseph Gatt
       杰梅因·里弗斯 Jermaine Rivers
       里贾纳·陈婷 Regina Ting Chen
       卡梅隆·莫伊尔 Cameron Moir
       德里克·罗素 Derek Russo
       小安杰尔·罗萨里奥 Angel Rosario Jr.
       克里斯托弗·马修·库克 Christopher Matthew Cook
       娜塔莉·伯恩 Natalie Burn
       亨利·卡维尔 Henry Cavill
       维奥拉·戴维斯 Viola Davis
       施奎塔·詹姆斯 Shiquita James
       拉希姆·赖利 Rahiem Riley
       海拉姆·加西亚 Hiram Garcia
       道恩·强森 Dwayne Johnson
       达妮·加西亚 Dany Garcia
       托比·艾默里奇 Toby Emmerich
       沃尔特·滨田 Walter Hamada
       乔夫·琼斯 Geoff Johns
       艾瑞克·麦克勒德 Eric McLeod
       洛内·巴尔菲 Lorne Balfe
       劳伦斯·谢尔 Lawrence Sher
       汤姆·迈耶 Tom Meyer
       Kevin Gilbert Kevin Gilbert
       库尔特和巴尔特 Kurt and Bart
◎简  介
  这个天下需要超级豪杰…… 黑亚当来临。                                    
                                黑亚当(道恩·强森 饰)被赋予了现代诸神无所事事的气力,但很快就被封印。近五千年后,他终究重见天日,并将在现代天下以唯一无二的方式利用正义。
  1. Video
  2. ID                                       : 1
  3. Format                                   : HEVC
  4. Format/Info                              : High Efficiency Video Coding
  5. Format profile                           : Main 10@L5.1@Main
  6. HDR format                               : SMPTE ST 2086, HDR10 compatible
  7. Codec ID                                 : V_MPEGH/ISO/HEVC
  8. Duration                                 : 2 h 4 min
  9. Bit rate                                 : 8 021 kb/s
  10. Width                                    : 3 840 pixels
  11. Height                                   : 1 608 pixels
  12. Display aspect ratio                     : 2.40:1
  13. Frame rate mode                          : Constant
  14. Frame rate                               : 23.976 (24000/1001) FPS
  15. Color space                              : YUV
  16. Chroma subsampling                       : 4:2:0
  17. Bit depth                                : 10 bits
  18. Bits/(Pixel*Frame)                       : 0.054
  19. Stream size                              : 7.00 GiB (91%)
  20. Writing library                          : x265 3.5+rarbg-HDR-38-20255e6:[Linux][clang 16.0.0][64 bit] 10bit
  21. Encoding settings                        : cpuid=1111039 / frame-threads=6 / wpp / no-pmode / no-pme / no-psnr / no-ssim / log-level=2 / input-csp=1 / input-res=3840x1608 / interlace=0 / total-frames=0 / level-idc=51 / high-tier=1 / uhd-bd=0 / ref=4 / no-allow-non-conformance / repeat-headers / annexb / aud / no-eob / no-eos / no-hrd / info / hash=0 / no-temporal-layers / no-open-gop / min-keyint=1 / keyint=24 / gop-lookahead=0 / bframes=4 / b-adapt=2 / b-pyramid / bframe-bias=0 / rc-lookahead=25 / lookahead-slices=4 / scenecut=40 / no-hist-scenecut / radl=0 / no-splice / no-intra-refresh / ctu=64 / min-cu-size=8 / rect / no-amp / max-tu-size=32 / tu-inter-depth=1 / tu-intra-depth=1 / limit-tu=0 / rdoq-level=2 / dynamic-rd=0.00 / no-ssim-rd / signhide / no-tskip / nr-intra=0 / nr-inter=0 / no-constrained-intra / strong-intra-smoothing / max-merge=3 / limit-refs=3 / no-limit-modes / me=3 / subme=3 / merange=57 / temporal-mvp / no-frame-dup / no-hme / weightp / no-weightb / no-analyze-src-pics / deblock=0:0 / no-sao / no-sao-non-deblock / rd=4 / selective-sao=0 / no-early-skip / rskip / no-fast-intra / no-tskip-fast / no-cu-lossless / no-b-intra / no-splitrd-skip / rdpenalty=0 / psy-rd=2.00 / psy-rdoq=1.00 / no-rd-refine / no-lossless / cbqpoffs=0 / crqpoffs=0 / rc=abr / bitrate=8000 / qcomp=0.60 / qpstep=4 / stats-write=0 / stats-read=2 / cplxblur=20.0 / qblur=0.5 / ipratio=1.40 / pbratio=1.30 / aq-mode=1 / aq-strength=1.00 / cutree / zone-count=0 / no-strict-cbr / qg-size=32 / no-rc-grain / qpmax=69 / qpmin=0 / no-const-vbv / sar=1 / overscan=0 / videoformat=5 / range=0 / colorprim=9 / transfer=16 / colormatrix=9 / chromaloc=0 / display-window=0 / master-display=G(13250,34500)B(7500,3000)R(34000,16000)WP(15635,16450)L(10000000,1) / cll=718,301 / min-luma=0 / max-luma=1023 / log2-max-poc-lsb=8 / vui-timing-info / vui-hrd-info / slices=1 / no-opt-qp-pps / no-opt-ref-list-length-pps / no-multi-pass-opt-rps / scenecut-bias=0.05 / hist-threshold=0.03 / no-opt-cu-delta-qp / no-aq-motion / hdr10 / hdr10-opt / no-dhdr10-opt / no-idr-recovery-sei / analysis-reuse-level=0 / analysis-save-reuse-level=0 / analysis-load-reuse-level=0 / scale-factor=0 / refine-intra=0 / refine-inter=0 / refine-mv=1 / refine-ctu-distortion=0 / no-limit-sao / ctu-info=0 / no-lowpass-dct / refine-analysis-type=0 / copy-pic=1 / max-ausize-factor=1.0 / no-dynamic-refine / no-single-sei / no-hevc-aq / no-svt / no-field / qp-adaptation-range=1.00 / scenecut-aware-qp=0conformance-window-offsets / right=0 / bottom=0 / decoder-max-rate=0 / no-vbv-live-multi-pass
  22. Default                                  : Yes
  23. Forced                                   : No
  24. Color range                              : Limited
  25. Color primaries                          : BT.2020
  26. Transfer characteristics                 : PQ
  27. Matrix coefficients                      : BT.2020 non-constant
  28. Mastering display color primaries        : Display P3
  29. Mastering display luminance              : min: 0.0001 cd/m2, max: 1000 cd/m2
  30. Maximum Content Light Level              : 718 cd/m2
  31. Maximum Frame-Average Light Level        : 301 cd/m2
  32. Audio
  33. ID                                       : 2
  34. Format                                   : E-AC-3 JOC
  35. Format/Info                              : Enhanced AC-3 with Joint Object Coding
  36. Commercial name                          : Dolby Digital Plus with Dolby Atmos
  37. Codec ID                                 : A_EAC3
  38. Duration                                 : 2 h 4 min
  39. Bit rate mode                            : Constant
  40. Bit rate                                 : 768 kb/s
  41. Channel(s)                               : 6 channels
  42. Channel layout                           : L R C LFE Ls Rs
  43. Sampling rate                            : 48.0 kHz
  44. Frame rate                               : 31.250 FPS (1536 SPF)
  45. Compression mode                         : Lossy
  46. Stream size                              : 686 MiB (9%)
  47. Title                                    : English DDP Atmos 5.1
  48. Language                                 : English
  49. Service kind                             : Complete Main
  50. Default                                  : Yes
  51. Forced                                   : No
  52. Complexity index                         : 16
  53. Number of dynamic objects                : 15
  54. Bed channel count                        : 1 channel
  55. Bed channel configuration                : LFE
  56. Text #1
  57. ID                                       : 3
  58. Format                                   : UTF-8
  59. Codec ID                                 : S_TEXT/UTF8
  60. Codec ID/Info                            : UTF-8 Plain Text
  61. Duration                                 : 1 h 45 min
  62. Bit rate                                 : 2 b/s
  63. Frame rate                               : 0.013 FPS
  64. Count of elements                        : 82
  65. Stream size                              : 1.73 KiB (0%)
  66. Title                                    : English Forced SRT
  67. Language                                 : English
  68. Default                                  : No
  69. Forced                                   : Yes
  70. Text #2
  71. ID                                       : 4
  72. Format                                   : UTF-8
  73. Codec ID                                 : S_TEXT/UTF8
  74. Codec ID/Info                            : UTF-8 Plain Text
  75. Duration                                 : 1 h 57 min
  76. Bit rate                                 : 46 b/s
  77. Frame rate                               : 0.193 FPS
  78. Count of elements                        : 1358
  79. Stream size                              : 39.8 KiB (0%)
  80. Title                                    : English SRT
  81. Language                                 : English
  82. Default                                  : Yes
  83. Forced                                   : No
  84. Text #3
  85. ID                                       : 5
  86. Format                                   : UTF-8
  87. Codec ID                                 : S_TEXT/UTF8
  88. Codec ID/Info                            : UTF-8 Plain Text
  89. Duration                                 : 1 h 57 min
  90. Bit rate                                 : 57 b/s
  91. Frame rate                               : 0.251 FPS
  92. Count of elements                        : 1767
  93. Stream size                              : 49.7 KiB (0%)
  94. Title                                    : English SDH SRT
  95. Language                                 : English
  96. Default                                  : No
  97. Forced                                   : No
  98. Menu
  99. 00:00:00.000                             : en:Chapter 01
  100. 00:10:23.581                             : en:Chapter 02
  101. 00:19:57.279                             : en:Chapter 03
  102. 00:29:29.893                             : en:Chapter 04
  103. 00:38:35.146                             : en:Chapter 05
  104. 00:50:41.955                             : en:Chapter 06
  105. 01:00:21.409                             : en:Chapter 07
  106. 01:09:44.722                             : en:Chapter 08
  107. 01:19:36.021                             : en:Chapter 09
  108. 01:29:12.263                             : en:Chapter 10
  109. 01:40:20.389                             : en:Chapter 11
  110. 01:49:40.740                             : en:Chapter 12
  111. 01:53:13.077                             : en:Chapter 13
复制代码











回复

使用道具 举报

头像被屏蔽
蓝光币
1
发表于 2023-3-25 01:50:01 | 显示全部楼层
提示: 该帖被管理员或版主屏蔽
回复 支持 反对

使用道具 举报

蓝光币
1
发表于 2023-3-25 01:56:18 | 显示全部楼层
谢谢lz666666666666666666
回复 支持 反对

使用道具 举报

蓝光币
2
发表于 2023-5-22 21:34:26 | 显示全部楼层

谢谢lz666666666666666666
回复 支持 反对

使用道具 举报

懒得打字嘛,点击右侧快捷回复 【右侧内容,后台自定义】
您需要登录后才可以回帖 登录 | 立即加入

本版积分规则

Archiver|小黑屋| 蓝光电影网 |网站地图

Copyright © 2021 Comsenz Inc. Powered by 蓝光电影网

蓝光电影网

本站内容由用户自主分享和转载自互联网,转载目的在于传递更多信息,并不代表本网赞同其观点和对其真实性负责。

如有侵权、违反国家法律政策行为,请联系我们,我们会第一时间及时清除和处理!

举报反馈邮箱:4k1080.com@gmail.com

快速回复 返回顶部 返回列表