找回密码

蓝光电影网

查看: 1189|回复: 0

[2160p] 铁面战警.Mutant.Action.1993.SPANISH.2160p.BluRay.x265.10bit.SDR.DTS-HD.MA.TrueHD.7.1.Atmos-SWTYBLZ 38.62GB

[复制链接]
蓝光币
1704
发表于 2023-1-7 01:48:07 | 显示全部楼层 |阅读模式


◎标  题 铁面战警
◎译  名 Action mutante / Mutant Action
◎片  名 Acción mutante
◎年  代 1993
◎产  地 西班牙 / 法国
◎类  别 笑剧 / 科幻 / 惊悚 / 犯罪
◎语  言 西班牙语
◎上映日期 1993-02-03
◎IMDb评分 6.4/10 (5406人评价)
◎IMDb链接 https://www.imdb.com/title/tt0106215/
◎豆瓣评分 6.5/10 (69人评价)
◎豆瓣链接 https://movie.douban.com/subject/2067537/
◎片  长 90 分钟
◎导  演 艾利克斯·德·拉·伊格莱希亚 Álex de la Iglesia
◎编  剧 艾利克斯·德·拉·伊格莱希亚 Álex de la Iglesia
       豪尔赫·格力加耶切瓦利亚 Jorge Guerricaechevarría
◎演  员 埃丝特·加西亚 Esther García
       弗朗西斯科·梅斯特 Francisco Maestre
       恩里克·圣弗兰西斯科 Enrique San Francisco
       圣地亚哥·塞古拉 Santiago Segura
       安东尼奥·雷西内斯 Antonio Resines
       卡拉·埃莱哈尔德 Karra Elejalde
       费奥多尔·阿特金 Féodor Atkine
       萝西·德·帕尔马 Rossy de Palma
       比维安·费尔南德斯 Bibiana Fernández
       阿图罗·阿里巴斯 Arturo Arribas
       杰米·布兰奇 Jaime Blanch
       Saturnino García Saturnino García
       费尔南多·古林 Fernando Guillén
       Ion Gabella Ion Gabella
       Pololo Pololo
       亚历克斯·安克吕罗 Álex Angulo
       佩德罗·阿莫多瓦 Pedro Almodóvar
       埃丝特·加西亚 Esther García
       阿古斯丁·阿莫多瓦 Agustín Almodóvar
       Carles Gusi Carles Gusi
       巴勃罗·布兰科 Pablo Blanco
       何塞·路易斯·阿里扎巴拉加 José Luis Arrizabalaga
       比阿弗拉 Biaffra
       莉娜·摩苏姆 Lena Mossum
       Estíbaliz Markiegi Estíbaliz Markiegi
       Pau Costa Pau Costa
       Poli Cantero Poli Cantero
       Susana Sánchez Susana Sánchez
       Paca Almenara Paca Almenara
       豪尔赫·格力加耶切瓦利亚 Jorge Guerricaechevarría
       Emilio Ruiz del Río Emilio Ruiz del Río
       Carlos J. Santos Carlos J. Santos
◎简  介
  In a future world ruled by good-looking people, a terrorist group of mutants led by Ramon Yarritu kidnap the daughter of Orujo, a rich businessman, to claim for the rights of the ugly people. Escaping from the police in their spaceship, Ramon try to kill his gang in order to get all the ransom. The trip ends abruptly when they crash in Axturiax, the planet of the crazy miners w...
  1. Video
  2. ID                                       : 1
  3. Format                                   : HEVC
  4. Format/Info                              : High Efficiency Video Coding
  5. Format profile                           : Main 10@L5.1@High
  6. Codec ID                                 : V_MPEGH/ISO/HEVC
  7. Duration                                 : 1 h 34 min
  8. Bit rate                                 : 49.2 Mb/s
  9. Width                                    : 3 840 pixels
  10. Height                                   : 1 606 pixels
  11. Display aspect ratio                     : 2.40:1
  12. Frame rate mode                          : Constant
  13. Frame rate                               : 24.000 FPS
  14. Color space                              : YUV
  15. Chroma subsampling                       : 4:2:0
  16. Bit depth                                : 10 bits
  17. Bits/(Pixel*Frame)                       : 0.332
  18. Stream size                              : 32.5 GiB (85%)
  19. Writing library                          : x265 3.0+1-ed72af837053:[Windows][GCC 8.2.0][64 bit] 10bit
  20. Encoding settings                        : cpuid=1111039 / frame-threads=6 / numa-pools=40 / wpp / no-pmode / no-pme / no-psnr / no-ssim / log-level=2 / input-csp=1 / input-res=3840x1606 / interlace=0 / total-frames=136126 / level-idc=51 / high-tier=1 / uhd-bd=0 / ref=3 / no-allow-non-conformance / repeat-headers / annexb / aud / hrd / info / hash=0 / no-temporal-layers / no-open-gop / min-keyint=1 / keyint=24 / gop-lookahead=0 / bframes=4 / b-adapt=2 / b-pyramid / bframe-bias=0 / rc-lookahead=25 / lookahead-slices=4 / scenecut=40 / radl=0 / no-splice / no-intra-refresh / ctu=64 / min-cu-size=8 / no-rect / no-amp / max-tu-size=32 / tu-inter-depth=1 / tu-intra-depth=1 / limit-tu=0 / rdoq-level=0 / dynamic-rd=0.00 / no-ssim-rd / signhide / no-tskip / nr-intra=0 / nr-inter=0 / no-constrained-intra / strong-intra-smoothing / max-merge=2 / limit-refs=3 / no-limit-modes / me=1 / subme=2 / merange=57 / temporal-mvp / weightp / no-weightb / no-analyze-src-pics / deblock=0:0 / no-sao / no-sao-non-deblock / rd=3 / no-early-skip / rskip / no-fast-intra / no-tskip-fast / no-cu-lossless / no-b-intra / no-splitrd-skip / rdpenalty=0 / psy-rd=2.00 / psy-rdoq=0.00 / no-rd-refine / no-lossless / cbqpoffs=0 / crqpoffs=0 / rc=crf / crf=16.0 / qcomp=0.60 / qpstep=4 / stats-write=0 / stats-read=0 / vbv-maxrate=160000 / vbv-bufsize=160000 / vbv-init=0.9 / crf-max=0.0 / crf-min=0.0 / ipratio=1.40 / pbratio=1.30 / aq-mode=1 / aq-strength=1.00 / cutree / zone-count=0 / no-strict-cbr / qg-size=32 / no-rc-grain / qpmax=69 / qpmin=0 / no-const-vbv / sar=1 / overscan=0 / videoformat=5 / range=0 / colorprim=2 / transfer=2 / colormatrix=2 / chromaloc=0 / display-window=0 / max-cll=0,0 / min-luma=0 / max-luma=1023 / log2-max-poc-lsb=8 / vui-timing-info / vui-hrd-info / slices=1 / opt-qp-pps / opt-ref-list-length-pps / no-multi-pass-opt-rps / scenecut-bias=0.05 / no-opt-cu-delta-qp / no-aq-motion / no-hdr / no-hdr-opt / no-dhdr10-opt / no-idr-recovery-sei / analysis-reuse-level=5 / scale-factor=0 / refine-intra=0 / refine-inter=0 / refine-mv=0 / refine-ctu-distortion=0 / no-limit-sao / ctu-info=0 / no-lowpass-dct / refine-analysis-type=0 / copy-pic=1 / max-ausize-factor=1.0 / no-dynamic-refine / no-single-sei / no-hevc-aq / qp-adaptation-range=1.00
  21. Default                                  : Yes
  22. Forced                                   : No
  23. Audio #1
  24. ID                                       : 2
  25. ID in the original source medium         : 4352 (0x1100)
  26. Format                                   : MLP FBA 16-ch
  27. Format/Info                              : Meridian Lossless Packing FBA with 16-channel presentation
  28. Commercial name                          : Dolby TrueHD with Dolby Atmos
  29. Codec ID                                 : A_TRUEHD
  30. Duration                                 : 1 h 34 min
  31. Bit rate mode                            : Variable
  32. Bit rate                                 : 3 722 kb/s
  33. Maximum bit rate                         : 5 469 kb/s
  34. Channel(s)                               : 8 channels
  35. Channel layout                           : L R C LFE Ls Rs Lb Rb
  36. Sampling rate                            : 48.0 kHz
  37. Frame rate                               : 1 200.000 FPS (40 SPF)
  38. Bit depth                                : 24 bits
  39. Compression mode                         : Lossless
  40. Stream size                              : 2.46 GiB (6%)
  41. Title                                    : TrueHD 7.1 Atmos
  42. Language                                 : Spanish
  43. Default                                  : Yes
  44. Forced                                   : No
  45. Original source medium                   : Blu-ray
  46. Number of dynamic objects                : 11
  47. Bed channel count                        : 1 channel
  48. Bed channel configuration                : LFE
  49. Audio #2
  50. ID                                       : 3
  51. Format                                   : DTS XLL
  52. Format/Info                              : Digital Theater Systems
  53. Commercial name                          : DTS-HD Master Audio
  54. Codec ID                                 : A_DTS
  55. Duration                                 : 1 h 34 min
  56. Bit rate mode                            : Variable
  57. Bit rate                                 : 4 661 kb/s
  58. Channel(s)                               : 8 channels
  59. Channel layout                           : C L R LFE Lb Rb Lss Rss
  60. Sampling rate                            : 48.0 kHz
  61. Frame rate                               : 93.750 FPS (512 SPF)
  62. Bit depth                                : 24 bits
  63. Compression mode                         : Lossless
  64. Stream size                              : 3.08 GiB (8%)
  65. Title                                    : DTS-HD MA 7.1
  66. Language                                 : Spanish
  67. Default                                  : No
  68. Forced                                   : No
  69. Audio #3
  70. ID                                       : 4
  71. ID in the original source medium         : 4352 (0x1100)
  72. Format                                   : AC-3
  73. Format/Info                              : Audio Coding 3
  74. Commercial name                          : Dolby Digital
  75. Codec ID                                 : A_AC3
  76. Duration                                 : 1 h 34 min
  77. Bit rate mode                            : Constant
  78. Bit rate                                 : 384 kb/s
  79. Channel(s)                               : 6 channels
  80. Channel layout                           : L R C LFE Ls Rs
  81. Sampling rate                            : 48.0 kHz
  82. Frame rate                               : 31.250 FPS (1536 SPF)
  83. Compression mode                         : Lossy
  84. Stream size                              : 260 MiB (1%)
  85. Title                                    : DD 5.1
  86. Language                                 : Spanish
  87. Service kind                             : Complete Main
  88. Default                                  : No
  89. Forced                                   : No
  90. Original source medium                   : Blu-ray
  91. Text #1
  92. ID                                       : 5
  93. Format                                   : UTF-8
  94. Codec ID                                 : S_TEXT/UTF8
  95. Codec ID/Info                            : UTF-8 Plain Text
  96. Duration                                 : 1 h 29 min
  97. Bit rate                                 : 55 b/s
  98. Frame rate                               : 0.207 FPS
  99. Count of elements                        : 1111
  100. Stream size                              : 36.6 KiB (0%)
  101. Language                                 : English
  102. Default                                  : Yes
  103. Forced                                   : No
  104. Text #2
  105. ID                                       : 6
  106. Format                                   : UTF-8
  107. Codec ID                                 : S_TEXT/UTF8
  108. Codec ID/Info                            : UTF-8 Plain Text
  109. Duration                                 : 1 h 29 min
  110. Bit rate                                 : 57 b/s
  111. Frame rate                               : 0.212 FPS
  112. Count of elements                        : 1136
  113. Stream size                              : 37.7 KiB (0%)
  114. Title                                    : SDH
  115. Language                                 : English
  116. Default                                  : No
  117. Forced                                   : No
  118. Text #3
  119. ID                                       : 7
  120. ID in the original source medium         : 4768 (0x12A0)
  121. Format                                   : PGS
  122. Muxing mode                              : zlib
  123. Codec ID                                 : S_HDMV/PGS
  124. Codec ID/Info                            : Picture based subtitle format used on BDs/HD-DVDs
  125. Duration                                 : 1 h 29 min
  126. Bit rate                                 : 35.9 kb/s
  127. Frame rate                               : 0.423 FPS
  128. Count of elements                        : 2268
  129. Stream size                              : 22.9 MiB (0%)
  130. Language                                 : English
  131. Default                                  : No
  132. Forced                                   : No
  133. Original source medium                   : Blu-ray
  134. Text #4
  135. ID                                       : 8
  136. ID in the original source medium         : 4769 (0x12A1)
  137. Format                                   : PGS
  138. Muxing mode                              : zlib
  139. Codec ID                                 : S_HDMV/PGS
  140. Codec ID/Info                            : Picture based subtitle format used on BDs/HD-DVDs
  141. Duration                                 : 1 h 33 min
  142. Bit rate                                 : 50.7 kb/s
  143. Frame rate                               : 0.482 FPS
  144. Count of elements                        : 2692
  145. Stream size                              : 33.8 MiB (0%)
  146. Language                                 : English
  147. Default                                  : No
  148. Forced                                   : No
  149. Original source medium                   : Blu-ray
  150. Menu
  151. 00:00:00.000                             : en:Chapter 01
  152. 00:06:15.291                             : en:Chapter 02
  153. 00:15:10.958                             : en:Chapter 03
  154. 00:26:03.583                             : en:Chapter 04
  155. 00:36:19.500                             : en:Chapter 05
  156. 00:47:03.375                             : en:Chapter 06
  157. 00:51:53.125                             : en:Chapter 07
  158. 00:57:54.208                             : en:Chapter 08
  159. 01:04:23.791                             : en:Chapter 09
  160. 01:12:58.541                             : en:Chapter 10
  161. 01:21:51.583                             : en:Chapter 11
  162. 01:28:17.625                             : en:Chapter 12
复制代码
















铁面战警.Mutant.Action.1993.SPANISH.2160p.BluRay.x265.10bit.SDR.DTS-HD.MA.TrueHD.7.1.Atmos-SWTYBLZ 38.62GB

Mutant.Action.1993.SPANISH.2160p.BluRay.x265.10bit.SDR.DTS-HD.MA.TrueHD.7.1.Atmo.torrent

49.03 KB, 下载次数: 2, 下载积分: 蓝光币 -2

回复

使用道具 举报

懒得打字嘛,点击右侧快捷回复 【右侧内容,后台自定义】
您需要登录后才可以回帖 登录 | 立即加入

本版积分规则

Archiver|小黑屋| 蓝光电影网 |网站地图

Copyright © 2021 Comsenz Inc. Powered by 蓝光电影网

蓝光电影网

本站内容由用户自主分享和转载自互联网,转载目的在于传递更多信息,并不代表本网赞同其观点和对其真实性负责。

如有侵权、违反国家法律政策行为,请联系我们,我们会第一时间及时清除和处理!

举报反馈邮箱:4k1080.com@gmail.com

快速回复 返回顶部 返回列表