找回密码

查看: 2009|回复: 0

[2160p] 断魂小丑2.Terrifier.2.2022.2160p.BluRay.x264.8bit.SDR.DTS-HD.MA.5.1-SWTYBLZ 56.50GB

[复制链接]
蓝光币
2027
发表于 2023-1-7 01:49:02 | 显示全部楼层 |阅读模式


◎标  题 销魂小丑2
◎译  名 刽乐小丑2
◎片  名 Terrifier 2
◎年  代 2022
◎产  地 美国
◎类  别 可骇
◎语  言 英语
◎上映日期 2022-08-29(英国) / 2022-10-06(美国)
◎IMDb评分 6.2/10 (24919人评价)
◎IMDb链接 https://www.imdb.com/title/tt10403420/
◎豆瓣评分 5.8/10 (9072人评价)
◎豆瓣链接 https://movie.douban.com/subject/34816877/
◎片  长 138分钟
◎导  演 达米安·利昂 Damien Leone
◎编  剧 达米安·利昂 Damien Leone
◎演  员 劳伦·拉维拉 Lauren LaVera
       戴维·霍华德·桑顿 David Howard Thornton
       艾米莉·麦克莱恩 Amelie McLain
       凯莉·海曼 Kailey Hyman
       凯西·哈特内特 Casey Hartnett
       萨拉·沃伊特 Sarah Voigt
       埃利奥特·富勒姆 Elliott Fullam
       杰基·阿德拉格纳 Jackie Adragna
       凯蒂·马奎尔 Katie Maguire
       费莉莎·罗斯 Felissa Rose
       格里芬·桑托彼得罗 Griffin Santopietro
       塔玛拉·格林 Tamara Glynn
       克里斯·杰里科 Chris Jericho
       乔治亚·麦克菲尔 Georgia MacPhail
       莎拉·格蕾丝·桑德斯 Sarah Grace Sanders
       艾米·露斯 Amy Russ
        Marcus Slabine
       Cory DuVal Cory DuVal
       欧文·迈尔 Owen Myre
       萨曼莎·斯卡菲迪 Samantha Scaffidi
       珍娜·凯内尔 Jenna Kanell
       凯瑟琳·科科兰 Catherine Corcoran
       Devon Roth Devon Roth
       乔纳斯·戴维斯 Johnath Davis
◎简  介
  一股邪恶的气力叫醒杀人小丑亚特。在万圣夜,杀人小丑亚特回到迈尔斯镇,他的目标是抓拿一位少女和她的弟弟,并在万圣夜当晚将他们两人杀戮。小丑亚特杀人不见血,受害人数不竭增加,姊弟两报酬保存而奋战的同时也尽力探查杀人小丑亚特背后的动机。
  1. Video
  2. ID                                       : 1
  3. Format                                   : AVC
  4. Format/Info                              : Advanced Video Codec
  5. Format profile                           : High@L5.1
  6. Format settings                          : CABAC / 5 Ref Frames
  7. Format settings, CABAC                   : Yes
  8. Format settings, Reference frames        : 5 frames
  9. Codec ID                                 : V_MPEG4/ISO/AVC
  10. Duration                                 : 2 h 18 min
  11. Bit rate                                 : 54.2 Mb/s
  12. Width                                    : 3 840 pixels
  13. Height                                   : 2 160 pixels
  14. Display aspect ratio                     : 16:9
  15. Frame rate mode                          : Constant
  16. Frame rate                               : 23.976 (24000/1001) FPS
  17. Color space                              : YUV
  18. Chroma subsampling                       : 4:2:0
  19. Bit depth                                : 8 bits
  20. Scan type                                : Progressive
  21. Bits/(Pixel*Frame)                       : 0.273
  22. Stream size                              : 52.3 GiB (93%)
  23. Writing library                          : x264 core 157 r2935 545de2f
  24. Encoding settings                        : cabac=1 / ref=5 / deblock=1:-1:-1 / analyse=0x3:0x113 / me=umh / subme=10 / psy=1 / psy_rd=1.00:0.15 / mixed_ref=1 / me_range=48 / chroma_me=1 / trellis=2 / 8x8dct=1 / cqm=0 / deadzone=21,11 / fast_pskip=1 / chroma_qp_offset=-3 / threads=48 / lookahead_threads=4 / sliced_threads=0 / nr=0 / decimate=0 / interlaced=0 / bluray_compat=0 / constrained_intra=0 / bframes=3 / b_pyramid=2 / b_adapt=2 / b_bias=0 / direct=3 / weightb=1 / open_gop=0 / weightp=2 / keyint=250 / keyint_min=23 / scenecut=40 / intra_refresh=0 / rc_lookahead=50 / rc=crf / mbtree=1 / crf=19.0 / qcomp=0.60 / qpmin=0 / qpmax=69 / qpstep=4 / ip_ratio=1.40 / aq=1:1.00
  25. Default                                  : Yes
  26. Forced                                   : No
  27. Audio #1
  28. ID                                       : 2
  29. ID in the original source medium         : 4352 (0x1100)
  30. Format                                   : DTS XLL
  31. Format/Info                              : Digital Theater Systems
  32. Commercial name                          : DTS-HD Master Audio
  33. Codec ID                                 : A_DTS
  34. Duration                                 : 2 h 18 min
  35. Bit rate mode                            : Variable
  36. Bit rate                                 : 3 441 kb/s
  37. Channel(s)                               : 6 channels
  38. Channel layout                           : C L R Ls Rs LFE
  39. Sampling rate                            : 48.0 kHz
  40. Frame rate                               : 93.750 FPS (512 SPF)
  41. Bit depth                                : 24 bits
  42. Compression mode                         : Lossless
  43. Stream size                              : 3.32 GiB (6%)
  44. Title                                    : DTS-HD MA 5.1
  45. Language                                 : English
  46. Default                                  : Yes
  47. Forced                                   : No
  48. Original source medium                   : Blu-ray
  49. Audio #2
  50. ID                                       : 3
  51. Format                                   : AC-3
  52. Format/Info                              : Audio Coding 3
  53. Commercial name                          : Dolby Digital
  54. Codec ID                                 : A_AC3
  55. Duration                                 : 2 h 18 min
  56. Bit rate mode                            : Constant
  57. Bit rate                                 : 640 kb/s
  58. Channel(s)                               : 6 channels
  59. Channel layout                           : L R C LFE Ls Rs
  60. Sampling rate                            : 48.0 kHz
  61. Frame rate                               : 31.250 FPS (1536 SPF)
  62. Compression mode                         : Lossy
  63. Stream size                              : 632 MiB (1%)
  64. Title                                    : DD 5.1
  65. Language                                 : English
  66. Service kind                             : Complete Main
  67. Default                                  : No
  68. Forced                                   : No
  69. Text #1
  70. ID                                       : 4
  71. Format                                   : UTF-8
  72. Codec ID                                 : S_TEXT/UTF8
  73. Codec ID/Info                            : UTF-8 Plain Text
  74. Duration                                 : 2 h 15 min
  75. Bit rate                                 : 35 b/s
  76. Frame rate                               : 0.158 FPS
  77. Count of elements                        : 1284
  78. Stream size                              : 35.5 KiB (0%)
  79. Language                                 : English
  80. Default                                  : Yes
  81. Forced                                   : No
  82. Text #2
  83. ID                                       : 5
  84. Format                                   : UTF-8
  85. Codec ID                                 : S_TEXT/UTF8
  86. Codec ID/Info                            : UTF-8 Plain Text
  87. Duration                                 : 2 h 15 min
  88. Bit rate                                 : 44 b/s
  89. Frame rate                               : 0.215 FPS
  90. Count of elements                        : 1757
  91. Stream size                              : 44.5 KiB (0%)
  92. Title                                    : SDH
  93. Language                                 : English
  94. Default                                  : No
  95. Forced                                   : No
  96. Text #3
  97. ID                                       : 6
  98. ID in the original source medium         : 4768 (0x12A0)
  99. Format                                   : PGS
  100. Muxing mode                              : zlib
  101. Codec ID                                 : S_HDMV/PGS
  102. Codec ID/Info                            : Picture based subtitle format used on BDs/HD-DVDs
  103. Duration                                 : 2 h 15 min
  104. Bit rate                                 : 29.8 kb/s
  105. Frame rate                               : 0.437 FPS
  106. Count of elements                        : 3564
  107. Stream size                              : 29.0 MiB (0%)
  108. Language                                 : English
  109. Default                                  : No
  110. Forced                                   : No
  111. Original source medium                   : Blu-ray
  112. Menu
  113. 00:00:00.000                             : en:Chapter 01
  114. 00:07:53.389                             : en:Chapter 02
  115. 00:18:05.501                             : en:Chapter 03
  116. 00:29:27.390                             : en:Chapter 04
  117. 00:40:38.185                             : en:Chapter 05
  118. 00:55:16.563                             : en:Chapter 06
  119. 01:06:17.640                             : en:Chapter 07
  120. 01:17:29.853                             : en:Chapter 08
  121. 01:28:18.668                             : en:Chapter 09
  122. 01:36:17.646                             : en:Chapter 10
  123. 01:46:32.594                             : en:Chapter 11
  124. 02:01:55.766                             : en:Chapter 12
  125. 02:11:19.288                             : en:Chapter 13
  126. 02:15:40.298                             : en:Chapter 14
复制代码















回复

使用道具 举报

懒得打字嘛,点击右侧快捷回复 【右侧内容,后台自定义】
您需要登录后才可以回帖 登录 | 立即加入

本版积分规则

Archiver| |网站地图

Copyright © 2024 Comsenz Inc. Powered by 蓝光电影网

本站内容由用户自主分享和转载自互联网,转载目的在于传递更多信息,并不代表本网赞同其观点和对其真实性负责。

如有侵权、违反国家法律政策行为,请联系我们,我们会第一时间及时清除和处理!

举报反馈邮箱:4k1080.com@gmail.com

快速回复 返回顶部 返回列表