找回密码

蓝光电影网

查看: 1042|回复: 0

[2160p] 48小时.48.Hrs.1982.2160p.UHD.BluRay.x265.10bit.HDR.TrueHD.5.1-RARBG 7.90GB

[复制链接]
蓝光币
1704
发表于 2023-1-7 01:49:15 | 显示全部楼层 |阅读模式


◎标  题 48小时
◎译  名 特赦48小时 / 四十八小时
◎片  名 48 Hrs.
◎年  代 1982
◎产  地 美国
◎类  别 剧情 / 笑剧 / 行动 / 惊悚 / 犯罪
◎语  言 英语
◎上映日期 1982-12-08(美国)
◎IMDb评分 6.9/10 (79576人评价)
◎IMDb链接 https://www.imdb.com/title/tt0083511/
◎豆瓣评分 6.5/10 (446人评价)
◎豆瓣链接 https://movie.douban.com/subject/1301780/
◎片  长 96 分钟
◎导  演 沃尔特·希尔 Walter Hill
◎编  剧 罗杰·斯波蒂斯伍德 Roger Spottiswoode
       沃尔特·希尔 Walter Hill
       拉里·格罗斯 Larry Gross
       斯蒂芬·E.德·索萨 Steven E. de Souza
◎演  员 尼克·诺特 Nick Nolte
       艾迪·墨菲 Eddie Murphy
       安妮特·奥图 Annette O'Toole
       弗兰克·麦克雷 Frank McRae
       詹姆斯·瑞马尔 James Remar
       大卫·帕特里克·凯利 David Patrick Kelly
       索尼·兰哈姆 Sonny Landham
       布里翁·詹姆斯 Brion James
       Kerry Sherman Kerry Sherman
       乔纳森·班克斯 Jonathan Banks
       詹姆斯·基恩 James Keane
       Margot Rose Margot Rose
       丹尼斯·克罗斯比 Denise Crosby
       Olivia Brown Olivia Brown
       Todd Allen Todd Allen
       Bill Dearth Bill Dearth
       内德·道德 Ned Dowd
       吉姆·海尼 Jim Haynie
       杰克·唐蒂博 Jack Thibeau
       桑迪·马丁 Sandy Martin
       Matt Landers Matt Landers
       皮特·杰森 Peter Jason
       克里斯·马尔基 Chris Mulkey
       马塞利诺·桑切斯 Marcelino Sánchez
       Bennie E. Dobbins Bennie E. Dobbins
       Begonya Plaza Begonya Plaza
       罗伊德·卡特莱特 Loyd Catlett
       里德·克鲁克香克斯 Reid Cruickshanks
       R.D. Call R.D. Call
       布伦达·维纳斯 Brenda Venus
       约翰·丹尼斯·约翰斯顿 John Dennis Johnston
       Jack Lightsy Jack Lightsy
       Luis Contreras Luis Contreras
       欧拉·蕾 Ola Ray
       Fritz Ford Fritz Ford
       Kevin O'Neal Kevin O'Neal
       Walter Scott Walter Scott
       John Hauk John Hauk
       劳伦斯·戈登 Lawrence Gordon
       乔·西尔沃 Joel Silver
       詹姆斯·霍纳 James Horner
       Ric Waite Ric Waite
       比利·韦伯 Billy Weber
       马克·华纳 Mark Warner
       Freeman A. Davies Freeman A. Davies
       Judith Holstra Judith Holstra
       约翰·瓦隆 John Vallone
       Richard C. Goddard Richard C. Goddard
       玛丽莲·万斯 Marilyn Vance
       爱德华·F.·恩里克斯 Edouard F. Henriques
       迈克尔·杰曼 Michael Germain
       David Sosna David Sosna
◎简  介
  杰克凯斯为三藩市一位资深警探,从21岁加入警界以来一向未能有所表示。雷吉汉蒙德为黑人区一位惯犯,从15岁起起头犯案累累。巧的是两人都想力图改变现况,而更巧的是两人居然在同时候萍水重逢,是以激发了一场争斗。                                       
                                    重刑犯艾伯特·刚茨在他的老同伴比利·拜尔的帮助下成功逃狱,他们立即杀死了自己的朋友亨利·王,用假名字住进了三藩市的瓦尔登旅店。年轻干探杰克·盖茨(Nick Nolte饰)郁不得志,酗酒成性。此番受命与同事VanZant 和Algren入住瓦尔登旅店,观察名叫G. P. Polson的人,不想VanZant 和Algren被艾伯特所害。杰克欲为同事报仇,劝服下属Haden让他自力办案。杰克到牢狱探视艾伯特畴前的同伴雷吉·汉蒙德(Eddie Murphy饰),以减刑为由,希望雷吉帮助他抓捕艾伯特和比利,雷吉委曲答应,但杰克只能将其带出牢狱48小时,更糟...
  1. Video
  2. ID                                       : 1
  3. Format                                   : HEVC
  4. Format/Info                              : High Efficiency Video Coding
  5. Format profile                           : Main 10@L5.1@Main
  6. HDR format                               : SMPTE ST 2086, HDR10 compatible
  7. Codec ID                                 : V_MPEGH/ISO/HEVC
  8. Duration                                 : 1 h 36 min
  9. Bit rate                                 : 8 020 kb/s
  10. Width                                    : 3 840 pixels
  11. Height                                   : 2 076 pixels
  12. Display aspect ratio                     : 1.85:1
  13. Frame rate mode                          : Constant
  14. Frame rate                               : 23.976 (24000/1001) FPS
  15. Color space                              : YUV
  16. Chroma subsampling                       : 4:2:0
  17. Bit depth                                : 10 bits
  18. Bits/(Pixel*Frame)                       : 0.042
  19. Stream size                              : 5.41 GiB (68%)
  20. Writing library                          : x265 3.5+rarbg-HDR-38-20255e6:[Linux][clang 16.0.0][64 bit] 10bit
  21. Encoding settings                        : cpuid=1111039 / frame-threads=6 / wpp / no-pmode / no-pme / no-psnr / no-ssim / log-level=2 / input-csp=1 / input-res=3840x2076 / interlace=0 / total-frames=0 / level-idc=51 / high-tier=1 / uhd-bd=0 / ref=4 / no-allow-non-conformance / repeat-headers / annexb / aud / no-eob / no-eos / no-hrd / info / hash=0 / no-temporal-layers / no-open-gop / min-keyint=1 / keyint=24 / gop-lookahead=0 / bframes=4 / b-adapt=2 / b-pyramid / bframe-bias=0 / rc-lookahead=25 / lookahead-slices=4 / scenecut=40 / no-hist-scenecut / radl=0 / no-splice / no-intra-refresh / ctu=64 / min-cu-size=8 / rect / no-amp / max-tu-size=32 / tu-inter-depth=1 / tu-intra-depth=1 / limit-tu=0 / rdoq-level=2 / dynamic-rd=0.00 / no-ssim-rd / signhide / no-tskip / nr-intra=0 / nr-inter=0 / no-constrained-intra / strong-intra-smoothing / max-merge=3 / limit-refs=3 / no-limit-modes / me=3 / subme=3 / merange=57 / temporal-mvp / no-frame-dup / no-hme / weightp / no-weightb / no-analyze-src-pics / deblock=0:0 / no-sao / no-sao-non-deblock / rd=4 / selective-sao=0 / no-early-skip / rskip / no-fast-intra / no-tskip-fast / no-cu-lossless / no-b-intra / no-splitrd-skip / rdpenalty=0 / psy-rd=2.00 / psy-rdoq=1.00 / no-rd-refine / no-lossless / cbqpoffs=0 / crqpoffs=0 / rc=abr / bitrate=8000 / qcomp=0.60 / qpstep=4 / stats-write=0 / stats-read=2 / cplxblur=20.0 / qblur=0.5 / ipratio=1.40 / pbratio=1.30 / aq-mode=1 / aq-strength=1.00 / cutree / zone-count=0 / no-strict-cbr / qg-size=32 / no-rc-grain / qpmax=69 / qpmin=0 / no-const-vbv / sar=1 / overscan=0 / videoformat=5 / range=0 / colorprim=9 / transfer=16 / colormatrix=9 / chromaloc=0 / display-window=0 / master-display=G(13250,34500)B(7500,3000)R(34000,16000)WP(15635,16450)L(10000000,1) / cll=0,0 / min-luma=0 / max-luma=1023 / log2-max-poc-lsb=8 / vui-timing-info / vui-hrd-info / slices=1 / no-opt-qp-pps / no-opt-ref-list-length-pps / no-multi-pass-opt-rps / scenecut-bias=0.05 / hist-threshold=0.03 / no-opt-cu-delta-qp / no-aq-motion / hdr10 / hdr10-opt / no-dhdr10-opt / no-idr-recovery-sei / analysis-reuse-level=0 / analysis-save-reuse-level=0 / analysis-load-reuse-level=0 / scale-factor=0 / refine-intra=0 / refine-inter=0 / refine-mv=1 / refine-ctu-distortion=0 / no-limit-sao / ctu-info=0 / no-lowpass-dct / refine-analysis-type=0 / copy-pic=1 / max-ausize-factor=1.0 / no-dynamic-refine / no-single-sei / no-hevc-aq / no-svt / no-field / qp-adaptation-range=1.00 / scenecut-aware-qp=0conformance-window-offsets / right=0 / bottom=0 / decoder-max-rate=0 / no-vbv-live-multi-pass
  22. Default                                  : Yes
  23. Forced                                   : No
  24. Color range                              : Limited
  25. Color primaries                          : BT.2020
  26. Transfer characteristics                 : PQ
  27. Matrix coefficients                      : BT.2020 non-constant
  28. Mastering display color primaries        : Display P3
  29. Mastering display luminance              : min: 0.0001 cd/m2, max: 1000 cd/m2
  30. Audio #1
  31. ID                                       : 2
  32. Format                                   : MLP FBA
  33. Format/Info                              : Meridian Lossless Packing FBA
  34. Commercial name                          : Dolby TrueHD
  35. Codec ID                                 : A_TRUEHD
  36. Duration                                 : 1 h 36 min
  37. Bit rate mode                            : Variable
  38. Bit rate                                 : 3 237 kb/s
  39. Maximum bit rate                         : 4 554 kb/s
  40. Channel(s)                               : 6 channels
  41. Channel layout                           : L R C LFE Ls Rs
  42. Sampling rate                            : 48.0 kHz
  43. Frame rate                               : 1 200.000 FPS (40 SPF)
  44. Compression mode                         : Lossless
  45. Stream size                              : 2.18 GiB (28%)
  46. Title                                    : English TrueHD 5.1
  47. Language                                 : English
  48. Default                                  : Yes
  49. Forced                                   : No
  50. Audio #2
  51. ID                                       : 3
  52. Format                                   : AC-3
  53. Format/Info                              : Audio Coding 3
  54. Commercial name                          : Dolby Digital
  55. Codec ID                                 : A_AC3
  56. Duration                                 : 1 h 36 min
  57. Bit rate mode                            : Constant
  58. Bit rate                                 : 384 kb/s
  59. Channel(s)                               : 6 channels
  60. Channel layout                           : L R C LFE Ls Rs
  61. Sampling rate                            : 48.0 kHz
  62. Frame rate                               : 31.250 FPS (1536 SPF)
  63. Compression mode                         : Lossy
  64. Stream size                              : 265 MiB (3%)
  65. Title                                    : English DD 5.1
  66. Language                                 : English
  67. Service kind                             : Complete Main
  68. Default                                  : No
  69. Forced                                   : No
  70. Text #1
  71. ID                                       : 4
  72. Format                                   : UTF-8
  73. Codec ID                                 : S_TEXT/UTF8
  74. Codec ID/Info                            : UTF-8 Plain Text
  75. Duration                                 : 1 h 36 min
  76. Bit rate                                 : 67 b/s
  77. Frame rate                               : 0.247 FPS
  78. Count of elements                        : 1425
  79. Stream size                              : 47.7 KiB (0%)
  80. Title                                    : English SRT
  81. Language                                 : English
  82. Default                                  : Yes
  83. Forced                                   : No
  84. Text #2
  85. ID                                       : 5
  86. Format                                   : UTF-8
  87. Codec ID                                 : S_TEXT/UTF8
  88. Codec ID/Info                            : UTF-8 Plain Text
  89. Duration                                 : 1 h 36 min
  90. Bit rate                                 : 71 b/s
  91. Frame rate                               : 0.266 FPS
  92. Count of elements                        : 1535
  93. Stream size                              : 50.1 KiB (0%)
  94. Title                                    : English SDH SRT
  95. Language                                 : English
  96. Default                                  : No
  97. Forced                                   : No
  98. Menu
  99. 00:00:00.000                             : en:Chapter 01
  100. 00:05:11.185                             : en:Chapter 02
  101. 00:10:51.150                             : en:Chapter 03
  102. 00:20:02.576                             : en:Chapter 04
  103. 00:24:10.824                             : en:Chapter 05
  104. 00:30:00.965                             : en:Chapter 06
  105. 00:36:52.835                             : en:Chapter 07
  106. 00:46:17.357                             : en:Chapter 08
  107. 00:57:28.486                             : en:Chapter 09
  108. 01:06:19.141                             : en:Chapter 10
  109. 01:11:18.691                             : en:Chapter 11
  110. 01:15:48.877                             : en:Chapter 12
  111. 01:19:29.139                             : en:Chapter 13
  112. 01:29:36.204                             : en:Chapter 14
  113. 01:32:28.918                             : en:Chapter 15
复制代码











回复

使用道具 举报

懒得打字嘛,点击右侧快捷回复 【右侧内容,后台自定义】
您需要登录后才可以回帖 登录 | 立即加入

本版积分规则

Archiver|小黑屋| 蓝光电影网 |网站地图

Copyright © 2021 Comsenz Inc. Powered by 蓝光电影网

蓝光电影网

本站内容由用户自主分享和转载自互联网,转载目的在于传递更多信息,并不代表本网赞同其观点和对其真实性负责。

如有侵权、违反国家法律政策行为,请联系我们,我们会第一时间及时清除和处理!

举报反馈邮箱:4k1080.com@gmail.com

快速回复 返回顶部 返回列表