找回密码

蓝光电影网

查看: 875|回复: 1

[剧情] 极度恐惧.Haunting.Fear.1990.1080p.BluRay.x264-FREEMAN 8.83GB

[复制链接]
蓝光币
1704
发表于 2023-1-7 01:49:25 | 显示全部楼层 |阅读模式


◎标  题 极端恐惧
◎片  名 Haunting Fear
◎年  代 1991
◎产  地 美国
◎类  别 剧情 / 可骇
◎语  言 英语
◎上映日期 1993-04-27
◎IMDb评分 4.1/10 (485人评价)
◎IMDb链接 https://www.imdb.com/title/tt0099742/
◎豆瓣链接 https://movie.douban.com/subject/1300155/
◎导  演 弗雷德·奥伦·雷 Fred Olen Ray
◎编  剧 埃德加·爱伦·坡  Edgar Allan Poe
       弗雷德·奥伦·雷 Fred Olen Ray
◎演  员 布琳克·史蒂文斯 Brinke Stevens
       冉-迈克尔·文森特 Jan-Michael Vincent
       Jay B. Richardson Jay B. Richardson
       Hoke Howell Hoke Howell
       Greta Carlson Greta Carlson
       罗伯特·克拉克 Robert Clarke
       迈克尔·贝里曼 Michael Berryman
       凯伦·布莱克 Karen Black
       罗伯特·夸里 Robert Quarry
       约翰·亨利·理查德森 John Henry Richardson
       弗雷德·奥伦·雷 Fred Olen Ray
       盖瑞·格雷弗 Gary Graver
       克里斯托弗·罗斯 Christopher Roth
       John T. Melick John T. Melick
       Joe Zimmerman Joe Zimmerman
       Bret Mixon Bret Mixon
  1. Video
  2. ID                                       : 1
  3. Format                                   : AVC
  4. Format/Info                              : Advanced Video Codec
  5. Format profile                           : High@L4.1
  6. Format settings                          : CABAC / 4 Ref Frames
  7. Format settings, CABAC                   : Yes
  8. Format settings, Reference frames        : 4 frames
  9. Codec ID                                 : V_MPEG4/ISO/AVC
  10. Duration                                 : 1 h 28 min
  11. Bit rate                                 : 13.9 Mb/s
  12. Width                                    : 1 920 pixels
  13. Height                                   : 1 080 pixels
  14. Display aspect ratio                     : 16:9
  15. Frame rate mode                          : Constant
  16. Frame rate                               : 23.976 (24000/1001) FPS
  17. Color space                              : YUV
  18. Chroma subsampling                       : 4:2:0
  19. Bit depth                                : 8 bits
  20. Scan type                                : Progressive
  21. Bits/(Pixel*Frame)                       : 0.280
  22. Stream size                              : 8.59 GiB (97%)
  23. Writing library                          : x264 core 164 r3103 941cae6
  24. Encoding settings                        : cabac=1 / ref=4 / deblock=1:-3:-3 / analyse=0x3:0x133 / me=umh / subme=9 / psy=1 / psy_rd=1.00:0.00 / mixed_ref=1 / me_range=16 / chroma_me=1 / trellis=2 / 8x8dct=1 / cqm=0 / deadzone=21,11 / fast_pskip=0 / chroma_qp_offset=-2 / threads=24 / lookahead_threads=2 / sliced_threads=0 / nr=0 / decimate=1 / interlaced=0 / bluray_compat=0 / constrained_intra=0 / bframes=3 / b_pyramid=2 / b_adapt=2 / b_bias=0 / direct=3 / weightb=1 / open_gop=0 / weightp=2 / keyint=250 / keyint_min=23 / scenecut=40 / intra_refresh=0 / rc_lookahead=60 / rc=crf / mbtree=1 / crf=19.5 / qcomp=0.60 / qpmin=0 / qpmax=69 / qpstep=4 / ip_ratio=1.40 / aq=3:0.60
  25. Default                                  : Yes
  26. Forced                                   : No
  27. Color range                              : Limited
  28. Matrix coefficients                      : BT.709
  29. Audio
  30. ID                                       : 2
  31. Format                                   : AC-3
  32. Format/Info                              : Audio Coding 3
  33. Commercial name                          : Dolby Digital
  34. Codec ID                                 : A_AC3
  35. Duration                                 : 1 h 28 min
  36. Bit rate mode                            : Constant
  37. Bit rate                                 : 384 kb/s
  38. Channel(s)                               : 2 channels
  39. Channel layout                           : L R
  40. Sampling rate                            : 48.0 kHz
  41. Frame rate                               : 31.250 FPS (1536 SPF)
  42. Compression mode                         : Lossy
  43. Stream size                              : 243 MiB (3%)
  44. Language                                 : English
  45. Service kind                             : Complete Main
  46. Default                                  : Yes
  47. Forced                                   : No
  48. Menu
  49. 00:00:00.000                             : en:00:00:00.000
  50. 00:11:32.817                             : en:00:11:32.817
  51. 00:19:25.206                             : en:00:19:25.206
  52. 00:31:25.884                             : en:00:31:25.884
  53. 00:40:24.547                             : en:00:40:24.547
  54. 00:50:35.407                             : en:00:50:35.407
  55. 01:06:24.189                             : en:01:06:24.189
  56. 01:20:08.804                             : en:01:20:08.804
复制代码









回复

使用道具 举报

蓝光币
0
发表于 2023-1-7 23:44:22 | 显示全部楼层
谢谢分享
回复

使用道具 举报

懒得打字嘛,点击右侧快捷回复 【右侧内容,后台自定义】
您需要登录后才可以回帖 登录 | 立即加入

本版积分规则

Archiver|小黑屋| 蓝光电影网 |网站地图

Copyright © 2021 Comsenz Inc. Powered by 蓝光电影网

蓝光电影网

本站内容由用户自主分享和转载自互联网,转载目的在于传递更多信息,并不代表本网赞同其观点和对其真实性负责。

如有侵权、违反国家法律政策行为,请联系我们,我们会第一时间及时清除和处理!

举报反馈邮箱:4k1080.com@gmail.com

快速回复 返回顶部 返回列表