找回密码

蓝光电影网

查看: 1067|回复: 0

[2160p] 改编剧本.Adaptation.2002.2160p.UHD.BluRay.x265.10bit.HDR.DDP5.1-RARBG 6.95GB

[复制链接]
蓝光币
1704
发表于 2023-1-7 01:50:06 | 显示全部楼层 |阅读模式


◎标  题 改编剧本
◎译  名 何须恰恰玩谢我(港) / 兰花贼(台) / 改写情缘 / 兰花窃贼
◎片  名 Adaptation.
◎年  代 2002
◎产  地 美国
◎类  别 剧情 / 笑剧 / 犯罪
◎语  言 英语 / 拉丁语
◎上映日期 2002-12-06
◎IMDb评分 7.7/10 (194384人评价)
◎IMDb链接 https://www.imdb.com/title/tt0268126/
◎豆瓣评分 7.6/10 (24546人评价)
◎豆瓣链接 https://movie.douban.com/subject/1302193/
◎片  长 115分钟
◎导  演 斯派克·琼斯 Spike Jonze
◎编  剧 苏珊·奥尔琳 Susan Orlean
       查理·考夫曼 Charlie Kaufman
       唐纳德·考夫曼 Donald Kaufman
◎演  员 尼古拉斯·凯奇 Nicolas Cage
       蒂尔达·斯文顿 Tilda Swinton
       梅丽尔·斯特里普 Meryl Streep
       克里斯·库珀 Chris Cooper
       玛吉·吉伦哈尔 Maggie Gyllenhaal
       约翰·马尔科维奇 John Malkovich
       罗杰·威利 Roger Willie
       斯派克·琼斯 Spike Jonze
       兰斯·阿考德 Lance Acord
       约翰·库萨克 John Cusack
       凯瑟琳·基纳 Catherine Keener
       杰伊·塔瓦尔 Jay Tavare
       卡拉·西摩 Cara Seymour
        Paul Fortune
       大卫·O·拉塞尔 David O. Russell
       加利·法梅尔 Gary Farmer
       斯蒂芬·托布罗斯基 Stephen Tobolowsky
       道格·琼斯 Doug Jones
       布莱恩·考克斯 Brian Cox
       朗·里维斯顿 Ron Livingston
       朱迪·格雷尔 Judy Greer
       鲍勃·耶基斯 Bob Yerkes
       柯蒂斯·汉森 Curtis Hanson
       吉姆·比弗 Jim Beaver
       Lisa Love Lisa Love
       Rheagan Wallace Rheagan Wallace
       鲍勃·斯蒂芬森 Bob Stephenson
       南希·利内翰 Nancy Lenehan
       Litefoot Litefoot
       皮特·杰森 Peter Jason
       Sandra Lee Gimpel Sandra Lee Gimpel
       柯特·克伦德尼 Curt Clendenin
       苏珊·奥尔琳 Susan Orlean
       格里高利·伊齐恩 Gregory Itzin
       文森特·兰迪 Vincent Landay
       彼得·萨拉夫 Peter Saraf
       乔纳森·戴米 Jonathan Demme
       爱德华·萨克森 Edward Saxon
       查理·考夫曼 Charlie Kaufman
       卡特·伯韦尔 Carter Burwell
       兰斯·阿考德 Lance Acord
       埃里克·祖姆布伦南 Eric Zumbrunnen
       K.K. 巴雷特 K.K. Barrett
       吉恩·瑟尔迪纳 Gene Serdena
       杰里·康斯坦丁 Jerry Constantine
       Joseph Coscia Joseph Coscia
       托尼·加德纳 Tony Gardner
       Vance Hartwell Vance Hartwell
       林恩·巴伯 Lynn Barber
       乔尔·哈罗 Joel Harlow
       J·罗伊·埃兰 J. Roy Helland
       Scott Malchus Scott Malchus
       凯文·雅格 Kevin Yagher
       Elvis Jones Elvis Jones
       Allen Weisinger Allen Weisinger
       尼克·萨特里亚诺 Nick Satriano
       丹·布莱德利 Dan Bradley
       肖恩·迪韦罗 Sean Devereaux
       罗伯特·罗尔斯 Robert Rowles
       莱斯利·艾克尔 Leslie Ekker
       丹·格列齐斯 Dan Trezise
       Paul Graff Paul Graff
       奥·布里克 Ed Ulbrich
       John Allardice John Allardice
       托尼·马加莱塔 Tony Magaletta
       丹·帕特森 Dan Patterson
◎简  介
  女记者苏珊(梅丽尔•斯特里普 Meryl Streep  饰)采访了一个因酷好兰花,经常偷采兰花而满身讼事的“采花贼”,并将这人的故事加工成了列传小说《兰花窃贼》。未几,好莱坞某电影公司将这本书的改编权买了下来,并请来了享有盛名的改编人查理(尼古拉斯•凯奇 Nicolas Cage 饰)来将它改编成电影剧本。                                    
                                无法查理已江郎才尽,他挖空心机都没法完成《兰花窃贼》的改编。查理无法之下只好向原作者苏珊乞助,但性情外向的查理见到了美艳华贵的苏珊竟严重得说不出话来。他只好叫来了对编剧极感爱好并想涉足其中的弟弟唐纳德来帮手。                                    
                                兄弟两在改写剧本时历经了一系列盘曲。查理突发奇想,将自己改写剧本的创作进程也写进了剧本。这部剧本最初会酿成什么样呢?
  1. Video
  2. ID                                       : 1
  3. Format                                   : HEVC
  4. Format/Info                              : High Efficiency Video Coding
  5. Format profile                           : Main 10@L5.1@Main
  6. HDR format                               : SMPTE ST 2086, HDR10 compatible
  7. Codec ID                                 : V_MPEGH/ISO/HEVC
  8. Duration                                 : 1 h 54 min
  9. Bit rate                                 : 8 017 kb/s
  10. Width                                    : 3 840 pixels
  11. Height                                   : 2 076 pixels
  12. Display aspect ratio                     : 1.85:1
  13. Frame rate mode                          : Constant
  14. Frame rate                               : 23.976 (24000/1001) FPS
  15. Color space                              : YUV
  16. Chroma subsampling                       : 4:2:0
  17. Bit depth                                : 10 bits
  18. Bits/(Pixel*Frame)                       : 0.042
  19. Stream size                              : 6.44 GiB (93%)
  20. Writing library                          : x265 3.5+rarbg-HDR-38-20255e6:[Linux][clang 16.0.0][64 bit] 10bit
  21. Encoding settings                        : cpuid=1111039 / frame-threads=6 / wpp / no-pmode / no-pme / no-psnr / no-ssim / log-level=2 / input-csp=1 / input-res=3840x2076 / interlace=0 / total-frames=0 / level-idc=51 / high-tier=1 / uhd-bd=0 / ref=4 / no-allow-non-conformance / repeat-headers / annexb / aud / no-eob / no-eos / no-hrd / info / hash=0 / no-temporal-layers / no-open-gop / min-keyint=1 / keyint=24 / gop-lookahead=0 / bframes=4 / b-adapt=2 / b-pyramid / bframe-bias=0 / rc-lookahead=25 / lookahead-slices=4 / scenecut=40 / no-hist-scenecut / radl=0 / no-splice / no-intra-refresh / ctu=64 / min-cu-size=8 / rect / no-amp / max-tu-size=32 / tu-inter-depth=1 / tu-intra-depth=1 / limit-tu=0 / rdoq-level=2 / dynamic-rd=0.00 / no-ssim-rd / signhide / no-tskip / nr-intra=0 / nr-inter=0 / no-constrained-intra / strong-intra-smoothing / max-merge=3 / limit-refs=3 / no-limit-modes / me=3 / subme=3 / merange=57 / temporal-mvp / no-frame-dup / no-hme / weightp / no-weightb / no-analyze-src-pics / deblock=0:0 / no-sao / no-sao-non-deblock / rd=4 / selective-sao=0 / no-early-skip / rskip / no-fast-intra / no-tskip-fast / no-cu-lossless / no-b-intra / no-splitrd-skip / rdpenalty=0 / psy-rd=2.00 / psy-rdoq=1.00 / no-rd-refine / no-lossless / cbqpoffs=0 / crqpoffs=0 / rc=abr / bitrate=8000 / qcomp=0.60 / qpstep=4 / stats-write=0 / stats-read=2 / cplxblur=20.0 / qblur=0.5 / ipratio=1.40 / pbratio=1.30 / aq-mode=1 / aq-strength=1.00 / cutree / zone-count=0 / no-strict-cbr / qg-size=32 / no-rc-grain / qpmax=69 / qpmin=0 / no-const-vbv / sar=1 / overscan=0 / videoformat=5 / range=0 / colorprim=9 / transfer=16 / colormatrix=9 / chromaloc=0 / display-window=0 / master-display=G(8500,39850)B(6550,2300)R(35400,14600)WP(15635,16450)L(10000000,1) / cll=897,308 / min-luma=0 / max-luma=1023 / log2-max-poc-lsb=8 / vui-timing-info / vui-hrd-info / slices=1 / no-opt-qp-pps / no-opt-ref-list-length-pps / no-multi-pass-opt-rps / scenecut-bias=0.05 / hist-threshold=0.03 / no-opt-cu-delta-qp / no-aq-motion / hdr10 / hdr10-opt / no-dhdr10-opt / no-idr-recovery-sei / analysis-reuse-level=0 / analysis-save-reuse-level=0 / analysis-load-reuse-level=0 / scale-factor=0 / refine-intra=0 / refine-inter=0 / refine-mv=1 / refine-ctu-distortion=0 / no-limit-sao / ctu-info=0 / no-lowpass-dct / refine-analysis-type=0 / copy-pic=1 / max-ausize-factor=1.0 / no-dynamic-refine / no-single-sei / no-hevc-aq / no-svt / no-field / qp-adaptation-range=1.00 / scenecut-aware-qp=0conformance-window-offsets / right=0 / bottom=0 / decoder-max-rate=0 / no-vbv-live-multi-pass
  22. Default                                  : Yes
  23. Forced                                   : No
  24. Color range                              : Limited
  25. Color primaries                          : BT.2020
  26. Transfer characteristics                 : PQ
  27. Matrix coefficients                      : BT.2020 non-constant
  28. Mastering display color primaries        : BT.2020
  29. Mastering display luminance              : min: 0.0001 cd/m2, max: 1000 cd/m2
  30. Maximum Content Light Level              : 897 cd/m2
  31. Maximum Frame-Average Light Level        : 308 cd/m2
  32. Audio
  33. ID                                       : 2
  34. Format                                   : E-AC-3
  35. Format/Info                              : Enhanced AC-3
  36. Commercial name                          : Dolby Digital Plus
  37. Codec ID                                 : A_EAC3
  38. Duration                                 : 1 h 54 min
  39. Bit rate mode                            : Constant
  40. Bit rate                                 : 640 kb/s
  41. Channel(s)                               : 6 channels
  42. Channel layout                           : L R C LFE Ls Rs
  43. Sampling rate                            : 48.0 kHz
  44. Frame rate                               : 31.250 FPS (1536 SPF)
  45. Compression mode                         : Lossy
  46. Stream size                              : 526 MiB (7%)
  47. Title                                    : English DDP 5.1
  48. Language                                 : English
  49. Service kind                             : Complete Main
  50. Default                                  : Yes
  51. Forced                                   : No
  52. Text #1
  53. ID                                       : 3
  54. Format                                   : UTF-8
  55. Codec ID                                 : S_TEXT/UTF8
  56. Codec ID/Info                            : UTF-8 Plain Text
  57. Duration                                 : 1 h 50 min
  58. Bit rate                                 : 69 b/s
  59. Frame rate                               : 0.220 FPS
  60. Count of elements                        : 1456
  61. Stream size                              : 56.3 KiB (0%)
  62. Title                                    : English SRT
  63. Language                                 : English
  64. Default                                  : Yes
  65. Forced                                   : No
  66. Text #2
  67. ID                                       : 4
  68. Format                                   : UTF-8
  69. Codec ID                                 : S_TEXT/UTF8
  70. Codec ID/Info                            : UTF-8 Plain Text
  71. Duration                                 : 1 h 53 min
  72. Bit rate                                 : 70 b/s
  73. Frame rate                               : 0.224 FPS
  74. Count of elements                        : 1531
  75. Stream size                              : 58.6 KiB (0%)
  76. Title                                    : English SDH SRT
  77. Language                                 : English
  78. Default                                  : No
  79. Forced                                   : No
  80. Menu
  81. 00:00:00.000                             : en:Chapter 01
  82. 00:06:10.745                             : en:Chapter 02
  83. 00:12:15.067                             : en:Chapter 03
  84. 00:23:03.340                             : en:Chapter 04
  85. 00:27:24.851                             : en:Chapter 05
  86. 00:34:07.587                             : en:Chapter 06
  87. 00:42:18.035                             : en:Chapter 07
  88. 00:48:24.526                             : en:Chapter 08
  89. 00:52:33.567                             : en:Chapter 09
  90. 00:59:58.136                             : en:Chapter 10
  91. 01:06:20.476                             : en:Chapter 11
  92. 01:10:19.840                             : en:Chapter 12
  93. 01:17:39.863                             : en:Chapter 13
  94. 01:27:26.574                             : en:Chapter 14
  95. 01:38:41.206                             : en:Chapter 15
  96. 01:46:39.059                             : en:Chapter 16
复制代码











回复

使用道具 举报

懒得打字嘛,点击右侧快捷回复 【右侧内容,后台自定义】
您需要登录后才可以回帖 登录 | 立即加入

本版积分规则

Archiver|小黑屋| 蓝光电影网 |网站地图

Copyright © 2021 Comsenz Inc. Powered by 蓝光电影网

蓝光电影网

本站内容由用户自主分享和转载自互联网,转载目的在于传递更多信息,并不代表本网赞同其观点和对其真实性负责。

如有侵权、违反国家法律政策行为,请联系我们,我们会第一时间及时清除和处理!

举报反馈邮箱:4k1080.com@gmail.com

快速回复 返回顶部 返回列表