找回密码

蓝光电影网

查看: 1083|回复: 0

[2160p] 全面回忆.Total.Recall.1990.2160p.UHD.BluRay.x265.10bit.HDR.DTS-HD.MA.5.1-RARBG 9.98GB

[复制链接]
蓝光币
1704
发表于 2023-1-7 01:50:24 | 显示全部楼层 |阅读模式


◎标  题 周全回忆
◎译  名 宇宙威龙(港) / 魔鬼总带动(台)
◎片  名 Total Recall
◎年  代 1990
◎产  地 美国
◎类  别 行动 / 科幻 / 惊悚 / 冒险
◎语  言 英语
◎上映日期 1990-06-01(美国)
◎IMDb评分 7.5/10 (333973人评价)
◎IMDb链接 https://www.imdb.com/title/tt0100802/
◎豆瓣评分 7.8/10 (32503人评价)
◎豆瓣链接 https://movie.douban.com/subject/1295870/
◎片  长 113分钟
◎导  演 保罗·范霍文 Paul Verhoeven
◎编  剧 菲利普·迪克 Philip K. Dick
       罗纳德·舒塞特 Ronald Shusett
       丹·欧班农 Dan O'Bannon
       Jon Povill Jon Povill
       加里·戈德曼 Gary Goldman
◎演  员 阿诺·施瓦辛格 Arnold Schwarzenegger
       雷切尔·蒂科汀 Rachel Ticotin
       莎朗·斯通 Sharon Stone
       罗尼·考克斯 Ronny Cox
       迈克尔·艾恩塞德 Michael Ironside
       马绍尔·贝尔 Marshall Bell
       梅尔约翰逊 Mel Johnson Jr.
       迈克尔切姆平 Michael Champion
       罗伊·布罗克斯史姑娘 Roy Brocksmith
       雷·贝克 Ray Baker
       萝丝玛丽·邓斯莫尔 Rosemary Dunsmore
       戴维·奈尔 David Knell
       阿列卡夏罗宾逊 Alexia Robinson
       迪恩·诺里斯 Dean Norris
       马克卡尔顿 Mark Carlton
       黛比·李·卡林顿 Debbie Lee Carrington
       Lycia Naff Lycia Naff
       罗伯特·康斯坦佐 Robert Costanzo
       Michael LaGuardia Michael LaGuardia
       Priscilla Allen Priscilla Allen
       马克·阿莱莫 Marc Alaimo
       迈克尔·格雷戈里 Michael Gregory
       阿兰·格拉夫 Allan Graf
       鲍勃·祖迪克 Bob Tzudiker
       Erik Cord Erik Cord
       Bennie Moore Bennie Moore
       户田惠子 Keiko Toda
       罗纳德·舒塞特 Ronald Shusett
       巴茨·费特香斯 Buzz Feitshans
       杰瑞·高德史姑娘 Jerry Goldsmith
       约斯特·瓦卡诺 Jost Vacano
       弗兰克·J·乌里奥斯特 Frank J. Urioste
       Valorie Massalas Valorie Massalas
       朱迪·泰勒 Judy Taylor
       迈克·芬顿 Mike Fenton
       詹姆斯·托奇 James E. Tocci
       威廉·桑德尔 William Sandell
       José Rodríguez Granada José Rodríguez Granada
       罗伯特·古尔德 Robert Gould
       Erica Edell Phillips Erica Edell Phillips
       杰夫·道恩 Jeff Dawn
       Michael White Michael White
       Craig Berkeley Craig Berkeley
       Peter Tothpal Peter Tothpal
       罗伯·博汀 Rob Bottin
       Robin Weiss Robin Weiss
       Vincent Prentice Vincent Prentice
       布拉德·库恩 Brad Kuehn
       Dobbie Schiff Dobbie Schiff
       埃里克·布雷维格 Eric Brevig
       马克·斯泰特森 Mark Stetson
       埃里克·亨利 Erik Henry
       罗伯·博汀 Rob Bottin
       Michael Kory Michael Kory
       托马斯·罗塞特 Thomas Rosseter
       马克·A·拉索夫 Mark A. Lasoff
◎简  介
  未来天下中,工程工人性情拉斯(Arnold Schwarzenegger 饰)被延续的梦乡困扰,那是一系列发生在红色火星上的体验。道格拉斯在广告上发现了回忆观光公司的先容,虽然同事警告他这类虚拟观光能够会风险人类的大脑,但比起亲身去一趟充溢着反政府武装的火星,回忆观光公司确是一个不错的挑选。道格拉斯如愿接管了回忆观光的办事,可是虚拟记忆的进程忽然出现毛病,自此一系列不成思议的履历出现在道格拉斯的身上,先是妻子劳瑞(Sharon Stone 饰)向他倡议进犯并认可自己是监视道格拉斯的特务,后来有陌生人出现帮助他逃走并指出他是火星独裁者针对反政府武装派出的奸细,成果由于一位女子梅丽(Rachel Ticotin 饰)改变了态度……道格拉斯动身前往火星,那边有一切的答案,大概一切又只是梦乡一场?
  1. Video
  2. ID                                       : 1
  3. Format                                   : HEVC
  4. Format/Info                              : High Efficiency Video Coding
  5. Format profile                           : Main 10@L5.1@Main
  6. HDR format                               : SMPTE ST 2086, HDR10 compatible
  7. Codec ID                                 : V_MPEGH/ISO/HEVC
  8. Duration                                 : 1 h 53 min
  9. Bit rate                                 : 8 021 kb/s
  10. Width                                    : 3 840 pixels
  11. Height                                   : 2 076 pixels
  12. Display aspect ratio                     : 1.85:1
  13. Frame rate mode                          : Constant
  14. Frame rate                               : 24.000 FPS
  15. Color space                              : YUV
  16. Chroma subsampling                       : 4:2:0
  17. Bit depth                                : 10 bits
  18. Bits/(Pixel*Frame)                       : 0.042
  19. Stream size                              : 6.35 GiB (64%)
  20. Writing library                          : x265 3.5+rarbg-HDR-38-20255e6:[Linux][clang 16.0.0][64 bit] 10bit
  21. Encoding settings                        : cpuid=1111039 / frame-threads=6 / wpp / no-pmode / no-pme / no-psnr / no-ssim / log-level=2 / input-csp=1 / input-res=3840x2076 / interlace=0 / total-frames=0 / level-idc=51 / high-tier=1 / uhd-bd=0 / ref=4 / no-allow-non-conformance / repeat-headers / annexb / aud / no-eob / no-eos / no-hrd / info / hash=0 / no-temporal-layers / no-open-gop / min-keyint=1 / keyint=24 / gop-lookahead=0 / bframes=4 / b-adapt=2 / b-pyramid / bframe-bias=0 / rc-lookahead=25 / lookahead-slices=4 / scenecut=40 / no-hist-scenecut / radl=0 / no-splice / no-intra-refresh / ctu=64 / min-cu-size=8 / rect / no-amp / max-tu-size=32 / tu-inter-depth=1 / tu-intra-depth=1 / limit-tu=0 / rdoq-level=2 / dynamic-rd=0.00 / no-ssim-rd / signhide / no-tskip / nr-intra=0 / nr-inter=0 / no-constrained-intra / strong-intra-smoothing / max-merge=3 / limit-refs=3 / no-limit-modes / me=3 / subme=3 / merange=57 / temporal-mvp / no-frame-dup / no-hme / weightp / no-weightb / no-analyze-src-pics / deblock=0:0 / no-sao / no-sao-non-deblock / rd=4 / selective-sao=0 / no-early-skip / rskip / no-fast-intra / no-tskip-fast / no-cu-lossless / no-b-intra / no-splitrd-skip / rdpenalty=0 / psy-rd=2.00 / psy-rdoq=1.00 / no-rd-refine / no-lossless / cbqpoffs=0 / crqpoffs=0 / rc=abr / bitrate=8000 / qcomp=0.60 / qpstep=4 / stats-write=0 / stats-read=2 / cplxblur=20.0 / qblur=0.5 / ipratio=1.40 / pbratio=1.30 / aq-mode=1 / aq-strength=1.00 / cutree / zone-count=0 / no-strict-cbr / qg-size=32 / no-rc-grain / qpmax=69 / qpmin=0 / no-const-vbv / sar=1 / overscan=0 / videoformat=5 / range=0 / colorprim=9 / transfer=16 / colormatrix=9 / chromaloc=0 / display-window=0 / master-display=G(8500,39850)B(6550,2300)R(35400,14600)WP(15635,16450)L(10000000,1) / cll=0,0 / min-luma=0 / max-luma=1023 / log2-max-poc-lsb=8 / vui-timing-info / vui-hrd-info / slices=1 / no-opt-qp-pps / no-opt-ref-list-length-pps / no-multi-pass-opt-rps / scenecut-bias=0.05 / hist-threshold=0.03 / no-opt-cu-delta-qp / no-aq-motion / hdr10 / hdr10-opt / no-dhdr10-opt / no-idr-recovery-sei / analysis-reuse-level=0 / analysis-save-reuse-level=0 / analysis-load-reuse-level=0 / scale-factor=0 / refine-intra=0 / refine-inter=0 / refine-mv=1 / refine-ctu-distortion=0 / no-limit-sao / ctu-info=0 / no-lowpass-dct / refine-analysis-type=0 / copy-pic=1 / max-ausize-factor=1.0 / no-dynamic-refine / no-single-sei / no-hevc-aq / no-svt / no-field / qp-adaptation-range=1.00 / scenecut-aware-qp=0conformance-window-offsets / right=0 / bottom=0 / decoder-max-rate=0 / no-vbv-live-multi-pass
  22. Default                                  : Yes
  23. Forced                                   : No
  24. Color range                              : Limited
  25. Color primaries                          : BT.2020
  26. Transfer characteristics                 : PQ
  27. Matrix coefficients                      : BT.2020 non-constant
  28. Mastering display color primaries        : BT.2020
  29. Mastering display luminance              : min: 0.0001 cd/m2, max: 1000 cd/m2
  30. Audio #1
  31. ID                                       : 2
  32. ID in the original source medium         : 4353 (0x1101)
  33. Format                                   : DTS XLL
  34. Format/Info                              : Digital Theater Systems
  35. Commercial name                          : DTS-HD Master Audio
  36. Codec ID                                 : A_DTS
  37. Duration                                 : 1 h 53 min
  38. Bit rate mode                            : Variable
  39. Bit rate                                 : 4 202 kb/s
  40. Channel(s)                               : 6 channels
  41. Channel layout                           : C L R Ls Rs LFE
  42. Sampling rate                            : 48.0 kHz
  43. Frame rate                               : 93.750 FPS (512 SPF)
  44. Bit depth                                : 24 bits
  45. Compression mode                         : Lossless
  46. Stream size                              : 3.32 GiB (33%)
  47. Title                                    : English DTS-HD MA 5.1
  48. Language                                 : English
  49. Default                                  : No
  50. Forced                                   : No
  51. Original source medium                   : Blu-ray
  52. Audio #2
  53. ID                                       : 3
  54. Format                                   : AC-3
  55. Format/Info                              : Audio Coding 3
  56. Commercial name                          : Dolby Digital
  57. Codec ID                                 : A_AC3
  58. Duration                                 : 1 h 53 min
  59. Bit rate mode                            : Constant
  60. Bit rate                                 : 384 kb/s
  61. Channel(s)                               : 6 channels
  62. Channel layout                           : L R C LFE Ls Rs
  63. Sampling rate                            : 48.0 kHz
  64. Frame rate                               : 31.250 FPS (1536 SPF)
  65. Compression mode                         : Lossy
  66. Stream size                              : 311 MiB (3%)
  67. Title                                    : English
  68. Language                                 : English
  69. Service kind                             : Complete Main
  70. Default                                  : No
  71. Forced                                   : No
  72. Text #1
  73. ID                                       : 4
  74. Format                                   : UTF-8
  75. Codec ID                                 : S_TEXT/UTF8
  76. Codec ID/Info                            : UTF-8 Plain Text
  77. Duration                                 : 1 h 49 min
  78. Bit rate                                 : 46 b/s
  79. Frame rate                               : 0.163 FPS
  80. Count of elements                        : 1070
  81. Stream size                              : 37.1 KiB (0%)
  82. Title                                    : English SRT
  83. Language                                 : English
  84. Default                                  : Yes
  85. Forced                                   : No
  86. Text #2
  87. ID                                       : 5
  88. Format                                   : UTF-8
  89. Codec ID                                 : S_TEXT/UTF8
  90. Codec ID/Info                            : UTF-8 Plain Text
  91. Duration                                 : 1 h 49 min
  92. Bit rate                                 : 48 b/s
  93. Frame rate                               : 0.173 FPS
  94. Count of elements                        : 1133
  95. Stream size                              : 38.4 KiB (0%)
  96. Title                                    : English SDH SRT
  97. Language                                 : English
  98. Default                                  : No
  99. Forced                                   : No
  100. Menu
  101. 00:00:00.000                             : en:Chapter 01
  102. 00:09:12.000                             : en:Chapter 02
  103. 00:20:39.000                             : en:Chapter 03
  104. 00:28:08.000                             : en:Chapter 04
  105. 00:35:53.000                             : en:Chapter 05
  106. 00:48:36.000                             : en:Chapter 06
  107. 00:55:53.000                             : en:Chapter 07
  108. 01:06:28.000                             : en:Chapter 08
  109. 01:14:39.000                             : en:Chapter 09
  110. 01:24:14.000                             : en:Chapter 10
  111. 01:35:06.000                             : en:Chapter 11
  112. 01:43:01.000                             : en:Chapter 12
复制代码











回复

使用道具 举报

懒得打字嘛,点击右侧快捷回复 【右侧内容,后台自定义】
您需要登录后才可以回帖 登录 | 立即加入

本版积分规则

Archiver|小黑屋| 蓝光电影网 |网站地图

Copyright © 2021 Comsenz Inc. Powered by 蓝光电影网

蓝光电影网

本站内容由用户自主分享和转载自互联网,转载目的在于传递更多信息,并不代表本网赞同其观点和对其真实性负责。

如有侵权、违反国家法律政策行为,请联系我们,我们会第一时间及时清除和处理!

举报反馈邮箱:4k1080.com@gmail.com

快速回复 返回顶部 返回列表