找回密码

蓝光电影网

查看: 1401|回复: 0

[2160p] 恶魔的光火.Prey.for.the.Devil.2022.2160p.BluRay.x265.10bit.SDR.DTS-HD.MA.TrueHD.7.1.Atmos-SWTYBLZ 25.94GB

[复制链接]
蓝光币
1704
发表于 2023-1-7 01:50:34 | 显示全部楼层 |阅读模式


◎标  题 恶魔的光火
◎译  名 鬼祷(台) / 魔鬼之光(港) / The Devil's Light
◎片  名 Prey for the Devil
◎年  代 2022
◎产  地 美国
◎类  别 惊悚 / 可骇
◎语  言 英语
◎上映日期 2022-10-26(法国) / 2022-10-28(美国)
◎IMDb评分 5.2/10 (7940人评价)
◎IMDb链接 https://www.imdb.com/title/tt9271672/
◎豆瓣评分 5.4/10 (827人评价)
◎豆瓣链接 https://movie.douban.com/subject/35053657/
◎片  长 93分钟
◎导  演 丹尼尔·斯坦 Daniel Stamm
◎编  剧 罗伯特·扎皮亚 Robert Zappia
       托德·R·琼斯 Todd R. Jones
       厄尔·里奇·琼斯 Earl Richey Jones
◎演  员 杰奎琳·拜尔斯 Jacqueline Byers
       维吉妮娅·马德森 Virginia Madsen
       科林·萨蒙 Colin Salmon
       尼古拉斯·瑞夫 Nicholas Ralph
       本·克劳斯 Ben Cross
       克里斯蒂安·纳瓦罗 Christian Navarro
       黛博拉·热切娃 Debora Zhecheva
       汤姆·福布斯 Tom Forbes
       丽莎·帕弗瑞 Lisa Palfrey
       波西·泰勒 Posy Taylor
       沃利扎·比尼夫 Velizar Binev
       欧文·戴维斯 Owen Davis
       雅娜·梅里诺娃 Yana Marinova
       亚妮娜·泰什娃 Yanina Kasheva
       马丁·塔斯科夫 Martin Taskov
       内森·巴尔 Nathan Barr
◎简  介
  加入教会未几的年轻修女安,深信替人驱魔是她天生的使命,但是天主教会却有个令她不满的不成文传统:只要神父可以停止驱魔仪式。幸亏,安和一个认可她驱魔天赋的导师相遇,因此破例让她介入并旁观驱魔课程,成为首位进修驱魔仪式的修女。安很快地展现出在驱魔上的才能,与此同时,众人却发现她与恶灵有着一段不成告人的曩昔……
  1. Video
  2. ID                                       : 1
  3. Format                                   : HEVC
  4. Format/Info                              : High Efficiency Video Coding
  5. Format profile                           : Main 10@L5.1@High
  6. Codec ID                                 : V_MPEGH/ISO/HEVC
  7. Duration                                 : 1 h 33 min
  8. Bit rate                                 : 31.1 Mb/s
  9. Width                                    : 3 840 pixels
  10. Height                                   : 1 606 pixels
  11. Display aspect ratio                     : 2.40:1
  12. Frame rate mode                          : Constant
  13. Frame rate                               : 23.976 (24000/1001) FPS
  14. Color space                              : YUV
  15. Chroma subsampling                       : 4:2:0
  16. Bit depth                                : 10 bits
  17. Bits/(Pixel*Frame)                       : 0.210
  18. Stream size                              : 20.2 GiB (78%)
  19. Writing library                          : x265 3.0+1-ed72af837053:[Windows][GCC 8.2.0][64 bit] 10bit
  20. Encoding settings                        : cpuid=1111039 / frame-threads=6 / numa-pools=40 / wpp / no-pmode / no-pme / no-psnr / no-ssim / log-level=2 / input-csp=1 / input-res=3840x1606 / interlace=0 / total-frames=134015 / level-idc=51 / high-tier=1 / uhd-bd=0 / ref=3 / no-allow-non-conformance / repeat-headers / annexb / aud / hrd / info / hash=0 / no-temporal-layers / no-open-gop / min-keyint=1 / keyint=24 / gop-lookahead=0 / bframes=4 / b-adapt=2 / b-pyramid / bframe-bias=0 / rc-lookahead=25 / lookahead-slices=4 / scenecut=40 / radl=0 / no-splice / no-intra-refresh / ctu=64 / min-cu-size=8 / no-rect / no-amp / max-tu-size=32 / tu-inter-depth=1 / tu-intra-depth=1 / limit-tu=0 / rdoq-level=0 / dynamic-rd=0.00 / no-ssim-rd / signhide / no-tskip / nr-intra=0 / nr-inter=0 / no-constrained-intra / strong-intra-smoothing / max-merge=2 / limit-refs=3 / no-limit-modes / me=1 / subme=2 / merange=57 / temporal-mvp / weightp / no-weightb / no-analyze-src-pics / deblock=0:0 / no-sao / no-sao-non-deblock / rd=3 / no-early-skip / rskip / no-fast-intra / no-tskip-fast / no-cu-lossless / no-b-intra / no-splitrd-skip / rdpenalty=0 / psy-rd=2.00 / psy-rdoq=0.00 / no-rd-refine / no-lossless / cbqpoffs=0 / crqpoffs=0 / rc=crf / crf=16.0 / qcomp=0.60 / qpstep=4 / stats-write=0 / stats-read=0 / vbv-maxrate=160000 / vbv-bufsize=160000 / vbv-init=0.9 / crf-max=0.0 / crf-min=0.0 / ipratio=1.40 / pbratio=1.30 / aq-mode=1 / aq-strength=1.00 / cutree / zone-count=0 / no-strict-cbr / qg-size=32 / no-rc-grain / qpmax=69 / qpmin=0 / no-const-vbv / sar=1 / overscan=0 / videoformat=5 / range=0 / colorprim=2 / transfer=2 / colormatrix=2 / chromaloc=0 / display-window=0 / max-cll=0,0 / min-luma=0 / max-luma=1023 / log2-max-poc-lsb=8 / vui-timing-info / vui-hrd-info / slices=1 / opt-qp-pps / opt-ref-list-length-pps / no-multi-pass-opt-rps / scenecut-bias=0.05 / no-opt-cu-delta-qp / no-aq-motion / no-hdr / no-hdr-opt / no-dhdr10-opt / no-idr-recovery-sei / analysis-reuse-level=5 / scale-factor=0 / refine-intra=0 / refine-inter=0 / refine-mv=0 / refine-ctu-distortion=0 / no-limit-sao / ctu-info=0 / no-lowpass-dct / refine-analysis-type=0 / copy-pic=1 / max-ausize-factor=1.0 / no-dynamic-refine / no-single-sei / no-hevc-aq / qp-adaptation-range=1.00
  21. Default                                  : Yes
  22. Forced                                   : No
  23. Audio #1
  24. ID                                       : 2
  25. Format                                   : MLP FBA 16-ch
  26. Format/Info                              : Meridian Lossless Packing FBA with 16-channel presentation
  27. Commercial name                          : Dolby TrueHD with Dolby Atmos
  28. Codec ID                                 : A_TRUEHD
  29. Duration                                 : 1 h 33 min
  30. Bit rate mode                            : Variable
  31. Bit rate                                 : 3 905 kb/s
  32. Maximum bit rate                         : 7 512 kb/s
  33. Channel(s)                               : 8 channels
  34. Channel layout                           : L R C LFE Ls Rs Lb Rb
  35. Sampling rate                            : 48.0 kHz
  36. Frame rate                               : 1 200.000 FPS (40 SPF)
  37. Compression mode                         : Lossless
  38. Stream size                              : 2.54 GiB (10%)
  39. Title                                    : TrueHD 7.1 Atmos
  40. Language                                 : English
  41. Default                                  : Yes
  42. Forced                                   : No
  43. Number of dynamic objects                : 11
  44. Bed channel count                        : 1 channel
  45. Bed channel configuration                : LFE
  46. Audio #2
  47. ID                                       : 3
  48. Format                                   : DTS XLL
  49. Format/Info                              : Digital Theater Systems
  50. Commercial name                          : DTS-HD Master Audio
  51. Codec ID                                 : A_DTS
  52. Duration                                 : 1 h 33 min
  53. Bit rate mode                            : Variable
  54. Bit rate                                 : 3 869 kb/s
  55. Channel(s)                               : 8 channels
  56. Channel layout                           : C L R LFE Lb Rb Lss Rss
  57. Sampling rate                            : 48.0 kHz
  58. Frame rate                               : 93.750 FPS (512 SPF)
  59. Bit depth                                : 24 bits
  60. Compression mode                         : Lossless
  61. Stream size                              : 2.52 GiB (10%)
  62. Title                                    : DTS-HD MA 7.1
  63. Language                                 : English
  64. Default                                  : No
  65. Forced                                   : No
  66. Audio #3
  67. ID                                       : 4
  68. Format                                   : AC-3
  69. Format/Info                              : Audio Coding 3
  70. Commercial name                          : Dolby Digital
  71. Codec ID                                 : A_AC3
  72. Duration                                 : 1 h 33 min
  73. Bit rate mode                            : Constant
  74. Bit rate                                 : 640 kb/s
  75. Channel(s)                               : 6 channels
  76. Channel layout                           : L R C LFE Ls Rs
  77. Sampling rate                            : 48.0 kHz
  78. Frame rate                               : 31.250 FPS (1536 SPF)
  79. Compression mode                         : Lossy
  80. Stream size                              : 426 MiB (2%)
  81. Title                                    : DD 5.1
  82. Language                                 : English
  83. Service kind                             : Complete Main
  84. Default                                  : No
  85. Forced                                   : No
  86. Text #1
  87. ID                                       : 5
  88. Format                                   : UTF-8
  89. Codec ID                                 : S_TEXT/UTF8
  90. Codec ID/Info                            : UTF-8 Plain Text
  91. Duration                                 : 1 h 25 min
  92. Bit rate                                 : 35 b/s
  93. Frame rate                               : 0.146 FPS
  94. Count of elements                        : 747
  95. Stream size                              : 22.4 KiB (0%)
  96. Language                                 : English
  97. Default                                  : Yes
  98. Forced                                   : No
  99. Text #2
  100. ID                                       : 6
  101. Format                                   : UTF-8
  102. Codec ID                                 : S_TEXT/UTF8
  103. Codec ID/Info                            : UTF-8 Plain Text
  104. Duration                                 : 1 h 26 min
  105. Bit rate                                 : 48 b/s
  106. Frame rate                               : 0.206 FPS
  107. Count of elements                        : 1072
  108. Stream size                              : 30.5 KiB (0%)
  109. Title                                    : SDH
  110. Language                                 : English
  111. Default                                  : No
  112. Forced                                   : No
  113. Text #3
  114. ID                                       : 7
  115. Format                                   : PGS
  116. Muxing mode                              : zlib
  117. Codec ID                                 : S_HDMV/PGS
  118. Codec ID/Info                            : Picture based subtitle format used on BDs/HD-DVDs
  119. Duration                                 : 1 h 26 min
  120. Bit rate                                 : 31.0 kb/s
  121. Frame rate                               : 0.426 FPS
  122. Count of elements                        : 2212
  123. Stream size                              : 19.2 MiB (0%)
  124. Title                                    : SDH
  125. Language                                 : English
  126. Default                                  : No
  127. Forced                                   : No
  128. Text #4
  129. ID                                       : 8
  130. Format                                   : PGS
  131. Muxing mode                              : zlib
  132. Codec ID                                 : S_HDMV/PGS
  133. Codec ID/Info                            : Picture based subtitle format used on BDs/HD-DVDs
  134. Duration                                 : 1 h 26 min
  135. Bit rate                                 : 23.5 kb/s
  136. Frame rate                               : 0.292 FPS
  137. Count of elements                        : 1508
  138. Stream size                              : 14.4 MiB (0%)
  139. Language                                 : French
  140. Default                                  : No
  141. Forced                                   : No
  142. Text #5
  143. ID                                       : 9
  144. Format                                   : PGS
  145. Muxing mode                              : zlib
  146. Codec ID                                 : S_HDMV/PGS
  147. Codec ID/Info                            : Picture based subtitle format used on BDs/HD-DVDs
  148. Duration                                 : 1 h 32 min
  149. Bit rate                                 : 21.2 kb/s
  150. Frame rate                               : 0.289 FPS
  151. Count of elements                        : 1600
  152. Stream size                              : 14.0 MiB (0%)
  153. Language                                 : Spanish
  154. Default                                  : No
  155. Forced                                   : No
  156. Menu
  157. 00:00:00.000                             : en:Chapter 01
  158. 00:03:38.510                             : en:Chapter 02
  159. 00:11:02.996                             : en:Chapter 03
  160. 00:17:43.396                             : en:Chapter 04
  161. 00:23:15.728                             : en:Chapter 05
  162. 00:31:54.621                             : en:Chapter 06
  163. 00:35:29.127                             : en:Chapter 07
  164. 00:42:59.327                             : en:Chapter 08
  165. 00:47:39.523                             : en:Chapter 09
  166. 00:55:41.797                             : en:Chapter 10
  167. 00:59:15.051                             : en:Chapter 11
  168. 01:04:20.398                             : en:Chapter 12
  169. 01:07:03.353                             : en:Chapter 13
  170. 01:11:11.976                             : en:Chapter 14
  171. 01:20:41.086                             : en:Chapter 15
  172. 01:24:56.508                             : en:Chapter 16
复制代码
















恶魔的光火.Prey.for.the.Devil.2022.2160p.BluRay.x265.10bit.SDR.DTS-HD.MA.TrueHD.7.1.Atmos-SWTYBLZ 25.94GB

Prey.for.the.Devil.2022.2160p.BluRay.x265.10bit.SDR.DTS-HD.MA.TrueHD.7.1.Atmos-S.torrent

33.17 KB, 下载次数: 6, 下载积分: 蓝光币 -2

回复

使用道具 举报

懒得打字嘛,点击右侧快捷回复 【右侧内容,后台自定义】
您需要登录后才可以回帖 登录 | 立即加入

本版积分规则

Archiver|小黑屋| 蓝光电影网 |网站地图

Copyright © 2021 Comsenz Inc. Powered by 蓝光电影网

蓝光电影网

本站内容由用户自主分享和转载自互联网,转载目的在于传递更多信息,并不代表本网赞同其观点和对其真实性负责。

如有侵权、违反国家法律政策行为,请联系我们,我们会第一时间及时清除和处理!

举报反馈邮箱:4k1080.com@gmail.com

快速回复 返回顶部 返回列表