找回密码

查看: 1623|回复: 0

[其他] 坚不可摧的剑.Escape.Through.Africa.2022.1080p.AMZN.WEBRip.DDP5.1.x264-CM 7.74GB

[复制链接]
蓝光币
2027
发表于 2023-1-7 01:53:01 | 显示全部楼层 |阅读模式


◎标  题 坚不成摧的剑
◎片  名 The Unbreakable Sword
◎年  代 2020
◎产  地 美国
◎类  别 冒险
◎语  言 英语
◎上映日期 2020-02-10(美国)
◎IMDb评分 3.8/10 (115人评价)
◎IMDb链接 https://www.imdb.com/title/tt2218324/
◎豆瓣链接 https://movie.douban.com/subject/35277256/
◎片  长 90分钟
◎导  演 特德·贝兹 Ted Betz
◎编  剧 特德·贝兹 Ted Betz
◎演  员 贾斯汀·戈登 Justin Gordon
       埃里克·罗伯茨 Eric Roberts
       林恩·比约兰 Linn Bjornland
       特德·贝兹 Ted Betz
◎简  介
  1914年,一位英国军官和他的传教士侄女在危险的东非地形上跋涉,遭到敌方原居民的追逐,目标是阻止他们到达悠远的哨所
  1. Video
  2. ID                                       : 1
  3. Format                                   : AVC
  4. Format/Info                              : Advanced Video Codec
  5. Format profile                           : High@L4
  6. Format settings                          : CABAC / 4 Ref Frames
  7. Format settings, CABAC                   : Yes
  8. Format settings, Reference frames        : 4 frames
  9. Codec ID                                 : V_MPEG4/ISO/AVC
  10. Duration                                 : 1 h 29 min
  11. Bit rate                                 : 11.8 Mb/s
  12. Width                                    : 1 920 pixels
  13. Height                                   : 1 040 pixels
  14. Display aspect ratio                     : 1.85:1
  15. Frame rate mode                          : Constant
  16. Frame rate                               : 23.976 (24000/1001) FPS
  17. Color space                              : YUV
  18. Chroma subsampling                       : 4:2:0
  19. Bit depth                                : 8 bits
  20. Scan type                                : Progressive
  21. Bits/(Pixel*Frame)                       : 0.246
  22. Stream size                              : 7.34 GiB (95%)
  23. Language                                 : English
  24. Default                                  : Yes
  25. Forced                                   : No
  26. Color range                              : Limited
  27. Color primaries                          : BT.709
  28. Transfer characteristics                 : BT.709
  29. Matrix coefficients                      : BT.709
  30. Audio
  31. ID                                       : 2
  32. Format                                   : E-AC-3
  33. Format/Info                              : Enhanced AC-3
  34. Commercial name                          : Dolby Digital Plus
  35. Codec ID                                 : A_EAC3
  36. Duration                                 : 1 h 29 min
  37. Bit rate mode                            : Constant
  38. Bit rate                                 : 640 kb/s
  39. Channel(s)                               : 6 channels
  40. Channel layout                           : L R C LFE Ls Rs
  41. Sampling rate                            : 48.0 kHz
  42. Frame rate                               : 31.250 FPS (1536 SPF)
  43. Compression mode                         : Lossy
  44. Stream size                              : 408 MiB (5%)
  45. Language                                 : English
  46. Service kind                             : Complete Main
  47. Default                                  : Yes
  48. Forced                                   : No
  49. Text #1
  50. ID                                       : 3
  51. Format                                   : UTF-8
  52. Codec ID                                 : S_TEXT/UTF8
  53. Codec ID/Info                            : UTF-8 Plain Text
  54. Duration                                 : 1 h 29 min
  55. Bit rate                                 : 59 b/s
  56. Frame rate                               : 0.275 FPS
  57. Count of elements                        : 1474
  58. Stream size                              : 39.2 KiB (0%)
  59. Title                                    : SDH
  60. Language                                 : English
  61. Default                                  : No
  62. Forced                                   : No
  63. Text #2
  64. ID                                       : 4
  65. Format                                   : UTF-8
  66. Codec ID                                 : S_TEXT/UTF8
  67. Codec ID/Info                            : UTF-8 Plain Text
  68. Duration                                 : 1 h 22 min
  69. Bit rate                                 : 51 b/s
  70. Frame rate                               : 0.229 FPS
  71. Count of elements                        : 1139
  72. Stream size                              : 31.3 KiB (0%)
  73. Language                                 : English
  74. Default                                  : No
  75. Forced                                   : No
复制代码











回复

使用道具 举报

懒得打字嘛,点击右侧快捷回复 【右侧内容,后台自定义】
您需要登录后才可以回帖 登录 | 立即加入

本版积分规则

Archiver| |网站地图

Copyright © 2024 Comsenz Inc. Powered by 蓝光电影网

本站内容由用户自主分享和转载自互联网,转载目的在于传递更多信息,并不代表本网赞同其观点和对其真实性负责。

如有侵权、违反国家法律政策行为,请联系我们,我们会第一时间及时清除和处理!

举报反馈邮箱:4k1080.com@gmail.com

快速回复 返回顶部 返回列表