找回密码

蓝光电影网

查看: 627|回复: 0

[科幻] 复身犯[国语音轨/中文字幕].Plurality.2021.CHINESE.1080p.DSNP.WEBRip.AAC2.0.x264-TAGWEB 4.56GB

[复制链接]
蓝光币
1451
发表于 2023-1-7 01:53:02 | 显示全部楼层 |阅读模式


◎标  题 复身犯
◎译  名 代号193 / Plurality
◎片  名 複身犯
◎年  代 2021
◎产  地 中国台湾
◎类  别 科幻 / 悬疑 / 惊悚 / 犯罪
◎语  言 汉语普通话
◎上映日期 2021-02-26(中国台湾)
◎IMDb评分 5.9/10 (67人评价)
◎IMDb链接 https://www.imdb.com/title/tt14332502/
◎豆瓣评分 6.0/10 (683人评价)
◎豆瓣链接 https://movie.douban.com/subject/34460775/
◎片  长 106分钟
◎导  演 萧力修 Li-shiou Shao
◎编  剧 林秉聿 Benjamin Lin
       萧力修 Li-shiou Shao
       洪子咏 Tzu-Yung Hung
◎演  员 杨祐宁 Yo Yang
       张榕容 Sandrine Pinna
       李铭忠 Frederick Lee Ming-Zhong
       陈以文 Yiwen Chen
       王净 Gingle Wang
       林哲熹 JC Lin
       赵逸岚 Chao Yi-lan
       梁正群 Danny Liang
       龙劭华 Siu Wa Lung
       林秉聿 Benjamin Lin
       于光维 Jimmy Yu
       储榢逸 Chia-Yi Chu
       董明星 Ming-Xing Dong
       徐国洲 Kuo-Chou Hsu
◎简  介
  《代号193》中将某人认识透过尝试阶段的科技上传给另一人的“认识上传”,是寻觅答案的关键。因脚色可以进入大脑认识鞭策故事成长,萧力修点窜剧本时研讨大量心理学、多重品德的材料,并厘清片中“认识上传”的逻辑与叙事方式。                                    
                                电影里分歧人的认识被上传到杨祐宁的身材里,是以他得饰演分歧人的样貌。萧力修诠释,“这比一个脚色饰演多重品德割裂更复杂,由于还得方法会他接收到的认识来自怎样性情的人,让观众晓得他已酿成另一个脚色。”                                    
                                女配角张榕容饰演本性顽强的脑科学博士,并有一个7岁的小孩。
  1. Video
  2. ID                                       : 1
  3. Format                                   : AVC
  4. Format/Info                              : Advanced Video Codec
  5. Format profile                           : High@L4
  6. Format settings                          : CABAC / 4 Ref Frames
  7. Format settings, CABAC                   : Yes
  8. Format settings, Reference frames        : 4 frames
  9. Codec ID                                 : V_MPEG4/ISO/AVC
  10. Duration                                 : 1 h 46 min
  11. Bit rate mode                            : Variable
  12. Bit rate                                 : 6 000 kb/s
  13. Maximum bit rate                         : 12.7 Mb/s
  14. Width                                    : 1 920 pixels
  15. Height                                   : 1 080 pixels
  16. Display aspect ratio                     : 16:9
  17. Frame rate mode                          : Constant
  18. Frame rate                               : 24.000 FPS
  19. Color space                              : YUV
  20. Chroma subsampling                       : 4:2:0
  21. Bit depth                                : 8 bits
  22. Scan type                                : Progressive
  23. Bits/(Pixel*Frame)                       : 0.121
  24. Stream size                              : 4.47 GiB (98%)
  25. Language                                 : English
  26. Default                                  : Yes
  27. Forced                                   : No
  28. Color range                              : Limited
  29. Color primaries                          : BT.709
  30. Transfer characteristics                 : BT.709
  31. Matrix coefficients                      : BT.709
  32. Audio
  33. ID                                       : 2
  34. Format                                   : AAC LC
  35. Format/Info                              : Advanced Audio Codec Low Complexity
  36. Codec ID                                 : A_AAC-2
  37. Duration                                 : 1 h 46 min
  38. Bit rate                                 : 125 kb/s
  39. Channel(s)                               : 2 channels
  40. Channel layout                           : L R
  41. Sampling rate                            : 48.0 kHz
  42. Frame rate                               : 46.875 FPS (1024 SPF)
  43. Compression mode                         : Lossy
  44. Stream size                              : 95.6 MiB (2%)
  45. Title                                    : Mandarin Chinese
  46. Language                                 : Chinese
  47. Default                                  : Yes
  48. Forced                                   : No
  49. Text #1
  50. ID                                       : 3
  51. Format                                   : UTF-8
  52. Codec ID                                 : S_TEXT/UTF8
  53. Codec ID/Info                            : UTF-8 Plain Text
  54. Duration                                 : 1 h 36 min
  55. Bit rate                                 : 31 b/s
  56. Frame rate                               : 0.179 FPS
  57. Count of elements                        : 1037
  58. Stream size                              : 22.4 KiB (0%)
  59. Title                                    : 中文 (简体)
  60. Language                                 : Chinese (Simplied)
  61. Default                                  : Yes
  62. Forced                                   : No
  63. Text #2
  64. ID                                       : 4
  65. Format                                   : UTF-8
  66. Codec ID                                 : S_TEXT/UTF8
  67. Codec ID/Info                            : UTF-8 Plain Text
  68. Duration                                 : 1 h 36 min
  69. Bit rate                                 : 31 b/s
  70. Frame rate                               : 0.181 FPS
  71. Count of elements                        : 1049
  72. Stream size                              : 22.0 KiB (0%)
  73. Title                                    : 中文 (繁體)
  74. Language                                 : Chinese (Traditional)
  75. Default                                  : No
  76. Forced                                   : No
  77. Text #3
  78. ID                                       : 5
  79. Format                                   : UTF-8
  80. Codec ID                                 : S_TEXT/UTF8
  81. Codec ID/Info                            : UTF-8 Plain Text
  82. Duration                                 : 1 h 37 min
  83. Bit rate                                 : 35 b/s
  84. Frame rate                               : 0.180 FPS
  85. Count of elements                        : 1049
  86. Stream size                              : 25.1 KiB (0%)
  87. Title                                    : English
  88. Language                                 : English
  89. Default                                  : No
  90. Forced                                   : No
复制代码











回复

使用道具 举报

懒得打字嘛,点击右侧快捷回复 【右侧内容,后台自定义】
您需要登录后才可以回帖 登录 | 立即加入

本版积分规则

Archiver|小黑屋| 蓝光电影网 |网站地图

Copyright © 2021 Comsenz Inc. Powered by 蓝光电影网

蓝光电影网

本站内容由用户自主分享和转载自互联网,转载目的在于传递更多信息,并不代表本网赞同其观点和对其真实性负责。

如有侵权、违反国家法律政策行为,请联系我们,我们会第一时间及时清除和处理!

举报反馈邮箱:4k1080.com@gmail.com

快速回复 返回顶部 返回列表