找回密码

蓝光电影网

查看: 760|回复: 0

[剧情] 我是自愿让他杀了我[国语音轨/中文字幕].You.Have.to.Kill.Me.2021.CHINESE.1080p.DSNP.WEBRip.DDP5.1.x264-TAGWEB 5.39GB

[复制链接]
蓝光币
1704
发表于 2023-1-7 01:53:03 | 显示全部楼层 |阅读模式


◎标  题 我是自愿让他杀了我
◎译  名 谁是陈凯欣 / You Have To Kill Me
◎片  名 我是自願讓他殺了我
◎年  代 2021
◎产  地 中国台湾
◎类  别 剧情 / 悬疑 / 犯罪
◎语  言 汉语普通话
◎上映日期 2022-04-16(中国台湾收集) / 2021-10-30(高雄电影节)
◎IMDb评分 5.9/10 (18人评价)
◎IMDb链接 https://www.imdb.com/title/tt15677224/
◎豆瓣评分 5.6/10 (275人评价)
◎豆瓣链接 https://movie.douban.com/subject/35605405/
◎片  长 105分钟
◎导  演 詹淳皓 Chun-Hao Chan
◎编  剧 吴思颖
◎演  员 蔡淑臻 Janel Tsai
       郑人硕 Rexen Cheng
       薛仕凌 Simon Hsueh
       余晋 Snoopy Yu
       尹昭德 Chao-te Yin
       赵逸岚 Chao Yi-lan
       阮柏皓 Po-Hao Juan
       蔡承邑 Kass Tsai
       洪毓璟 Yu-Jing Hong
◎简  介
    刑警周行跟女友陳凱欣求婚前夜,臨時接獲一路兇殺案通報,他循沮s到山區,當場拘系殺人犯李子建,發現死者居然是他的女友。周行強忍震驚與悲痛,一路清查真相,监犯貴為議長獨子,在議長袒護下試圖昭雪,更自白對方是自願被殺。更讓周行意外的是,來認女友屍體的是一群陌生家屬,她的真實身份还有其人,案情堕入膠著,女友留下的重重謎團,讓昔日深情的一切瞬間被摧毀。                                                                      七十六号原子繼犯罪影集《追兇500 天》後,再度推出女性心理驚悚懸疑作品,由鄭人碩、蔡淑臻、薛仕凌等主演,改編自著名小說家逢時同名原著,非典型的「幫助殺人」概念相當吸睛,挑戰複雜跳接的時序劇情,翻轉犯罪舅鞯倪壿嫞瑹X水平直逼《緝魂》。
  1. Video
  2. ID                                       : 1
  3. Format                                   : AVC
  4. Format/Info                              : Advanced Video Codec
  5. Format profile                           : High@L4
  6. Format settings                          : CABAC / 4 Ref Frames
  7. Format settings, CABAC                   : Yes
  8. Format settings, Reference frames        : 4 frames
  9. Codec ID                                 : V_MPEG4/ISO/AVC
  10. Duration                                 : 1 h 44 min
  11. Bit rate mode                            : Variable
  12. Bit rate                                 : 7 108 kb/s
  13. Maximum bit rate                         : 12.7 Mb/s
  14. Width                                    : 1 920 pixels
  15. Height                                   : 1 080 pixels
  16. Display aspect ratio                     : 16:9
  17. Frame rate mode                          : Constant
  18. Frame rate                               : 23.976 (24000/1001) FPS
  19. Color space                              : YUV
  20. Chroma subsampling                       : 4:2:0
  21. Bit depth                                : 8 bits
  22. Scan type                                : Progressive
  23. Bits/(Pixel*Frame)                       : 0.143
  24. Stream size                              : 5.20 GiB (96%)
  25. Language                                 : English
  26. Default                                  : Yes
  27. Forced                                   : No
  28. Color range                              : Limited
  29. Color primaries                          : BT.709
  30. Transfer characteristics                 : BT.709
  31. Matrix coefficients                      : BT.709
  32. Audio
  33. ID                                       : 2
  34. Format                                   : E-AC-3
  35. Format/Info                              : Enhanced AC-3
  36. Commercial name                          : Dolby Digital Plus
  37. Codec ID                                 : A_EAC3
  38. Duration                                 : 1 h 44 min
  39. Bit rate mode                            : Constant
  40. Bit rate                                 : 256 kb/s
  41. Channel(s)                               : 6 channels
  42. Channel layout                           : L R C LFE Ls Rs
  43. Sampling rate                            : 48.0 kHz
  44. Frame rate                               : 31.250 FPS (1536 SPF)
  45. Compression mode                         : Lossy
  46. Stream size                              : 192 MiB (3%)
  47. Title                                    : Mandarin Chinese
  48. Language                                 : Chinese
  49. Service kind                             : Complete Main
  50. Default                                  : Yes
  51. Forced                                   : No
  52. Text #1
  53. ID                                       : 3
  54. Format                                   : UTF-8
  55. Codec ID                                 : S_TEXT/UTF8
  56. Codec ID/Info                            : UTF-8 Plain Text
  57. Duration                                 : 1 h 38 min
  58. Bit rate                                 : 29 b/s
  59. Frame rate                               : 0.160 FPS
  60. Count of elements                        : 945
  61. Stream size                              : 21.1 KiB (0%)
  62. Title                                    : 中文 (简体)
  63. Language                                 : Chinese (Simplied)
  64. Default                                  : Yes
  65. Forced                                   : No
  66. Text #2
  67. ID                                       : 4
  68. Format                                   : UTF-8
  69. Codec ID                                 : S_TEXT/UTF8
  70. Codec ID/Info                            : UTF-8 Plain Text
  71. Duration                                 : 1 h 38 min
  72. Bit rate                                 : 29 b/s
  73. Frame rate                               : 0.160 FPS
  74. Count of elements                        : 945
  75. Stream size                              : 21.1 KiB (0%)
  76. Title                                    : 中文 (繁體)
  77. Language                                 : Chinese (Traditional)
  78. Default                                  : No
  79. Forced                                   : No
  80. Text #3
  81. ID                                       : 5
  82. Format                                   : UTF-8
  83. Codec ID                                 : S_TEXT/UTF8
  84. Codec ID/Info                            : UTF-8 Plain Text
  85. Duration                                 : 1 h 38 min
  86. Bit rate                                 : 34 b/s
  87. Frame rate                               : 0.163 FPS
  88. Count of elements                        : 960
  89. Stream size                              : 24.7 KiB (0%)
  90. Title                                    : English
  91. Language                                 : English
  92. Default                                  : No
  93. Forced                                   : No
复制代码











回复

使用道具 举报

懒得打字嘛,点击右侧快捷回复 【右侧内容,后台自定义】
您需要登录后才可以回帖 登录 | 立即加入

本版积分规则

Archiver|小黑屋| 蓝光电影网 |网站地图

Copyright © 2021 Comsenz Inc. Powered by 蓝光电影网

蓝光电影网

本站内容由用户自主分享和转载自互联网,转载目的在于传递更多信息,并不代表本网赞同其观点和对其真实性负责。

如有侵权、违反国家法律政策行为,请联系我们,我们会第一时间及时清除和处理!

举报反馈邮箱:4k1080.com@gmail.com

快速回复 返回顶部 返回列表