找回密码

查看: 1156|回复: 1

[悬疑] 淡蓝之眸[中文字幕].The.Pale.Blue.Eye.2022.1080p.NF.WEBRip.DDP5.1.Atmos.x264-SMURF 5.01GB

[复制链接]
蓝光币
1848
发表于 2023-1-7 01:53:04 | 显示全部楼层 |阅读模式


◎标  题 淡蓝之眸
◎译  名 淡蓝眼眸
◎片  名 The Pale Blue Eye
◎年  代 2022
◎产  地 美国
◎类  别 悬疑 / 惊悚 / 可骇 / 犯罪
◎语  言 英语
◎上映日期 2022-12-23(美国) / 2023-01-06(美国收集)
◎IMDb评分 6.5/10 (423人评价)
◎IMDb链接 https://www.imdb.com/title/tt14138650/
◎豆瓣链接 https://movie.douban.com/subject/35382472/
◎片  长 128分钟
◎导  演 斯科特·库珀 Scott Cooper
◎编  剧 斯科特·库珀 Scott Cooper
◎演  员 克里斯蒂安·贝尔 Christian Bale
       哈利·米尔林 Harry Melling
       吉莲·安德森 Gillian Anderson
       露西·宝通 Lucy Boynton
       夏洛特·甘斯布 Charlotte Gainsbourg
       托比·琼斯 Toby Jones
       哈利·劳蒂 Harry Lawtey
       西蒙·迈克伯尼 Simon McBurney
       蒂莫西·斯波 Timothy Spall
       哈德莉·罗宾逊 Hadley Robinson
       乔伊·布鲁克斯 Joey Brooks
       布伦南·凯尔·库克 Brennan Keel Cook
       戈登·格里克 Gideon Glick
       弗莱德·赫钦格 Fred Hechinger
       马特·赫尔姆 Matt Helm
       查理·塔汉 Charlie Tahan
       史蒂文·迈尔 Steven Maier
       罗伯特·杜瓦尔 Robert Duvall
       卡西娅·瓦利卡-麦蒙 Kasia Walicka-Maimone
◎简  介
  报告1830年西点军校发生了一系列谋杀案,退休侦察Augustus Landor(克里斯蒂安·贝尔 饰)对此展开观察,而辅佐他那位重视细节的年轻学员,正是后来成为举世著名作家的埃德加·爱伦·坡(哈利·米尔林 饰)。
  1. Video
  2. ID                                       : 1
  3. Format                                   : AVC
  4. Format/Info                              : Advanced Video Codec
  5. Format profile                           : Main@L4
  6. Format settings                          : CABAC / 3 Ref Frames
  7. Format settings, CABAC                   : Yes
  8. Format settings, Reference frames        : 3 frames
  9. Codec ID                                 : V_MPEG4/ISO/AVC
  10. Duration                                 : 2 h 10 min
  11. Bit rate mode                            : Variable
  12. Bit rate                                 : 4 740 kb/s
  13. Nominal bit rate                         : 5 000 kb/s
  14. Maximum bit rate                         : 7 500 kb/s
  15. Width                                    : 1 920 pixels
  16. Height                                   : 1 080 pixels
  17. Display aspect ratio                     : 16:9
  18. Frame rate mode                          : Constant
  19. Frame rate                               : 24.000 FPS
  20. Color space                              : YUV
  21. Chroma subsampling                       : 4:2:0
  22. Bit depth                                : 8 bits
  23. Scan type                                : Progressive
  24. Bits/(Pixel*Frame)                       : 0.095
  25. Stream size                              : 4.31 GiB (86%)
  26. Writing library                          : x264 core 148 r2727 7d026e8
  27. Encoding settings                        : cabac=1 / ref=3 / deblock=1:0:0 / analyse=0x1:0x111 / me=umh / subme=10 / psy=1 / psy_rd=1.00:0.00 / mixed_ref=1 / me_range=24 / chroma_me=1 / trellis=2 / 8x8dct=0 / cqm=0 / deadzone=21,11 / fast_pskip=1 / chroma_qp_offset=-2 / threads=8 / lookahead_threads=1 / sliced_threads=0 / nr=0 / decimate=1 / interlaced=0 / bluray_compat=0 / stitchable=1 / constrained_intra=0 / bframes=2 / b_pyramid=0 / b_adapt=2 / b_bias=0 / direct=3 / weightb=1 / open_gop=0 / weightp=2 / keyint=48 / keyint_min=25 / scenecut=0 / intra_refresh=0 / rc_lookahead=48 / rc=2pass / mbtree=1 / bitrate=5000 / ratetol=1.0 / qcomp=0.50 / qpmin=6 / qpmax=51 / qpstep=4 / cplxblur=20.0 / qblur=0.5 / vbv_maxrate=7500 / vbv_bufsize=10000 / nal_hrd=vbr / filler=0 / ip_ratio=1.40 / aq=1:1.00
  28. Language                                 : English
  29. Default                                  : Yes
  30. Forced                                   : No
  31. Audio
  32. ID                                       : 2
  33. Format                                   : E-AC-3 JOC
  34. Format/Info                              : Enhanced AC-3 with Joint Object Coding
  35. Commercial name                          : Dolby Digital Plus with Dolby Atmos
  36. Codec ID                                 : A_EAC3
  37. Duration                                 : 2 h 10 min
  38. Bit rate mode                            : Constant
  39. Bit rate                                 : 768 kb/s
  40. Channel(s)                               : 6 channels
  41. Channel layout                           : L R C LFE Ls Rs
  42. Sampling rate                            : 48.0 kHz
  43. Frame rate                               : 31.250 FPS (1536 SPF)
  44. Compression mode                         : Lossy
  45. Stream size                              : 715 MiB (14%)
  46. Language                                 : English
  47. Service kind                             : Complete Main
  48. Default                                  : Yes
  49. Forced                                   : No
  50. Complexity index                         : 16
  51. Number of dynamic objects                : 15
  52. Bed channel count                        : 1 channel
  53. Bed channel configuration                : LFE
  54. Text #1
  55. ID                                       : 3
  56. Format                                   : UTF-8
  57. Codec ID                                 : S_TEXT/UTF8
  58. Codec ID/Info                            : UTF-8 Plain Text
  59. Duration                                 : 1 h 58 min
  60. Bit rate                                 : 54 b/s
  61. Frame rate                               : 0.194 FPS
  62. Count of elements                        : 1380
  63. Stream size                              : 47.1 KiB (0%)
  64. Language                                 : English
  65. Default                                  : No
  66. Forced                                   : No
  67. Text #2
  68. ID                                       : 4
  69. Format                                   : UTF-8
  70. Codec ID                                 : S_TEXT/UTF8
  71. Codec ID/Info                            : UTF-8 Plain Text
  72. Duration                                 : 2 h 2 min
  73. Bit rate                                 : 58 b/s
  74. Frame rate                               : 0.212 FPS
  75. Count of elements                        : 1557
  76. Stream size                              : 52.3 KiB (0%)
  77. Title                                    : SDH
  78. Language                                 : English
  79. Default                                  : No
  80. Forced                                   : No
  81. Text #3
  82. ID                                       : 5
  83. Format                                   : UTF-8
  84. Codec ID                                 : S_TEXT/UTF8
  85. Codec ID/Info                            : UTF-8 Plain Text
  86. Duration                                 : 2 h 7 min
  87. Bit rate                                 : 79 b/s
  88. Frame rate                               : 0.174 FPS
  89. Count of elements                        : 1338
  90. Stream size                              : 74.9 KiB (0%)
  91. Language                                 : Arabic
  92. Default                                  : No
  93. Forced                                   : No
  94. Text #4
  95. ID                                       : 6
  96. Format                                   : UTF-8
  97. Codec ID                                 : S_TEXT/UTF8
  98. Codec ID/Info                            : UTF-8 Plain Text
  99. Duration                                 : 2 h 7 min
  100. Bit rate                                 : 50 b/s
  101. Frame rate                               : 0.179 FPS
  102. Count of elements                        : 1370
  103. Stream size                              : 46.8 KiB (0%)
  104. Language                                 : Catalan
  105. Default                                  : No
  106. Forced                                   : No
  107. Text #5
  108. ID                                       : 7
  109. Format                                   : UTF-8
  110. Codec ID                                 : S_TEXT/UTF8
  111. Codec ID/Info                            : UTF-8 Plain Text
  112. Duration                                 : 2 h 7 min
  113. Bit rate                                 : 46 b/s
  114. Frame rate                               : 0.174 FPS
  115. Count of elements                        : 1336
  116. Stream size                              : 43.8 KiB (0%)
  117. Language                                 : Czech
  118. Default                                  : No
  119. Forced                                   : No
  120. Text #6
  121. ID                                       : 8
  122. Format                                   : UTF-8
  123. Codec ID                                 : S_TEXT/UTF8
  124. Codec ID/Info                            : UTF-8 Plain Text
  125. Duration                                 : 2 h 7 min
  126. Bit rate                                 : 45 b/s
  127. Frame rate                               : 0.174 FPS
  128. Count of elements                        : 1335
  129. Stream size                              : 42.8 KiB (0%)
  130. Language                                 : Danish
  131. Default                                  : No
  132. Forced                                   : No
  133. Text #7
  134. ID                                       : 9
  135. Format                                   : UTF-8
  136. Codec ID                                 : S_TEXT/UTF8
  137. Codec ID/Info                            : UTF-8 Plain Text
  138. Duration                                 : 2 h 7 min
  139. Bit rate                                 : 49 b/s
  140. Frame rate                               : 0.172 FPS
  141. Count of elements                        : 1314
  142. Stream size                              : 46.5 KiB (0%)
  143. Language                                 : German
  144. Default                                  : No
  145. Forced                                   : No
  146. Text #8
  147. ID                                       : 10
  148. Format                                   : UTF-8
  149. Codec ID                                 : S_TEXT/UTF8
  150. Codec ID/Info                            : UTF-8 Plain Text
  151. Duration                                 : 2 h 7 min
  152. Bit rate                                 : 82 b/s
  153. Frame rate                               : 0.180 FPS
  154. Count of elements                        : 1376
  155. Stream size                              : 76.9 KiB (0%)
  156. Language                                 : Greek
  157. Default                                  : No
  158. Forced                                   : No
  159. Text #9
  160. ID                                       : 11
  161. Format                                   : UTF-8
  162. Codec ID                                 : S_TEXT/UTF8
  163. Codec ID/Info                            : UTF-8 Plain Text
  164. Duration                                 : 2 h 7 min
  165. Bit rate                                 : 49 b/s
  166. Frame rate                               : 0.174 FPS
  167. Count of elements                        : 1338
  168. Stream size                              : 46.5 KiB (0%)
  169. Title                                    : Latin American
  170. Language                                 : Spanish (Latin America)
  171. Default                                  : No
  172. Forced                                   : No
  173. Text #10
  174. ID                                       : 12
  175. Format                                   : UTF-8
  176. Codec ID                                 : S_TEXT/UTF8
  177. Codec ID/Info                            : UTF-8 Plain Text
  178. Duration                                 : 2 h 7 min
  179. Bit rate                                 : 48 b/s
  180. Frame rate                               : 0.174 FPS
  181. Count of elements                        : 1337
  182. Stream size                              : 45.8 KiB (0%)
  183. Language                                 : Spanish (ES)
  184. Default                                  : No
  185. Forced                                   : No
  186. Text #11
  187. ID                                       : 13
  188. Format                                   : UTF-8
  189. Codec ID                                 : S_TEXT/UTF8
  190. Codec ID/Info                            : UTF-8 Plain Text
  191. Duration                                 : 2 h 7 min
  192. Bit rate                                 : 46 b/s
  193. Frame rate                               : 0.177 FPS
  194. Count of elements                        : 1356
  195. Stream size                              : 43.8 KiB (0%)
  196. Language                                 : Basque
  197. Default                                  : No
  198. Forced                                   : No
  199. Text #12
  200. ID                                       : 14
  201. Format                                   : UTF-8
  202. Codec ID                                 : S_TEXT/UTF8
  203. Codec ID/Info                            : UTF-8 Plain Text
  204. Duration                                 : 2 h 7 min
  205. Bit rate                                 : 45 b/s
  206. Frame rate                               : 0.174 FPS
  207. Count of elements                        : 1333
  208. Stream size                              : 42.4 KiB (0%)
  209. Language                                 : Finnish
  210. Default                                  : No
  211. Forced                                   : No
  212. Text #13
  213. ID                                       : 15
  214. Format                                   : UTF-8
  215. Codec ID                                 : S_TEXT/UTF8
  216. Codec ID/Info                            : UTF-8 Plain Text
  217. Duration                                 : 2 h 7 min
  218. Bit rate                                 : 44 b/s
  219. Frame rate                               : 0.175 FPS
  220. Count of elements                        : 1341
  221. Stream size                              : 41.2 KiB (0%)
  222. Language                                 : fil
  223. Default                                  : No
  224. Forced                                   : No
  225. Text #14
  226. ID                                       : 16
  227. Format                                   : UTF-8
  228. Codec ID                                 : S_TEXT/UTF8
  229. Codec ID/Info                            : UTF-8 Plain Text
  230. Duration                                 : 2 h 7 min
  231. Bit rate                                 : 50 b/s
  232. Frame rate                               : 0.186 FPS
  233. Count of elements                        : 1430
  234. Stream size                              : 47.6 KiB (0%)
  235. Language                                 : French
  236. Default                                  : No
  237. Forced                                   : No
  238. Text #15
  239. ID                                       : 17
  240. Format                                   : UTF-8
  241. Codec ID                                 : S_TEXT/UTF8
  242. Codec ID/Info                            : UTF-8 Plain Text
  243. Duration                                 : 2 h 7 min
  244. Bit rate                                 : 43 b/s
  245. Frame rate                               : 0.174 FPS
  246. Count of elements                        : 1336
  247. Stream size                              : 41.0 KiB (0%)
  248. Language                                 : Galician
  249. Default                                  : No
  250. Forced                                   : No
  251. Text #16
  252. ID                                       : 18
  253. Format                                   : UTF-8
  254. Codec ID                                 : S_TEXT/UTF8
  255. Codec ID/Info                            : UTF-8 Plain Text
  256. Duration                                 : 2 h 7 min
  257. Bit rate                                 : 73 b/s
  258. Frame rate                               : 0.174 FPS
  259. Count of elements                        : 1335
  260. Stream size                              : 68.5 KiB (0%)
  261. Language                                 : Hebrew
  262. Default                                  : No
  263. Forced                                   : No
  264. Text #17
  265. ID                                       : 19
  266. Format                                   : UTF-8
  267. Codec ID                                 : S_TEXT/UTF8
  268. Codec ID/Info                            : UTF-8 Plain Text
  269. Duration                                 : 2 h 7 min
  270. Bit rate                                 : 45 b/s
  271. Frame rate                               : 0.174 FPS
  272. Count of elements                        : 1338
  273. Stream size                              : 42.8 KiB (0%)
  274. Language                                 : Croatian
  275. Default                                  : No
  276. Forced                                   : No
  277. Text #18
  278. ID                                       : 20
  279. Format                                   : UTF-8
  280. Codec ID                                 : S_TEXT/UTF8
  281. Codec ID/Info                            : UTF-8 Plain Text
  282. Duration                                 : 2 h 7 min
  283. Bit rate                                 : 48 b/s
  284. Frame rate                               : 0.173 FPS
  285. Count of elements                        : 1328
  286. Stream size                              : 45.7 KiB (0%)
  287. Language                                 : Hungarian
  288. Default                                  : No
  289. Forced                                   : No
  290. Text #19
  291. ID                                       : 21
  292. Format                                   : UTF-8
  293. Codec ID                                 : S_TEXT/UTF8
  294. Codec ID/Info                            : UTF-8 Plain Text
  295. Duration                                 : 2 h 7 min
  296. Bit rate                                 : 46 b/s
  297. Frame rate                               : 0.174 FPS
  298. Count of elements                        : 1336
  299. Stream size                              : 43.6 KiB (0%)
  300. Language                                 : Indonesian
  301. Default                                  : No
  302. Forced                                   : No
  303. Text #20
  304. ID                                       : 22
  305. Format                                   : UTF-8
  306. Codec ID                                 : S_TEXT/UTF8
  307. Codec ID/Info                            : UTF-8 Plain Text
  308. Duration                                 : 2 h 7 min
  309. Bit rate                                 : 48 b/s
  310. Frame rate                               : 0.174 FPS
  311. Count of elements                        : 1338
  312. Stream size                              : 45.6 KiB (0%)
  313. Language                                 : Italian
  314. Default                                  : No
  315. Forced                                   : No
  316. Text #21
  317. ID                                       : 23
  318. Format                                   : UTF-8
  319. Codec ID                                 : S_TEXT/UTF8
  320. Codec ID/Info                            : UTF-8 Plain Text
  321. Duration                                 : 2 h 7 min
  322. Bit rate                                 : 51 b/s
  323. Frame rate                               : 0.188 FPS
  324. Count of elements                        : 1440
  325. Stream size                              : 48.2 KiB (0%)
  326. Language                                 : Japanese
  327. Default                                  : No
  328. Forced                                   : No
  329. Text #22
  330. ID                                       : 24
  331. Format                                   : UTF-8
  332. Codec ID                                 : S_TEXT/UTF8
  333. Codec ID/Info                            : UTF-8 Plain Text
  334. Duration                                 : 2 h 7 min
  335. Bit rate                                 : 54 b/s
  336. Frame rate                               : 0.174 FPS
  337. Count of elements                        : 1337
  338. Stream size                              : 51.2 KiB (0%)
  339. Language                                 : Korean
  340. Default                                  : No
  341. Forced                                   : No
  342. Text #23
  343. ID                                       : 25
  344. Format                                   : UTF-8
  345. Codec ID                                 : S_TEXT/UTF8
  346. Codec ID/Info                            : UTF-8 Plain Text
  347. Duration                                 : 2 h 7 min
  348. Bit rate                                 : 46 b/s
  349. Frame rate                               : 0.174 FPS
  350. Count of elements                        : 1336
  351. Stream size                              : 43.4 KiB (0%)
  352. Language                                 : Malay
  353. Default                                  : No
  354. Forced                                   : No
  355. Text #24
  356. ID                                       : 26
  357. Format                                   : UTF-8
  358. Codec ID                                 : S_TEXT/UTF8
  359. Codec ID/Info                            : UTF-8 Plain Text
  360. Duration                                 : 2 h 7 min
  361. Bit rate                                 : 44 b/s
  362. Frame rate                               : 0.165 FPS
  363. Count of elements                        : 1266
  364. Stream size                              : 41.5 KiB (0%)
  365. Language                                 : Norwegian Bokmal
  366. Default                                  : No
  367. Forced                                   : No
  368. Text #25
  369. ID                                       : 27
  370. Format                                   : UTF-8
  371. Codec ID                                 : S_TEXT/UTF8
  372. Codec ID/Info                            : UTF-8 Plain Text
  373. Duration                                 : 2 h 7 min
  374. Bit rate                                 : 45 b/s
  375. Frame rate                               : 0.165 FPS
  376. Count of elements                        : 1269
  377. Stream size                              : 42.7 KiB (0%)
  378. Language                                 : Dutch
  379. Default                                  : No
  380. Forced                                   : No
  381. Text #26
  382. ID                                       : 28
  383. Format                                   : UTF-8
  384. Codec ID                                 : S_TEXT/UTF8
  385. Codec ID/Info                            : UTF-8 Plain Text
  386. Duration                                 : 2 h 7 min
  387. Bit rate                                 : 46 b/s
  388. Frame rate                               : 0.173 FPS
  389. Count of elements                        : 1324
  390. Stream size                              : 43.2 KiB (0%)
  391. Language                                 : Polish
  392. Default                                  : No
  393. Forced                                   : No
  394. Text #27
  395. ID                                       : 29
  396. Format                                   : UTF-8
  397. Codec ID                                 : S_TEXT/UTF8
  398. Codec ID/Info                            : UTF-8 Plain Text
  399. Duration                                 : 2 h 7 min
  400. Bit rate                                 : 45 b/s
  401. Frame rate                               : 0.173 FPS
  402. Count of elements                        : 1324
  403. Stream size                              : 42.9 KiB (0%)
  404. Title                                    : Brazilian
  405. Language                                 : Portuguese (BR)
  406. Default                                  : No
  407. Forced                                   : No
  408. Text #28
  409. ID                                       : 30
  410. Format                                   : UTF-8
  411. Codec ID                                 : S_TEXT/UTF8
  412. Codec ID/Info                            : UTF-8 Plain Text
  413. Duration                                 : 2 h 7 min
  414. Bit rate                                 : 49 b/s
  415. Frame rate                               : 0.174 FPS
  416. Count of elements                        : 1338
  417. Stream size                              : 46.1 KiB (0%)
  418. Language                                 : Portuguese (PT)
  419. Default                                  : No
  420. Forced                                   : No
  421. Text #29
  422. ID                                       : 31
  423. Format                                   : UTF-8
  424. Codec ID                                 : S_TEXT/UTF8
  425. Codec ID/Info                            : UTF-8 Plain Text
  426. Duration                                 : 2 h 7 min
  427. Bit rate                                 : 52 b/s
  428. Frame rate                               : 0.174 FPS
  429. Count of elements                        : 1336
  430. Stream size                              : 48.9 KiB (0%)
  431. Language                                 : Romanian
  432. Default                                  : No
  433. Forced                                   : No
  434. Text #30
  435. ID                                       : 32
  436. Format                                   : UTF-8
  437. Codec ID                                 : S_TEXT/UTF8
  438. Codec ID/Info                            : UTF-8 Plain Text
  439. Duration                                 : 2 h 7 min
  440. Bit rate                                 : 79 b/s
  441. Frame rate                               : 0.174 FPS
  442. Count of elements                        : 1337
  443. Stream size                              : 74.5 KiB (0%)
  444. Language                                 : Russian
  445. Default                                  : No
  446. Forced                                   : No
  447. Text #31
  448. ID                                       : 33
  449. Format                                   : UTF-8
  450. Codec ID                                 : S_TEXT/UTF8
  451. Codec ID/Info                            : UTF-8 Plain Text
  452. Duration                                 : 2 h 7 min
  453. Bit rate                                 : 46 b/s
  454. Frame rate                               : 0.174 FPS
  455. Count of elements                        : 1335
  456. Stream size                              : 43.5 KiB (0%)
  457. Language                                 : Swedish
  458. Default                                  : No
  459. Forced                                   : No
  460. Text #32
  461. ID                                       : 34
  462. Format                                   : UTF-8
  463. Codec ID                                 : S_TEXT/UTF8
  464. Codec ID/Info                            : UTF-8 Plain Text
  465. Duration                                 : 2 h 7 min
  466. Bit rate                                 : 127 b/s
  467. Frame rate                               : 0.175 FPS
  468. Count of elements                        : 1339
  469. Stream size                              : 120 KiB (0%)
  470. Language                                 : Thai
  471. Default                                  : No
  472. Forced                                   : No
  473. Text #33
  474. ID                                       : 35
  475. Format                                   : UTF-8
  476. Codec ID                                 : S_TEXT/UTF8
  477. Codec ID/Info                            : UTF-8 Plain Text
  478. Duration                                 : 2 h 8 min
  479. Bit rate                                 : 51 b/s
  480. Frame rate                               : 0.179 FPS
  481. Count of elements                        : 1377
  482. Stream size                              : 48.3 KiB (0%)
  483. Language                                 : Turkish
  484. Default                                  : No
  485. Forced                                   : No
  486. Text #34
  487. ID                                       : 36
  488. Format                                   : UTF-8
  489. Codec ID                                 : S_TEXT/UTF8
  490. Codec ID/Info                            : UTF-8 Plain Text
  491. Duration                                 : 2 h 7 min
  492. Bit rate                                 : 48 b/s
  493. Frame rate                               : 0.175 FPS
  494. Count of elements                        : 1340
  495. Stream size                              : 45.8 KiB (0%)
  496. Language                                 : Turkish
  497. Default                                  : No
  498. Forced                                   : No
  499. Text #35
  500. ID                                       : 37
  501. Format                                   : UTF-8
  502. Codec ID                                 : S_TEXT/UTF8
  503. Codec ID/Info                            : UTF-8 Plain Text
  504. Duration                                 : 2 h 8 min
  505. Bit rate                                 : 61 b/s
  506. Frame rate                               : 0.216 FPS
  507. Count of elements                        : 1659
  508. Stream size                              : 57.6 KiB (0%)
  509. Title                                    : SDH
  510. Language                                 : Turkish
  511. Default                                  : No
  512. Forced                                   : No
  513. Text #36
  514. ID                                       : 38
  515. Format                                   : UTF-8
  516. Codec ID                                 : S_TEXT/UTF8
  517. Codec ID/Info                            : UTF-8 Plain Text
  518. Duration                                 : 2 h 7 min
  519. Bit rate                                 : 80 b/s
  520. Frame rate                               : 0.174 FPS
  521. Count of elements                        : 1337
  522. Stream size                              : 75.1 KiB (0%)
  523. Language                                 : Ukrainian
  524. Default                                  : No
  525. Forced                                   : No
  526. Text #37
  527. ID                                       : 39
  528. Format                                   : UTF-8
  529. Codec ID                                 : S_TEXT/UTF8
  530. Codec ID/Info                            : UTF-8 Plain Text
  531. Duration                                 : 2 h 8 min
  532. Bit rate                                 : 64 b/s
  533. Frame rate                               : 0.174 FPS
  534. Count of elements                        : 1337
  535. Stream size                              : 60.4 KiB (0%)
  536. Language                                 : Vietnamese
  537. Default                                  : No
  538. Forced                                   : No
  539. Text #38
  540. ID                                       : 40
  541. Format                                   : UTF-8
  542. Codec ID                                 : S_TEXT/UTF8
  543. Codec ID/Info                            : UTF-8 Plain Text
  544. Duration                                 : 2 h 7 min
  545. Bit rate                                 : 48 b/s
  546. Frame rate                               : 0.175 FPS
  547. Count of elements                        : 1339
  548. Stream size                              : 45.1 KiB (0%)
  549. Title                                    : Simplified
  550. Language                                 : Chinese (Simplied)
  551. Default                                  : No
  552. Forced                                   : No
  553. Text #39
  554. ID                                       : 41
  555. Format                                   : UTF-8
  556. Codec ID                                 : S_TEXT/UTF8
  557. Codec ID/Info                            : UTF-8 Plain Text
  558. Duration                                 : 2 h 7 min
  559. Bit rate                                 : 45 b/s
  560. Frame rate                               : 0.174 FPS
  561. Count of elements                        : 1338
  562. Stream size                              : 42.3 KiB (0%)
  563. Title                                    : Traditional
  564. Language                                 : Chinese (Traditional)
  565. Default                                  : No
  566. Forced                                   : No
  567. Menu
  568. 02:00:52.000                             : en:End Credits
复制代码











回复

使用道具 举报

蓝光币
1
发表于 2023-1-8 06:58:38 | 显示全部楼层
感谢楼主传递更多电影信息
回复

使用道具 举报

懒得打字嘛,点击右侧快捷回复 【右侧内容,后台自定义】
您需要登录后才可以回帖 登录 | 立即加入

本版积分规则

Copyright © 2024 Comsenz Inc. Powered by 蓝光电影网

本站内容由用户自主分享和转载自互联网,转载目的在于传递更多信息,并不代表本网赞同其观点和对其真实性负责。

如有侵权、违反国家法律政策行为,请联系我们,我们会第一时间及时清除和处理!

举报反馈邮箱:4k1080.com@gmail.com

快速回复 返回顶部 返回列表