找回密码

蓝光电影网

查看: 898|回复: 0

[喜剧] 穿靴子的猫2.Puss.in.Boots.The.Last.Wish.2022.1080p.MA.WEBRip.DDP5.1.Atmos.x264-CM 6.08GB

[复制链接]
蓝光币
1704
发表于 2023-1-7 01:53:04 | 显示全部楼层 |阅读模式


◎标  题 穿靴子的猫2
◎译  名 无敌猫剑侠2 / 鞋猫剑客2(台) / 无敌猫剑侠:8+1条命(港) / 穿靴子的猫2:九条命和四十大盗 / 穿靴子的猫:最初的愿望 / Puss in Boots 2: Nine Lives & 40 Thieves
◎片  名 Puss in Boots: The Last Wish
◎年  代 2022
◎产  地 美国
◎类  别 笑剧 / 动画 / 奇异 / 冒险
◎语  言 英语
◎上映日期 2022-12-07(法国) / 2022-12-21(美国)
◎IMDb评分 7.8/10 (222人评价)
◎IMDb链接 https://www.imdb.com/title/tt3915174/
◎豆瓣链接 https://movie.douban.com/subject/25868125/
◎导  演 乔尔·克劳福德 Joel Crawford
       贾努埃尔·梅尔卡多 Januel Mercado
◎编  剧 保罗·费舍尔 Paul Fisher
       克里斯托弗·梅勒丹德利 Christopher Meledandri
◎演  员 安东尼奥·班德拉斯 Antonio Banderas
       萨尔玛·海耶克 Salma Hayek
       哈维·吉兰 Harvey Guillen
       弗洛伦丝·皮尤 Florence Pugh
       约翰·木兰尼 John Mulaney
       瓦格纳·马拉 Wagner Moura
       雷·温斯顿 Ray Winstone
       萨姆森·卡约 Samson Kayo
       奥利维娅·科尔曼 Olivia Colman
       达明·乔伊·伦道夫 Da'Vine Joy Randolph
       安东尼·门德斯 Anthony Mendez
       凯莉·艾莉莎·弗拉纳根 Kaley Alyssa Flanagan
       克里斯·米勒 Chris Miller
◎简  介
  时隔11年,臭屁自豪又爱卖萌的猫大侠返来了!现在的猫大侠(安东尼奥·班德拉斯 配音),照旧诙谐潇洒又不拘小节、数次“花式送死”后,九条命现在只剩一条,因而不能不请求自己的老同伴兼“宿敌”——诱人的软爪妞(萨尔玛·海耶克 配音)来施以援手来规复自己的九条生命。
  1. Video
  2. ID                                       : 1
  3. Format                                   : AVC
  4. Format/Info                              : Advanced Video Codec
  5. Format profile                           : High@L4
  6. Format settings                          : CABAC / 4 Ref Frames
  7. Format settings, CABAC                   : Yes
  8. Format settings, Reference frames        : 4 frames
  9. Codec ID                                 : V_MPEG4/ISO/AVC
  10. Duration                                 : 1 h 42 min
  11. Bit rate                                 : 8 000 kb/s
  12. Width                                    : 1 920 pixels
  13. Height                                   : 1 080 pixels
  14. Display aspect ratio                     : 16:9
  15. Frame rate mode                          : Constant
  16. Frame rate                               : 23.976 (24000/1001) FPS
  17. Color space                              : YUV
  18. Chroma subsampling                       : 4:2:0
  19. Bit depth                                : 8 bits
  20. Scan type                                : Progressive
  21. Bits/(Pixel*Frame)                       : 0.161
  22. Stream size                              : 5.62 GiB (92%)
  23. Writing library                          : x264 core 164 r3094 bfc87b7
  24. Encoding settings                        : cabac=1 / ref=4 / deblock=1:-1:-1 / analyse=0x3:0x133 / me=umh / subme=9 / psy=1 / psy_rd=1.00:0.15 / mixed_ref=1 / me_range=16 / chroma_me=1 / trellis=2 / 8x8dct=1 / cqm=0 / deadzone=21,11 / fast_pskip=1 / chroma_qp_offset=-3 / threads=12 / lookahead_threads=1 / sliced_threads=0 / nr=0 / decimate=1 / interlaced=0 / bluray_compat=0 / stitchable=1 / constrained_intra=0 / bframes=3 / b_pyramid=2 / b_adapt=2 / b_bias=0 / direct=3 / weightb=1 / open_gop=0 / weightp=2 / keyint=48 / keyint_min=4 / scenecut=0 / intra_refresh=0 / rc_lookahead=48 / rc=abr / mbtree=1 / bitrate=8000 / ratetol=1.0 / qcomp=0.60 / qpmin=0 / qpmax=69 / qpstep=4 / vbv_maxrate=8800 / vbv_bufsize=16000 / nal_hrd=none / filler=0 / ip_ratio=1.40 / aq=1:1.00
  25. Language                                 : English
  26. Default                                  : Yes
  27. Forced                                   : No
  28. Color range                              : Limited
  29. Color primaries                          : BT.709
  30. Transfer characteristics                 : BT.709
  31. Matrix coefficients                      : BT.709
  32. Audio
  33. ID                                       : 2
  34. Format                                   : E-AC-3 JOC
  35. Format/Info                              : Enhanced AC-3 with Joint Object Coding
  36. Commercial name                          : Dolby Digital Plus with Dolby Atmos
  37. Codec ID                                 : A_EAC3
  38. Duration                                 : 1 h 42 min
  39. Bit rate mode                            : Constant
  40. Bit rate                                 : 640 kb/s
  41. Channel(s)                               : 6 channels
  42. Channel layout                           : L R C LFE Ls Rs
  43. Sampling rate                            : 48.0 kHz
  44. Frame rate                               : 31.250 FPS (1536 SPF)
  45. Compression mode                         : Lossy
  46. Stream size                              : 469 MiB (8%)
  47. Language                                 : English
  48. Service kind                             : Complete Main
  49. Default                                  : Yes
  50. Forced                                   : No
  51. Complexity index                         : 16
  52. Number of dynamic objects                : 15
  53. Bed channel count                        : 1 channel
  54. Bed channel configuration                : LFE
  55. Text #1
  56. ID                                       : 3
  57. Format                                   : UTF-8
  58. Codec ID                                 : S_TEXT/UTF8
  59. Codec ID/Info                            : UTF-8 Plain Text
  60. Duration                                 : 1 h 40 min
  61. Bit rate                                 : 56 b/s
  62. Frame rate                               : 0.267 FPS
  63. Count of elements                        : 1619
  64. Stream size                              : 41.8 KiB (0%)
  65. Language                                 : English
  66. Default                                  : No
  67. Forced                                   : No
  68. Text #2
  69. ID                                       : 4
  70. Format                                   : UTF-8
  71. Codec ID                                 : S_TEXT/UTF8
  72. Codec ID/Info                            : UTF-8 Plain Text
  73. Duration                                 : 1 h 42 min
  74. Bit rate                                 : 74 b/s
  75. Frame rate                               : 0.354 FPS
  76. Count of elements                        : 2170
  77. Stream size                              : 56.2 KiB (0%)
  78. Title                                    : SDH
  79. Language                                 : English
  80. Default                                  : No
  81. Forced                                   : No
  82. Text #3
  83. ID                                       : 5
  84. Format                                   : UTF-8
  85. Codec ID                                 : S_TEXT/UTF8
  86. Codec ID/Info                            : UTF-8 Plain Text
  87. Duration                                 : 1 h 40 min
  88. Bit rate                                 : 56 b/s
  89. Frame rate                               : 0.250 FPS
  90. Count of elements                        : 1517
  91. Stream size                              : 41.9 KiB (0%)
  92. Title                                    : Latin American
  93. Language                                 : Spanish (Latin America)
  94. Default                                  : No
  95. Forced                                   : No
复制代码











回复

使用道具 举报

懒得打字嘛,点击右侧快捷回复 【右侧内容,后台自定义】
您需要登录后才可以回帖 登录 | 立即加入

本版积分规则

Archiver|小黑屋| 蓝光电影网 |网站地图

Copyright © 2021 Comsenz Inc. Powered by 蓝光电影网

蓝光电影网

本站内容由用户自主分享和转载自互联网,转载目的在于传递更多信息,并不代表本网赞同其观点和对其真实性负责。

如有侵权、违反国家法律政策行为,请联系我们,我们会第一时间及时清除和处理!

举报反馈邮箱:4k1080.com@gmail.com

快速回复 返回顶部 返回列表