找回密码

蓝光电影网

查看: 914|回复: 0

[其他] 出发的岛歌 十五岁之春.Leaving.on.the.15th.Spring.2013.JAPANESE.ENSUBBED.1080p.WEBRip.AAC2.0.x264-ODiUM 4.91GB

[复制链接]
蓝光币
1704
发表于 2023-1-7 01:53:14 | 显示全部楼层 |阅读模式


◎标  题 动身的岛歌 十五岁之春
◎译  名 旅者的岛歌十五岁之春 / Tabidachi no shima uta - 15 ho haru / Leaving On The 15th Spring
◎片  名 旅立ちの島唄~十五の春~
◎年  代 2013
◎产  地 日本
◎类  别 音乐
◎语  言 日语
◎上映日期 2013-05-18
◎IMDb评分 7.2/10 (116人评价)
◎IMDb链接 https://www.imdb.com/title/tt2368527/
◎豆瓣评分 7.5/10 (987人评价)
◎豆瓣链接 https://movie.douban.com/subject/10617172/
◎片  长 114分钟
◎演  员 三吉彩花 Ayaka Miyoshi
       小林薰 Kaoru Kobayashi
       大竹忍 Shinobu Ôtake
◎简  介
  座落于茫茫大海中心的南大东岛,当地的孩子们要想继续高中学业只要搭船前往三百千米外的冲绳本岛。没到15岁的炎天,岛民们便为民谣组合博罗蒂诺女孩的适龄姑娘们举行离别仪式,而女孩们也将唱响那首动人肺腑的《再会》,对生育了他们的怙恃致以深深的谢意。送走了先辈,博罗蒂诺女孩的优奈(三吉彩花 饰)也迎来了她在岛上的最初一年。她的哥哥姐姐之前相继离岛,母亲(大竹忍 饰)也为了照顾他们的起居前往本岛。留在当地的父亲(小林薰 饰)和优奈相依为命,优奈隐约感遭到怙恃之间的不安。她挂念孤独的父亲,也为青涩的爱情迟疑。                                    
                                前路漫漫,惟有婉转的旋律伴她同业……
  1. Video
  2. ID                                       : 1
  3. Format                                   : AVC
  4. Format/Info                              : Advanced Video Codec
  5. Format profile                           : High@L4
  6. Format settings                          : CABAC / 1 Ref Frames
  7. Format settings, CABAC                   : Yes
  8. Format settings, Reference frames        : 1 frame
  9. Format settings, GOP                     : M=1, N=48
  10. Codec ID                                 : V_MPEG4/ISO/AVC
  11. Duration                                 : 1 h 54 min
  12. Bit rate                                 : 6 000 kb/s
  13. Width                                    : 1 920 pixels
  14. Height                                   : 1 080 pixels
  15. Display aspect ratio                     : 16:9
  16. Frame rate mode                          : Constant
  17. Frame rate                               : 23.976 (24000/1001) FPS
  18. Color space                              : YUV
  19. Chroma subsampling                       : 4:2:0
  20. Bit depth                                : 8 bits
  21. Scan type                                : Progressive
  22. Bits/(Pixel*Frame)                       : 0.121
  23. Stream size                              : 4.80 GiB (98%)
  24. Title                                    : MPEG-4 AVC / 5859 KiBps / 23.976 fps / 1778:1 / Profile High@L4
  25. Writing library                          : x264 core 148
  26. Encoding settings                        : cabac=1 / ref=1 / deblock=1:0:0 / analyse=0x3:0x3 / me=dia / subme=1 / psy=1 / psy_rd=1.00:0.00 / mixed_ref=0 / me_range=16 / chroma_me=1 / trellis=0 / 8x8dct=1 / cqm=0 / deadzone=21,11 / fast_pskip=1 / chroma_qp_offset=0 / threads=24 / lookahead_threads=4 / sliced_threads=0 / nr=0 / decimate=1 / interlaced=0 / bluray_compat=0 / constrained_intra=0 / bframes=0 / weightp=1 / keyint=48 / keyint_min=25 / scenecut=0 / intra_refresh=0 / rc_lookahead=0 / rc=abr / mbtree=0 / bitrate=6000 / ratetol=1.0 / qcomp=0.60 / qpmin=0 / qpmax=69 / qpstep=4 / vbv_maxrate=9000 / vbv_bufsize=18000 / nal_hrd=none / filler=0 / ip_ratio=1.40 / aq=1:1.00
  27. Language                                 : Japanese
  28. Default                                  : Yes
  29. Forced                                   : No
  30. Audio
  31. ID                                       : 2
  32. Format                                   : AAC LC
  33. Format/Info                              : Advanced Audio Codec Low Complexity
  34. Codec ID                                 : A_AAC-2
  35. Duration                                 : 1 h 54 min
  36. Bit rate                                 : 129 kb/s
  37. Channel(s)                               : 2 channels
  38. Channel layout                           : L R
  39. Sampling rate                            : 48.0 kHz
  40. Frame rate                               : 46.875 FPS (1024 SPF)
  41. Compression mode                         : Lossy
  42. Stream size                              : 105 MiB (2%)
  43. Title                                    : Japanese / AAC LC / 2.0 / 48.000 kHz / 127 KiBps
  44. Language                                 : Japanese
  45. Default                                  : Yes
  46. Forced                                   : No
复制代码











回复

使用道具 举报

懒得打字嘛,点击右侧快捷回复 【右侧内容,后台自定义】
您需要登录后才可以回帖 登录 | 立即加入

本版积分规则

Archiver|小黑屋| 蓝光电影网 |网站地图

Copyright © 2021 Comsenz Inc. Powered by 蓝光电影网

蓝光电影网

本站内容由用户自主分享和转载自互联网,转载目的在于传递更多信息,并不代表本网赞同其观点和对其真实性负责。

如有侵权、违反国家法律政策行为,请联系我们,我们会第一时间及时清除和处理!

举报反馈邮箱:4k1080.com@gmail.com

快速回复 返回顶部 返回列表