找回密码

蓝光电影网

查看: 645|回复: 2

[剧情] 吾爱吾师.To.Sir.with.Love.1967.REMASTERED.1080p.BluRay.REMUX.AVC.DTS-HD.MA.5.1-FGT 21.62GB

[复制链接]
蓝光币
1451
发表于 2023-1-7 01:58:54 | 显示全部楼层 |阅读模式


◎标  题 吾爱吾师
◎译  名 念师恩 / 桃李满门
◎片  名 To Sir, with Love
◎年  代 1967
◎产  地 英国
◎类  别 剧情
◎语  言 英语
◎上映日期 1967-06-14
◎IMDb评分 7.6/10 (18797人评价)
◎IMDb链接 https://www.imdb.com/title/tt0062376/
◎豆瓣评分 7.9/10 (358人评价)
◎豆瓣链接 https://movie.douban.com/subject/1296423/
◎片  长 105 分钟
◎导  演 詹姆斯·克拉韦尔 James Clavell
◎编  剧 E·R·布雷斯韦特 E.R. Braithwaite
       詹姆斯·克拉韦尔 James Clavell
       詹姆斯·克伦威尔 James Cromwell
◎演  员 西德尼·波蒂埃 Sidney Poitier
       克里斯蒂安·罗伯茨 Christian Roberts
       朱迪·吉森 Judy Geeson
       苏茜·肯道尔 Suzy Kendall
       安·贝尔 Ann Bell
       杰弗里·拜尔顿 Geoffrey Bayldon
       菲丝·布鲁克 Faith Brook
       帕特里夏·劳特利奇 Patricia Routledge
       克里斯·奇异尔 Chris Chittell
       阿德里安娜·波斯塔 Adrienne Posta
       爱德华·伯纳姆 Edward Burnham
       丽塔·韦伯 Rita Webb
       弗雷德·格里菲思 Fred Griffiths
       莫娜·布鲁斯 Mona Bruce
       西里尔·谢普斯 Cyril Shaps
       Ric Rothwell Ric Rothwell
       Eric Stewart Eric Stewart
       玛丽安·斯通 Marianne Stone
       Dervis Ward Dervis Ward
       史蒂芬·惠特克 Stephen Whittaker
       Lulu Lulu
       Sally James Sally James
       迈克尔·德·巴雷斯 Michael Des Barres
       Bob Lang Bob Lang
       詹姆斯·克拉韦尔 James Clavell
       Ron Grainer Ron Grainer
       保罗·贝森 Paul Beeson
       Tony Woollard Tony Woollard
       Betty Glasow Betty Glasow
       特德·斯特吉斯 Ted Sturgis
◎简  介
  黑人影帝西德尼·波埃特脍炙生齿的名作之一,他饰演一位中学教师,招聘到伦敦的公学任教,门生都是喜好无事生非的恶劣青年,甚至有人向他下面应战。他发挥满身解数感导这群坏门生,终究赢得了应有的尊重。
  1. Video
  2. ID                                       : 1
  3. ID in the original source medium         : 4113 (0x1011)
  4. Format                                   : AVC
  5. Format/Info                              : Advanced Video Codec
  6. Format profile                           : High@L4.1
  7. Format settings                          : CABAC / 2 Ref Frames
  8. Format settings, CABAC                   : Yes
  9. Format settings, Reference frames        : 2 frames
  10. Codec ID                                 : V_MPEG4/ISO/AVC
  11. Duration                                 : 1 h 45 min
  12. Bit rate mode                            : Variable
  13. Bit rate                                 : 23.9 Mb/s
  14. Width                                    : 1 920 pixels
  15. Height                                   : 1 080 pixels
  16. Display aspect ratio                     : 16:9
  17. Frame rate mode                          : Constant
  18. Frame rate                               : 23.976 (24000/1001) FPS
  19. Color space                              : YUV
  20. Chroma subsampling                       : 4:2:0
  21. Bit depth                                : 8 bits
  22. Scan type                                : Progressive
  23. Bits/(Pixel*Frame)                       : 0.481
  24. Stream size                              : 17.6 GiB (81%)
  25. Language                                 : English
  26. Default                                  : No
  27. Forced                                   : No
  28. Original source medium                   : Blu-ray
  29. Audio #1
  30. ID                                       : 2
  31. ID in the original source medium         : 4352 (0x1100)
  32. Format                                   : DTS XLL
  33. Format/Info                              : Digital Theater Systems
  34. Commercial name                          : DTS-HD Master Audio
  35. Codec ID                                 : A_DTS
  36. Duration                                 : 1 h 45 min
  37. Bit rate mode                            : Variable
  38. Bit rate                                 : 2 121 kb/s
  39. Channel(s)                               : 6 channels
  40. Channel layout                           : C L R Ls Rs LFE
  41. Sampling rate                            : 48.0 kHz
  42. Frame rate                               : 93.750 FPS (512 SPF)
  43. Bit depth                                : 16 bits
  44. Compression mode                         : Lossless
  45. Stream size                              : 1.56 GiB (7%)
  46. Title                                    : DTS-HD MA 5.1
  47. Language                                 : English
  48. Default                                  : Yes
  49. Forced                                   : No
  50. Original source medium                   : Blu-ray
  51. Audio #2
  52. ID                                       : 3
  53. ID in the original source medium         : 4353 (0x1101)
  54. Format                                   : DTS XLL
  55. Format/Info                              : Digital Theater Systems
  56. Commercial name                          : DTS-HD Master Audio
  57. Codec ID                                 : A_DTS
  58. Duration                                 : 1 h 45 min
  59. Bit rate mode                            : Variable
  60. Bit rate                                 : 1 559 kb/s
  61. Channel(s)                               : 2 channels
  62. Channel layout                           : L R
  63. Sampling rate                            : 48.0 kHz
  64. Frame rate                               : 93.750 FPS (512 SPF)
  65. Bit depth                                : 16 bits
  66. Compression mode                         : Lossless
  67. Stream size                              : 1.14 GiB (5%)
  68. Title                                    : DTS-HD MA 2.0
  69. Language                                 : English
  70. Default                                  : No
  71. Forced                                   : No
  72. Original source medium                   : Blu-ray
  73. Audio #3
  74. ID                                       : 4
  75. ID in the original source medium         : 4354 (0x1102)
  76. Format                                   : AC-3
  77. Format/Info                              : Audio Coding 3
  78. Commercial name                          : Dolby Digital
  79. Codec ID                                 : A_AC3
  80. Duration                                 : 1 h 45 min
  81. Bit rate mode                            : Constant
  82. Bit rate                                 : 192 kb/s
  83. Channel(s)                               : 2 channels
  84. Channel layout                           : L R
  85. Sampling rate                            : 48.0 kHz
  86. Frame rate                               : 31.250 FPS (1536 SPF)
  87. Compression mode                         : Lossy
  88. Stream size                              : 144 MiB (1%)
  89. Title                                    : DD 2.0
  90. Language                                 : French
  91. Service kind                             : Complete Main
  92. Default                                  : No
  93. Forced                                   : No
  94. Original source medium                   : Blu-ray
  95. Audio #4
  96. ID                                       : 5
  97. ID in the original source medium         : 4355 (0x1103)
  98. Format                                   : AC-3
  99. Format/Info                              : Audio Coding 3
  100. Commercial name                          : Dolby Digital
  101. Codec ID                                 : A_AC3
  102. Duration                                 : 1 h 45 min
  103. Bit rate mode                            : Constant
  104. Bit rate                                 : 192 kb/s
  105. Channel(s)                               : 2 channels
  106. Channel layout                           : L R
  107. Sampling rate                            : 48.0 kHz
  108. Frame rate                               : 31.250 FPS (1536 SPF)
  109. Compression mode                         : Lossy
  110. Stream size                              : 144 MiB (1%)
  111. Title                                    : DD 2.0
  112. Language                                 : German
  113. Service kind                             : Complete Main
  114. Default                                  : No
  115. Forced                                   : No
  116. Original source medium                   : Blu-ray
  117. Audio #5
  118. ID                                       : 6
  119. ID in the original source medium         : 4356 (0x1104)
  120. Format                                   : AC-3
  121. Format/Info                              : Audio Coding 3
  122. Commercial name                          : Dolby Digital
  123. Codec ID                                 : A_AC3
  124. Duration                                 : 1 h 45 min
  125. Bit rate mode                            : Constant
  126. Bit rate                                 : 192 kb/s
  127. Channel(s)                               : 2 channels
  128. Channel layout                           : L R
  129. Sampling rate                            : 48.0 kHz
  130. Frame rate                               : 31.250 FPS (1536 SPF)
  131. Compression mode                         : Lossy
  132. Stream size                              : 144 MiB (1%)
  133. Title                                    : DD 2.0
  134. Language                                 : Italian
  135. Service kind                             : Complete Main
  136. Default                                  : No
  137. Forced                                   : No
  138. Original source medium                   : Blu-ray
  139. Audio #6
  140. ID                                       : 7
  141. ID in the original source medium         : 4357 (0x1105)
  142. Format                                   : AC-3
  143. Format/Info                              : Audio Coding 3
  144. Commercial name                          : Dolby Digital
  145. Codec ID                                 : A_AC3
  146. Duration                                 : 1 h 45 min
  147. Bit rate mode                            : Constant
  148. Bit rate                                 : 192 kb/s
  149. Channel(s)                               : 2 channels
  150. Channel layout                           : L R
  151. Sampling rate                            : 48.0 kHz
  152. Frame rate                               : 31.250 FPS (1536 SPF)
  153. Compression mode                         : Lossy
  154. Stream size                              : 144 MiB (1%)
  155. Title                                    : DD 2.0
  156. Language                                 : Spanish
  157. Service kind                             : Complete Main
  158. Default                                  : No
  159. Forced                                   : No
  160. Original source medium                   : Blu-ray
  161. Audio #7
  162. ID                                       : 8
  163. ID in the original source medium         : 4358 (0x1106)
  164. Format                                   : AC-3
  165. Format/Info                              : Audio Coding 3
  166. Commercial name                          : Dolby Digital
  167. Codec ID                                 : A_AC3
  168. Duration                                 : 1 h 45 min
  169. Bit rate mode                            : Constant
  170. Bit rate                                 : 192 kb/s
  171. Channel(s)                               : 2 channels
  172. Channel layout                           : L R
  173. Sampling rate                            : 48.0 kHz
  174. Frame rate                               : 31.250 FPS (1536 SPF)
  175. Compression mode                         : Lossy
  176. Stream size                              : 144 MiB (1%)
  177. Title                                    : DD 2.0
  178. Language                                 : Spanish
  179. Service kind                             : Complete Main
  180. Default                                  : No
  181. Forced                                   : No
  182. Original source medium                   : Blu-ray
  183. Audio #8
  184. ID                                       : 9
  185. ID in the original source medium         : 4359 (0x1107)
  186. Format                                   : AC-3
  187. Format/Info                              : Audio Coding 3
  188. Commercial name                          : Dolby Digital
  189. Codec ID                                 : A_AC3
  190. Duration                                 : 1 h 45 min
  191. Bit rate mode                            : Constant
  192. Bit rate                                 : 192 kb/s
  193. Channel(s)                               : 2 channels
  194. Channel layout                           : L R
  195. Sampling rate                            : 48.0 kHz
  196. Frame rate                               : 31.250 FPS (1536 SPF)
  197. Compression mode                         : Lossy
  198. Stream size                              : 144 MiB (1%)
  199. Title                                    : DD 2.0
  200. Language                                 : English
  201. Service kind                             : Complete Main
  202. Default                                  : No
  203. Forced                                   : No
  204. Original source medium                   : Blu-ray
  205. Audio #9
  206. ID                                       : 10
  207. ID in the original source medium         : 4360 (0x1108)
  208. Format                                   : AC-3
  209. Format/Info                              : Audio Coding 3
  210. Commercial name                          : Dolby Digital
  211. Codec ID                                 : A_AC3
  212. Duration                                 : 1 h 45 min
  213. Bit rate mode                            : Constant
  214. Bit rate                                 : 192 kb/s
  215. Channel(s)                               : 2 channels
  216. Channel layout                           : L R
  217. Sampling rate                            : 48.0 kHz
  218. Frame rate                               : 31.250 FPS (1536 SPF)
  219. Compression mode                         : Lossy
  220. Stream size                              : 144 MiB (1%)
  221. Title                                    : DD 2.0
  222. Language                                 : English
  223. Service kind                             : Complete Main
  224. Default                                  : No
  225. Forced                                   : No
  226. Original source medium                   : Blu-ray
  227. Text #1
  228. ID                                       : 11
  229. Format                                   : UTF-8
  230. Codec ID                                 : S_TEXT/UTF8
  231. Codec ID/Info                            : UTF-8 Plain Text
  232. Duration                                 : 1 h 44 min
  233. Bit rate                                 : 58 b/s
  234. Frame rate                               : 0.215 FPS
  235. Count of elements                        : 1347
  236. Stream size                              : 44.8 KiB (0%)
  237. Language                                 : English
  238. Default                                  : Yes
  239. Forced                                   : No
  240. Text #2
  241. ID                                       : 12
  242. Format                                   : UTF-8
  243. Codec ID                                 : S_TEXT/UTF8
  244. Codec ID/Info                            : UTF-8 Plain Text
  245. Duration                                 : 1 h 44 min
  246. Bit rate                                 : 62 b/s
  247. Frame rate                               : 0.231 FPS
  248. Count of elements                        : 1449
  249. Stream size                              : 47.8 KiB (0%)
  250. Title                                    : SDH
  251. Language                                 : English
  252. Default                                  : No
  253. Forced                                   : No
  254. Text #3
  255. ID                                       : 13
  256. ID in the original source medium         : 4608 (0x1200)
  257. Format                                   : PGS
  258. Muxing mode                              : zlib
  259. Codec ID                                 : S_HDMV/PGS
  260. Codec ID/Info                            : Picture based subtitle format used on BDs/HD-DVDs
  261. Duration                                 : 1 h 44 min
  262. Bit rate                                 : 36.3 kb/s
  263. Frame rate                               : 0.475 FPS
  264. Count of elements                        : 2987
  265. Stream size                              : 27.2 MiB (0%)
  266. Title                                    : SDH
  267. Language                                 : English
  268. Default                                  : No
  269. Forced                                   : No
  270. Original source medium                   : Blu-ray
  271. Text #4
  272. ID                                       : 14
  273. ID in the original source medium         : 4609 (0x1201)
  274. Format                                   : PGS
  275. Muxing mode                              : zlib
  276. Codec ID                                 : S_HDMV/PGS
  277. Codec ID/Info                            : Picture based subtitle format used on BDs/HD-DVDs
  278. Duration                                 : 1 h 41 min
  279. Bit rate                                 : 32.4 kb/s
  280. Frame rate                               : 0.428 FPS
  281. Count of elements                        : 2594
  282. Stream size                              : 23.4 MiB (0%)
  283. Language                                 : English
  284. Default                                  : No
  285. Forced                                   : No
  286. Original source medium                   : Blu-ray
  287. Text #5
  288. ID                                       : 15
  289. ID in the original source medium         : 4610 (0x1202)
  290. Format                                   : PGS
  291. Muxing mode                              : zlib
  292. Codec ID                                 : S_HDMV/PGS
  293. Codec ID/Info                            : Picture based subtitle format used on BDs/HD-DVDs
  294. Duration                                 : 1 h 44 min
  295. Bit rate                                 : 36.3 kb/s
  296. Frame rate                               : 0.475 FPS
  297. Count of elements                        : 2987
  298. Stream size                              : 27.2 MiB (0%)
  299. Title                                    : SDH
  300. Language                                 : English
  301. Default                                  : No
  302. Forced                                   : No
  303. Original source medium                   : Blu-ray
  304. Text #6
  305. ID                                       : 16
  306. ID in the original source medium         : 4611 (0x1203)
  307. Format                                   : PGS
  308. Muxing mode                              : zlib
  309. Codec ID                                 : S_HDMV/PGS
  310. Codec ID/Info                            : Picture based subtitle format used on BDs/HD-DVDs
  311. Duration                                 : 1 h 41 min
  312. Bit rate                                 : 32.4 kb/s
  313. Frame rate                               : 0.428 FPS
  314. Count of elements                        : 2594
  315. Stream size                              : 23.4 MiB (0%)
  316. Language                                 : English
  317. Default                                  : No
  318. Forced                                   : No
  319. Original source medium                   : Blu-ray
  320. Text #7
  321. ID                                       : 17
  322. ID in the original source medium         : 4612 (0x1204)
  323. Format                                   : PGS
  324. Muxing mode                              : zlib
  325. Codec ID                                 : S_HDMV/PGS
  326. Codec ID/Info                            : Picture based subtitle format used on BDs/HD-DVDs
  327. Duration                                 : 1 h 41 min
  328. Bit rate                                 : 29.7 kb/s
  329. Frame rate                               : 0.405 FPS
  330. Count of elements                        : 2454
  331. Stream size                              : 21.5 MiB (0%)
  332. Language                                 : French
  333. Default                                  : No
  334. Forced                                   : No
  335. Original source medium                   : Blu-ray
  336. Text #8
  337. ID                                       : 18
  338. ID in the original source medium         : 4612 (0x1204)
  339. Format                                   : PGS
  340. Muxing mode                              : zlib
  341. Codec ID                                 : S_HDMV/PGS
  342. Codec ID/Info                            : Picture based subtitle format used on BDs/HD-DVDs
  343. Duration                                 : 1 h 39 min
  344. Bit rate                                 : 185 b/s
  345. Frame rate                               : 0.002 FPS
  346. Count of elements                        : 12
  347. Stream size                              : 135 KiB (0%)
  348. Language                                 : French
  349. Default                                  : No
  350. Forced                                   : No
  351. Original source medium                   : Blu-ray
  352. Text #9
  353. ID                                       : 19
  354. ID in the original source medium         : 4613 (0x1205)
  355. Format                                   : PGS
  356. Muxing mode                              : zlib
  357. Codec ID                                 : S_HDMV/PGS
  358. Codec ID/Info                            : Picture based subtitle format used on BDs/HD-DVDs
  359. Duration                                 : 1 h 42 min
  360. Bit rate                                 : 33.2 kb/s
  361. Frame rate                               : 0.421 FPS
  362. Count of elements                        : 2598
  363. Stream size                              : 24.4 MiB (0%)
  364. Language                                 : German
  365. Default                                  : No
  366. Forced                                   : No
  367. Original source medium                   : Blu-ray
  368. Text #10
  369. ID                                       : 20
  370. ID in the original source medium         : 4613 (0x1205)
  371. Format                                   : PGS
  372. Muxing mode                              : zlib
  373. Codec ID                                 : S_HDMV/PGS
  374. Codec ID/Info                            : Picture based subtitle format used on BDs/HD-DVDs
  375. Duration                                 : 1 h 41 min
  376. Bit rate                                 : 591 b/s
  377. Frame rate                               : 0.008 FPS
  378. Count of elements                        : 46
  379. Stream size                              : 440 KiB (0%)
  380. Language                                 : German
  381. Default                                  : No
  382. Forced                                   : No
  383. Original source medium                   : Blu-ray
  384. Text #11
  385. ID                                       : 21
  386. ID in the original source medium         : 4614 (0x1206)
  387. Format                                   : PGS
  388. Muxing mode                              : zlib
  389. Codec ID                                 : S_HDMV/PGS
  390. Codec ID/Info                            : Picture based subtitle format used on BDs/HD-DVDs
  391. Duration                                 : 1 h 42 min
  392. Bit rate                                 : 31.6 kb/s
  393. Frame rate                               : 0.423 FPS
  394. Count of elements                        : 2610
  395. Stream size                              : 23.2 MiB (0%)
  396. Language                                 : Italian
  397. Default                                  : No
  398. Forced                                   : No
  399. Original source medium                   : Blu-ray
  400. Text #12
  401. ID                                       : 22
  402. ID in the original source medium         : 4614 (0x1206)
  403. Format                                   : PGS
  404. Muxing mode                              : zlib
  405. Codec ID                                 : S_HDMV/PGS
  406. Codec ID/Info                            : Picture based subtitle format used on BDs/HD-DVDs
  407. Duration                                 : 1 h 41 min
  408. Bit rate                                 : 215 b/s
  409. Frame rate                               : 0.003 FPS
  410. Count of elements                        : 16
  411. Stream size                              : 160 KiB (0%)
  412. Language                                 : Italian
  413. Default                                  : No
  414. Forced                                   : No
  415. Original source medium                   : Blu-ray
  416. Text #13
  417. ID                                       : 23
  418. ID in the original source medium         : 4615 (0x1207)
  419. Format                                   : PGS
  420. Muxing mode                              : zlib
  421. Codec ID                                 : S_HDMV/PGS
  422. Codec ID/Info                            : Picture based subtitle format used on BDs/HD-DVDs
  423. Duration                                 : 1 h 42 min
  424. Bit rate                                 : 26.7 kb/s
  425. Frame rate                               : 0.427 FPS
  426. Count of elements                        : 2634
  427. Stream size                              : 19.7 MiB (0%)
  428. Language                                 : Korean
  429. Default                                  : No
  430. Forced                                   : No
  431. Original source medium                   : Blu-ray
  432. Text #14
  433. ID                                       : 24
  434. ID in the original source medium         : 4616 (0x1208)
  435. Format                                   : PGS
  436. Muxing mode                              : zlib
  437. Codec ID                                 : S_HDMV/PGS
  438. Codec ID/Info                            : Picture based subtitle format used on BDs/HD-DVDs
  439. Duration                                 : 1 h 42 min
  440. Bit rate                                 : 27.6 kb/s
  441. Frame rate                               : 0.411 FPS
  442. Count of elements                        : 2532
  443. Stream size                              : 20.3 MiB (0%)
  444. Language                                 : Portuguese
  445. Default                                  : No
  446. Forced                                   : No
  447. Original source medium                   : Blu-ray
  448. Text #15
  449. ID                                       : 25
  450. ID in the original source medium         : 4617 (0x1209)
  451. Format                                   : PGS
  452. Muxing mode                              : zlib
  453. Codec ID                                 : S_HDMV/PGS
  454. Codec ID/Info                            : Picture based subtitle format used on BDs/HD-DVDs
  455. Duration                                 : 1 h 42 min
  456. Bit rate                                 : 26.6 kb/s
  457. Frame rate                               : 0.404 FPS
  458. Count of elements                        : 2494
  459. Stream size                              : 19.6 MiB (0%)
  460. Language                                 : Spanish
  461. Default                                  : No
  462. Forced                                   : No
  463. Original source medium                   : Blu-ray
  464. Text #16
  465. ID                                       : 26
  466. ID in the original source medium         : 4617 (0x1209)
  467. Format                                   : PGS
  468. Muxing mode                              : zlib
  469. Codec ID                                 : S_HDMV/PGS
  470. Codec ID/Info                            : Picture based subtitle format used on BDs/HD-DVDs
  471. Duration                                 : 1 h 42 min
  472. Bit rate                                 : 438 b/s
  473. Frame rate                               : 0.007 FPS
  474. Count of elements                        : 46
  475. Stream size                              : 329 KiB (0%)
  476. Language                                 : Spanish
  477. Default                                  : No
  478. Forced                                   : No
  479. Original source medium                   : Blu-ray
  480. Text #17
  481. ID                                       : 27
  482. ID in the original source medium         : 4618 (0x120A)
  483. Format                                   : PGS
  484. Muxing mode                              : zlib
  485. Codec ID                                 : S_HDMV/PGS
  486. Codec ID/Info                            : Picture based subtitle format used on BDs/HD-DVDs
  487. Duration                                 : 1 h 42 min
  488. Bit rate                                 : 28.5 kb/s
  489. Frame rate                               : 0.423 FPS
  490. Count of elements                        : 2606
  491. Stream size                              : 21.0 MiB (0%)
  492. Language                                 : Spanish
  493. Default                                  : No
  494. Forced                                   : No
  495. Original source medium                   : Blu-ray
  496. Text #18
  497. ID                                       : 28
  498. ID in the original source medium         : 4618 (0x120A)
  499. Format                                   : PGS
  500. Muxing mode                              : zlib
  501. Codec ID                                 : S_HDMV/PGS
  502. Codec ID/Info                            : Picture based subtitle format used on BDs/HD-DVDs
  503. Duration                                 : 1 h 42 min
  504. Bit rate                                 : 505 b/s
  505. Frame rate                               : 0.008 FPS
  506. Count of elements                        : 52
  507. Stream size                              : 379 KiB (0%)
  508. Language                                 : Spanish
  509. Default                                  : No
  510. Forced                                   : No
  511. Original source medium                   : Blu-ray
  512. Text #19
  513. ID                                       : 29
  514. ID in the original source medium         : 4619 (0x120B)
  515. Format                                   : PGS
  516. Muxing mode                              : zlib
  517. Codec ID                                 : S_HDMV/PGS
  518. Codec ID/Info                            : Picture based subtitle format used on BDs/HD-DVDs
  519. Duration                                 : 1 h 42 min
  520. Bit rate                                 : 27.5 kb/s
  521. Frame rate                               : 0.417 FPS
  522. Count of elements                        : 2572
  523. Stream size                              : 20.2 MiB (0%)
  524. Language                                 : Thai
  525. Default                                  : No
  526. Forced                                   : No
  527. Original source medium                   : Blu-ray
  528. Text #20
  529. ID                                       : 30
  530. ID in the original source medium         : 4620 (0x120C)
  531. Format                                   : PGS
  532. Muxing mode                              : zlib
  533. Codec ID                                 : S_HDMV/PGS
  534. Codec ID/Info                            : Picture based subtitle format used on BDs/HD-DVDs
  535. Duration                                 : 1 h 44 min
  536. Bit rate                                 : 61.8 kb/s
  537. Frame rate                               : 0.547 FPS
  538. Count of elements                        : 3437
  539. Stream size                              : 46.3 MiB (0%)
  540. Title                                    : COMMENTARY
  541. Language                                 : English
  542. Default                                  : No
  543. Forced                                   : No
  544. Original source medium                   : Blu-ray
  545. Text #21
  546. ID                                       : 31
  547. ID in the original source medium         : 4621 (0x120D)
  548. Format                                   : PGS
  549. Muxing mode                              : zlib
  550. Codec ID                                 : S_HDMV/PGS
  551. Codec ID/Info                            : Picture based subtitle format used on BDs/HD-DVDs
  552. Duration                                 : 1 h 43 min
  553. Bit rate                                 : 60.3 kb/s
  554. Frame rate                               : 0.535 FPS
  555. Count of elements                        : 3329
  556. Stream size                              : 44.8 MiB (0%)
  557. Title                                    : COMMENTARY
  558. Language                                 : English
  559. Default                                  : No
  560. Forced                                   : No
  561. Original source medium                   : Blu-ray
  562. Text #22
  563. ID                                       : 32
  564. ID in the original source medium         : 4622 (0x120E)
  565. Format                                   : PGS
  566. Muxing mode                              : zlib
  567. Codec ID                                 : S_HDMV/PGS
  568. Codec ID/Info                            : Picture based subtitle format used on BDs/HD-DVDs
  569. Duration                                 : 1 h 43 min
  570. Bit rate                                 : 53.4 kb/s
  571. Frame rate                               : 0.529 FPS
  572. Count of elements                        : 3295
  573. Stream size                              : 39.6 MiB (0%)
  574. Title                                    : COMMENTARY
  575. Language                                 : French
  576. Default                                  : No
  577. Forced                                   : No
  578. Original source medium                   : Blu-ray
  579. Text #23
  580. ID                                       : 33
  581. ID in the original source medium         : 4623 (0x120F)
  582. Format                                   : PGS
  583. Muxing mode                              : zlib
  584. Codec ID                                 : S_HDMV/PGS
  585. Codec ID/Info                            : Picture based subtitle format used on BDs/HD-DVDs
  586. Duration                                 : 1 h 43 min
  587. Bit rate                                 : 58.0 kb/s
  588. Frame rate                               : 0.518 FPS
  589. Count of elements                        : 3225
  590. Stream size                              : 43.0 MiB (0%)
  591. Title                                    : COMMENTARY
  592. Language                                 : German
  593. Default                                  : No
  594. Forced                                   : No
  595. Original source medium                   : Blu-ray
  596. Text #24
  597. ID                                       : 34
  598. ID in the original source medium         : 4624 (0x1210)
  599. Format                                   : PGS
  600. Muxing mode                              : zlib
  601. Codec ID                                 : S_HDMV/PGS
  602. Codec ID/Info                            : Picture based subtitle format used on BDs/HD-DVDs
  603. Duration                                 : 1 h 43 min
  604. Bit rate                                 : 53.2 kb/s
  605. Frame rate                               : 0.534 FPS
  606. Count of elements                        : 3327
  607. Stream size                              : 39.4 MiB (0%)
  608. Title                                    : COMMENTARY
  609. Language                                 : Italian
  610. Default                                  : No
  611. Forced                                   : No
  612. Original source medium                   : Blu-ray
  613. Text #25
  614. ID                                       : 35
  615. ID in the original source medium         : 4625 (0x1211)
  616. Format                                   : PGS
  617. Muxing mode                              : zlib
  618. Codec ID                                 : S_HDMV/PGS
  619. Codec ID/Info                            : Picture based subtitle format used on BDs/HD-DVDs
  620. Duration                                 : 1 h 43 min
  621. Bit rate                                 : 48.5 kb/s
  622. Frame rate                               : 0.516 FPS
  623. Count of elements                        : 3213
  624. Stream size                              : 36.0 MiB (0%)
  625. Title                                    : COMMENTARY
  626. Language                                 : Spanish
  627. Default                                  : No
  628. Forced                                   : No
  629. Original source medium                   : Blu-ray
  630. Text #26
  631. ID                                       : 36
  632. ID in the original source medium         : 4626 (0x1212)
  633. Format                                   : PGS
  634. Muxing mode                              : zlib
  635. Codec ID                                 : S_HDMV/PGS
  636. Codec ID/Info                            : Picture based subtitle format used on BDs/HD-DVDs
  637. Duration                                 : 1 h 44 min
  638. Bit rate                                 : 73.6 kb/s
  639. Frame rate                               : 0.656 FPS
  640. Count of elements                        : 4126
  641. Stream size                              : 55.2 MiB (0%)
  642. Title                                    : COMMENTARY
  643. Language                                 : English
  644. Default                                  : No
  645. Forced                                   : No
  646. Original source medium                   : Blu-ray
  647. Text #27
  648. ID                                       : 37
  649. ID in the original source medium         : 4627 (0x1213)
  650. Format                                   : PGS
  651. Muxing mode                              : zlib
  652. Codec ID                                 : S_HDMV/PGS
  653. Codec ID/Info                            : Picture based subtitle format used on BDs/HD-DVDs
  654. Duration                                 : 1 h 44 min
  655. Bit rate                                 : 61.9 kb/s
  656. Frame rate                               : 0.584 FPS
  657. Count of elements                        : 3674
  658. Stream size                              : 46.4 MiB (0%)
  659. Title                                    : COMMENTARY
  660. Language                                 : English
  661. Default                                  : No
  662. Forced                                   : No
  663. Original source medium                   : Blu-ray
  664. Text #28
  665. ID                                       : 38
  666. ID in the original source medium         : 4628 (0x1214)
  667. Format                                   : PGS
  668. Muxing mode                              : zlib
  669. Codec ID                                 : S_HDMV/PGS
  670. Codec ID/Info                            : Picture based subtitle format used on BDs/HD-DVDs
  671. Duration                                 : 1 h 44 min
  672. Bit rate                                 : 62.3 kb/s
  673. Frame rate                               : 0.584 FPS
  674. Count of elements                        : 3676
  675. Stream size                              : 46.7 MiB (0%)
  676. Title                                    : COMMENTARY
  677. Language                                 : French
  678. Default                                  : No
  679. Forced                                   : No
  680. Original source medium                   : Blu-ray
  681. Text #29
  682. ID                                       : 39
  683. ID in the original source medium         : 4629 (0x1215)
  684. Format                                   : PGS
  685. Muxing mode                              : zlib
  686. Codec ID                                 : S_HDMV/PGS
  687. Codec ID/Info                            : Picture based subtitle format used on BDs/HD-DVDs
  688. Duration                                 : 1 h 44 min
  689. Bit rate                                 : 58.3 kb/s
  690. Frame rate                               : 0.580 FPS
  691. Count of elements                        : 3648
  692. Stream size                              : 43.7 MiB (0%)
  693. Title                                    : COMMENTARY
  694. Language                                 : German
  695. Default                                  : No
  696. Forced                                   : No
  697. Original source medium                   : Blu-ray
  698. Text #30
  699. ID                                       : 40
  700. ID in the original source medium         : 4630 (0x1216)
  701. Format                                   : PGS
  702. Muxing mode                              : zlib
  703. Codec ID                                 : S_HDMV/PGS
  704. Codec ID/Info                            : Picture based subtitle format used on BDs/HD-DVDs
  705. Duration                                 : 1 h 44 min
  706. Bit rate                                 : 56.5 kb/s
  707. Frame rate                               : 0.581 FPS
  708. Count of elements                        : 3658
  709. Stream size                              : 42.4 MiB (0%)
  710. Title                                    : COMMENTARY
  711. Language                                 : Italian
  712. Default                                  : No
  713. Forced                                   : No
  714. Original source medium                   : Blu-ray
  715. Text #31
  716. ID                                       : 41
  717. ID in the original source medium         : 4631 (0x1217)
  718. Format                                   : PGS
  719. Muxing mode                              : zlib
  720. Codec ID                                 : S_HDMV/PGS
  721. Codec ID/Info                            : Picture based subtitle format used on BDs/HD-DVDs
  722. Duration                                 : 1 h 44 min
  723. Bit rate                                 : 48.9 kb/s
  724. Frame rate                               : 0.580 FPS
  725. Count of elements                        : 3648
  726. Stream size                              : 36.7 MiB (0%)
  727. Title                                    : COMMENTARY
  728. Language                                 : Spanish
  729. Default                                  : No
  730. Forced                                   : No
  731. Original source medium                   : Blu-ray
  732. Menu
  733. 00:00:00.000                             : en:Chapter 01
  734. 00:07:31.200                             : en:Chapter 02
  735. 00:12:17.403                             : en:Chapter 03
  736. 00:16:28.904                             : en:Chapter 04
  737. 00:25:19.351                             : en:Chapter 05
  738. 00:30:32.372                             : en:Chapter 06
  739. 00:36:48.456                             : en:Chapter 07
  740. 00:47:41.942                             : en:Chapter 08
  741. 00:54:35.063                             : en:Chapter 09
  742. 00:59:51.713                             : en:Chapter 10
  743. 01:06:05.044                             : en:Chapter 11
  744. 01:10:47.117                             : en:Chapter 12
  745. 01:15:12.883                             : en:Chapter 13
  746. 01:19:25.010                             : en:Chapter 14
  747. 01:26:47.535                             : en:Chapter 15
  748. 01:32:19.825                             : en:Chapter 16
复制代码











回复

使用道具 举报

蓝光币
580
发表于 2023-1-10 20:19:05 | 显示全部楼层

楼主太厉害了!楼主,电影应该很好看我觉得蓝光电影网真是个好地方!
回复 支持 反对

使用道具 举报

蓝光币
612
发表于 2023-6-18 09:25:53 | 显示全部楼层

这个帖子不回对不起自己!我想我是一天也不能离开蓝光电影网。
回复 支持 反对

使用道具 举报

懒得打字嘛,点击右侧快捷回复 【右侧内容,后台自定义】
您需要登录后才可以回帖 登录 | 立即加入

本版积分规则

Archiver|小黑屋| 蓝光电影网 |网站地图

Copyright © 2021 Comsenz Inc. Powered by 蓝光电影网

蓝光电影网

本站内容由用户自主分享和转载自互联网,转载目的在于传递更多信息,并不代表本网赞同其观点和对其真实性负责。

如有侵权、违反国家法律政策行为,请联系我们,我们会第一时间及时清除和处理!

举报反馈邮箱:4k1080.com@gmail.com

快速回复 返回顶部 返回列表