找回密码

蓝光电影网

查看: 870|回复: 0

[2160p-WEB] 死亡笔记[中文字幕].Death.Note.2017.2160p.NF.WEB-DL.x265.10bit.SDR.DDP5.1.Atmos-XEBEC 12.68GB

[复制链接]
蓝光币
1432
发表于 2023-1-7 01:59:49 | 显示全部楼层 |阅读模式


◎标  题 灭亡笔记
◎译  名 灭亡笔记真人版 / 灭亡笔记美国版
◎片  名 Death Note
◎年  代 2017
◎产  地 美国
◎类  别 剧情 / 悬疑 / 惊悚 / 犯罪
◎语  言 英语
◎上映日期 2017-08-25(美国)
◎IMDb评分 4.4/10 (81710人评价)
◎IMDb链接 https://www.imdb.com/title/tt1241317/
◎豆瓣评分 4.2/10 (7298人评价)
◎豆瓣链接 https://movie.douban.com/subject/5920220/
◎片  长 101分钟
◎导  演 亚当·温加德 Adam Wingard
◎编  剧 查理·帕拉伯尼得斯 Charley Parlapanides
       维拉斯·帕拉伯尼得斯 Vlas Parlapanides
       杰瑞米·斯莱特 Jeremy Slater
       大场鸫 Tsugumi Ohba
       小畑健 Takeshi Obata
◎演  员 纳特·沃尔夫 Nat Wolff
       勒凯斯·斯坦菲尔德 Lakeith Stanfield
       玛格丽特·库里 Margaret Qualley
       谢伊·惠格姆 Shea Whigham
       威廉·达福 Willem Dafoe
       杰森·莱尔斯 Jason Liles
       保罗·纳高奇 Paul Nakauchi
       杰克·埃特林格 Jack Ettlinger
       马修·凯文·安德森 Matthew Kevin Anderson
       克里斯·布里顿 Chris Britton
       科维西·阿梅扬 Kwesi Ameyaw
       贾斯汀·斯通 Justin Stone
       克里斯蒂安·斯隆 Christian Sloan
       阿汀·约翰 Artin John
       大卫·S·郑 David S. Jung
       杰西卡·麦丽奥德 Jessica McLeod
       保罗·麦克吉莱恩 Paul McGillion
       迈克尔·肖姆斯·维尔斯 Michael Shamus Wiles
       道恩·楚拜 Dawn Chubai
       特伦特·雷诺 Trent Reznor
◎标  签 美国 / 灭亡笔记 / 漫画改编 / 悬疑 / 翻拍 / 2017 / 惊悚 / 奇异
◎简  介
  凭仗《纸上城市》(Paper Towns)而展露头脚的新人纳特·沃尔夫(Nat Wolff)比来正洽商主演可骇片《灭亡笔记》(Death Note),该片由华纳兄弟公司出品,按照同名热门日本漫画改编。                                       
                                    《灭亡笔记》为大场鸫(Tsugumi Ohba)创作、小畑健(Takeshi Obata)绘画,是一套于2003年12月至2006年5月连载于集英社《周刊少年Jump》的心理悬疑推理漫画。故事配角是一个高中生,他无意中捡到了一个笔记本,发现自己只要把一小我的名字写在笔记本上,那小我就会立即死去。                                       
                                    这名高中生制造的一系列奥秘灭亡事务引发了一位侦察的留意,他起头追踪凶手,并试图解开工作的真相。                                       
                                    《灭亡笔记》在日本曾被改编成一套动画电视剧、两部真人电影和一套视频游戏。华纳几年前就买下了美版电影的版权,直到今年头才定下让《不速之客》(The Guest)的导演...
  1. Video
  2. ID                                       : 1
  3. Format                                   : HEVC
  4. Format/Info                              : High Efficiency Video Coding
  5. Format profile                           : Main 10@L5@Main
  6. Codec ID                                 : V_MPEGH/ISO/HEVC
  7. Duration                                 : 1 h 40 min
  8. Bit rate                                 : 17.3 Mb/s
  9. Width                                    : 3 840 pixels
  10. Height                                   : 2 160 pixels
  11. Display aspect ratio                     : 16:9
  12. Frame rate mode                          : Constant
  13. Frame rate                               : 23.976 (24000/1001) FPS
  14. Color space                              : YUV
  15. Chroma subsampling                       : 4:2:0
  16. Bit depth                                : 10 bits
  17. Bits/(Pixel*Frame)                       : 0.087
  18. Stream size                              : 12.1 GiB (96%)
  19. Default                                  : Yes
  20. Forced                                   : No
  21. Color range                              : Limited
  22. Color primaries                          : BT.709
  23. Transfer characteristics                 : BT.709
  24. Matrix coefficients                      : BT.709
  25. Audio
  26. ID                                       : 2
  27. Format                                   : E-AC-3 JOC
  28. Format/Info                              : Enhanced AC-3 with Joint Object Coding
  29. Commercial name                          : Dolby Digital Plus with Dolby Atmos
  30. Codec ID                                 : A_EAC3
  31. Duration                                 : 1 h 40 min
  32. Bit rate mode                            : Constant
  33. Bit rate                                 : 768 kb/s
  34. Channel(s)                               : 6 channels
  35. Channel layout                           : L R C LFE Ls Rs
  36. Sampling rate                            : 48.0 kHz
  37. Frame rate                               : 31.250 FPS (1536 SPF)
  38. Compression mode                         : Lossy
  39. Stream size                              : 551 MiB (4%)
  40. Title                                    : English
  41. Language                                 : English
  42. Service kind                             : Complete Main
  43. Default                                  : Yes
  44. Forced                                   : No
  45. Complexity index                         : 16
  46. Number of dynamic objects                : 15
  47. Bed channel count                        : 1 channel
  48. Bed channel configuration                : LFE
  49. Text #1
  50. ID                                       : 3
  51. Format                                   : UTF-8
  52. Codec ID                                 : S_TEXT/UTF8
  53. Codec ID/Info                            : UTF-8 Plain Text
  54. Duration                                 : 2 min 11 s
  55. Bit rate                                 : 44 b/s
  56. Frame rate                               : 0.129 FPS
  57. Count of elements                        : 17
  58. Stream size                              : 737 Bytes (0%)
  59. Title                                    : English (Forced)
  60. Language                                 : English
  61. Default                                  : Yes
  62. Forced                                   : Yes
  63. Text #2
  64. ID                                       : 4
  65. Format                                   : UTF-8
  66. Codec ID                                 : S_TEXT/UTF8
  67. Codec ID/Info                            : UTF-8 Plain Text
  68. Duration                                 : 1 h 39 min
  69. Bit rate                                 : 86 b/s
  70. Frame rate                               : 0.182 FPS
  71. Count of elements                        : 1085
  72. Stream size                              : 63.1 KiB (0%)
  73. Title                                    : Arabic
  74. Language                                 : Arabic
  75. Default                                  : No
  76. Forced                                   : No
  77. Text #3
  78. ID                                       : 5
  79. Format                                   : UTF-8
  80. Codec ID                                 : S_TEXT/UTF8
  81. Codec ID/Info                            : UTF-8 Plain Text
  82. Duration                                 : 1 h 39 min
  83. Bit rate                                 : 46 b/s
  84. Frame rate                               : 0.174 FPS
  85. Count of elements                        : 1040
  86. Stream size                              : 33.9 KiB (0%)
  87. Title                                    : Danish
  88. Language                                 : Danish
  89. Default                                  : No
  90. Forced                                   : No
  91. Text #4
  92. ID                                       : 6
  93. Format                                   : UTF-8
  94. Codec ID                                 : S_TEXT/UTF8
  95. Codec ID/Info                            : UTF-8 Plain Text
  96. Duration                                 : 1 h 39 min
  97. Bit rate                                 : 46 b/s
  98. Frame rate                               : 0.168 FPS
  99. Count of elements                        : 1001
  100. Stream size                              : 34.1 KiB (0%)
  101. Title                                    : German
  102. Language                                 : German
  103. Default                                  : No
  104. Forced                                   : No
  105. Text #5
  106. ID                                       : 7
  107. Format                                   : UTF-8
  108. Codec ID                                 : S_TEXT/UTF8
  109. Codec ID/Info                            : UTF-8 Plain Text
  110. Duration                                 : 1 h 34 min
  111. Bit rate                                 : 88 b/s
  112. Frame rate                               : 0.198 FPS
  113. Count of elements                        : 1119
  114. Stream size                              : 61.3 KiB (0%)
  115. Title                                    : Modern Greek (1453-)
  116. Language                                 : Greek
  117. Default                                  : No
  118. Forced                                   : No
  119. Text #6
  120. ID                                       : 8
  121. Format                                   : UTF-8
  122. Codec ID                                 : S_TEXT/UTF8
  123. Codec ID/Info                            : UTF-8 Plain Text
  124. Duration                                 : 1 h 39 min
  125. Bit rate                                 : 64 b/s
  126. Frame rate                               : 0.212 FPS
  127. Count of elements                        : 1267
  128. Stream size                              : 47.0 KiB (0%)
  129. Title                                    : English (SDH)
  130. Language                                 : English
  131. Default                                  : No
  132. Forced                                   : No
  133. Text #7
  134. ID                                       : 9
  135. Format                                   : UTF-8
  136. Codec ID                                 : S_TEXT/UTF8
  137. Codec ID/Info                            : UTF-8 Plain Text
  138. Duration                                 : 1 h 32 min
  139. Bit rate                                 : 47 b/s
  140. Frame rate                               : 0.189 FPS
  141. Count of elements                        : 1053
  142. Stream size                              : 32.5 KiB (0%)
  143. Title                                    : Spanish
  144. Language                                 : Spanish
  145. Default                                  : No
  146. Forced                                   : No
  147. Text #8
  148. ID                                       : 10
  149. Format                                   : UTF-8
  150. Codec ID                                 : S_TEXT/UTF8
  151. Codec ID/Info                            : UTF-8 Plain Text
  152. Duration                                 : 1 h 39 min
  153. Bit rate                                 : 51 b/s
  154. Frame rate                               : 0.178 FPS
  155. Count of elements                        : 1060
  156. Stream size                              : 37.7 KiB (0%)
  157. Title                                    : Spanish
  158. Language                                 : Spanish
  159. Default                                  : No
  160. Forced                                   : No
  161. Text #9
  162. ID                                       : 11
  163. Format                                   : UTF-8
  164. Codec ID                                 : S_TEXT/UTF8
  165. Codec ID/Info                            : UTF-8 Plain Text
  166. Duration                                 : 1 h 39 min
  167. Bit rate                                 : 43 b/s
  168. Frame rate                               : 0.154 FPS
  169. Count of elements                        : 921
  170. Stream size                              : 31.9 KiB (0%)
  171. Title                                    : Finnish
  172. Language                                 : Finnish
  173. Default                                  : No
  174. Forced                                   : No
  175. Text #10
  176. ID                                       : 12
  177. Format                                   : UTF-8
  178. Codec ID                                 : S_TEXT/UTF8
  179. Codec ID/Info                            : UTF-8 Plain Text
  180. Duration                                 : 1 h 39 min
  181. Bit rate                                 : 47 b/s
  182. Frame rate                               : 0.173 FPS
  183. Count of elements                        : 1033
  184. Stream size                              : 34.3 KiB (0%)
  185. Title                                    : French
  186. Language                                 : French
  187. Default                                  : No
  188. Forced                                   : No
  189. Text #11
  190. ID                                       : 13
  191. Format                                   : UTF-8
  192. Codec ID                                 : S_TEXT/UTF8
  193. Codec ID/Info                            : UTF-8 Plain Text
  194. Duration                                 : 1 h 34 min
  195. Bit rate                                 : 78 b/s
  196. Frame rate                               : 0.190 FPS
  197. Count of elements                        : 1070
  198. Stream size                              : 54.3 KiB (0%)
  199. Title                                    : Hebrew
  200. Language                                 : Hebrew
  201. Default                                  : No
  202. Forced                                   : No
  203. Text #12
  204. ID                                       : 14
  205. Format                                   : UTF-8
  206. Codec ID                                 : S_TEXT/UTF8
  207. Codec ID/Info                            : UTF-8 Plain Text
  208. Duration                                 : 1 h 39 min
  209. Bit rate                                 : 48 b/s
  210. Frame rate                               : 0.175 FPS
  211. Count of elements                        : 1043
  212. Stream size                              : 35.6 KiB (0%)
  213. Title                                    : Italian
  214. Language                                 : Italian
  215. Default                                  : No
  216. Forced                                   : No
  217. Text #13
  218. ID                                       : 15
  219. Format                                   : UTF-8
  220. Codec ID                                 : S_TEXT/UTF8
  221. Codec ID/Info                            : UTF-8 Plain Text
  222. Duration                                 : 1 h 39 min
  223. Bit rate                                 : 43 b/s
  224. Frame rate                               : 0.168 FPS
  225. Count of elements                        : 1003
  226. Stream size                              : 31.6 KiB (0%)
  227. Title                                    : Japanese
  228. Language                                 : Japanese
  229. Default                                  : No
  230. Forced                                   : No
  231. Text #14
  232. ID                                       : 16
  233. Format                                   : UTF-8
  234. Codec ID                                 : S_TEXT/UTF8
  235. Codec ID/Info                            : UTF-8 Plain Text
  236. Duration                                 : 1 h 39 min
  237. Bit rate                                 : 54 b/s
  238. Frame rate                               : 0.181 FPS
  239. Count of elements                        : 1079
  240. Stream size                              : 39.6 KiB (0%)
  241. Title                                    : Korean
  242. Language                                 : Korean
  243. Default                                  : No
  244. Forced                                   : No
  245. Text #15
  246. ID                                       : 17
  247. Format                                   : UTF-8
  248. Codec ID                                 : S_TEXT/UTF8
  249. Codec ID/Info                            : UTF-8 Plain Text
  250. Duration                                 : 1 h 39 min
  251. Bit rate                                 : 42 b/s
  252. Frame rate                               : 0.165 FPS
  253. Count of elements                        : 987
  254. Stream size                              : 31.3 KiB (0%)
  255. Title                                    : Norwegian Bokm?l
  256. Language                                 : Norwegian Bokmal
  257. Default                                  : No
  258. Forced                                   : No
  259. Text #16
  260. ID                                       : 18
  261. Format                                   : UTF-8
  262. Codec ID                                 : S_TEXT/UTF8
  263. Codec ID/Info                            : UTF-8 Plain Text
  264. Duration                                 : 1 h 39 min
  265. Bit rate                                 : 46 b/s
  266. Frame rate                               : 0.157 FPS
  267. Count of elements                        : 938
  268. Stream size                              : 34.0 KiB (0%)
  269. Title                                    : Dutch
  270. Language                                 : Dutch
  271. Default                                  : No
  272. Forced                                   : No
  273. Text #17
  274. ID                                       : 19
  275. Format                                   : UTF-8
  276. Codec ID                                 : S_TEXT/UTF8
  277. Codec ID/Info                            : UTF-8 Plain Text
  278. Duration                                 : 1 h 39 min
  279. Bit rate                                 : 44 b/s
  280. Frame rate                               : 0.172 FPS
  281. Count of elements                        : 1028
  282. Stream size                              : 32.1 KiB (0%)
  283. Title                                    : Polish
  284. Language                                 : Polish
  285. Default                                  : No
  286. Forced                                   : No
  287. Text #18
  288. ID                                       : 20
  289. Format                                   : UTF-8
  290. Codec ID                                 : S_TEXT/UTF8
  291. Codec ID/Info                            : UTF-8 Plain Text
  292. Duration                                 : 1 h 39 min
  293. Bit rate                                 : 51 b/s
  294. Frame rate                               : 0.178 FPS
  295. Count of elements                        : 1063
  296. Stream size                              : 37.6 KiB (0%)
  297. Title                                    : Portuguese
  298. Language                                 : Portuguese
  299. Default                                  : No
  300. Forced                                   : No
  301. Text #19
  302. ID                                       : 21
  303. Format                                   : UTF-8
  304. Codec ID                                 : S_TEXT/UTF8
  305. Codec ID/Info                            : UTF-8 Plain Text
  306. Duration                                 : 1 h 39 min
  307. Bit rate                                 : 51 b/s
  308. Frame rate                               : 0.177 FPS
  309. Count of elements                        : 1054
  310. Stream size                              : 37.5 KiB (0%)
  311. Title                                    : Portuguese
  312. Language                                 : Portuguese
  313. Default                                  : No
  314. Forced                                   : No
  315. Text #20
  316. ID                                       : 22
  317. Format                                   : UTF-8
  318. Codec ID                                 : S_TEXT/UTF8
  319. Codec ID/Info                            : UTF-8 Plain Text
  320. Duration                                 : 1 h 39 min
  321. Bit rate                                 : 51 b/s
  322. Frame rate                               : 0.177 FPS
  323. Count of elements                        : 1059
  324. Stream size                              : 37.7 KiB (0%)
  325. Title                                    : Romanian
  326. Language                                 : Romanian
  327. Default                                  : No
  328. Forced                                   : No
  329. Text #21
  330. ID                                       : 23
  331. Format                                   : UTF-8
  332. Codec ID                                 : S_TEXT/UTF8
  333. Codec ID/Info                            : UTF-8 Plain Text
  334. Duration                                 : 1 h 32 min
  335. Bit rate                                 : 83 b/s
  336. Frame rate                               : 0.190 FPS
  337. Count of elements                        : 1058
  338. Stream size                              : 56.6 KiB (0%)
  339. Title                                    : Russian
  340. Language                                 : Russian
  341. Default                                  : No
  342. Forced                                   : No
  343. Text #22
  344. ID                                       : 24
  345. Format                                   : UTF-8
  346. Codec ID                                 : S_TEXT/UTF8
  347. Codec ID/Info                            : UTF-8 Plain Text
  348. Duration                                 : 1 h 39 min
  349. Bit rate                                 : 48 b/s
  350. Frame rate                               : 0.168 FPS
  351. Count of elements                        : 1002
  352. Stream size                              : 35.1 KiB (0%)
  353. Title                                    : Swedish
  354. Language                                 : Swedish
  355. Default                                  : No
  356. Forced                                   : No
  357. Text #23
  358. ID                                       : 25
  359. Format                                   : UTF-8
  360. Codec ID                                 : S_TEXT/UTF8
  361. Codec ID/Info                            : UTF-8 Plain Text
  362. Duration                                 : 1 h 39 min
  363. Bit rate                                 : 119 b/s
  364. Frame rate                               : 0.180 FPS
  365. Count of elements                        : 1075
  366. Stream size                              : 87.3 KiB (0%)
  367. Title                                    : Thai
  368. Language                                 : Thai
  369. Default                                  : No
  370. Forced                                   : No
  371. Text #24
  372. ID                                       : 26
  373. Format                                   : UTF-8
  374. Codec ID                                 : S_TEXT/UTF8
  375. Codec ID/Info                            : UTF-8 Plain Text
  376. Duration                                 : 1 h 39 min
  377. Bit rate                                 : 54 b/s
  378. Frame rate                               : 0.175 FPS
  379. Count of elements                        : 1046
  380. Stream size                              : 40.1 KiB (0%)
  381. Title                                    : Turkish
  382. Language                                 : Turkish
  383. Default                                  : No
  384. Forced                                   : No
  385. Text #25
  386. ID                                       : 27
  387. Format                                   : UTF-8
  388. Codec ID                                 : S_TEXT/UTF8
  389. Codec ID/Info                            : UTF-8 Plain Text
  390. Duration                                 : 1 h 39 min
  391. Bit rate                                 : 68 b/s
  392. Frame rate                               : 0.180 FPS
  393. Count of elements                        : 1073
  394. Stream size                              : 49.6 KiB (0%)
  395. Title                                    : Vietnamese
  396. Language                                 : Vietnamese
  397. Default                                  : No
  398. Forced                                   : No
  399. Text #26
  400. ID                                       : 28
  401. Format                                   : UTF-8
  402. Codec ID                                 : S_TEXT/UTF8
  403. Codec ID/Info                            : UTF-8 Plain Text
  404. Duration                                 : 1 h 39 min
  405. Bit rate                                 : 51 b/s
  406. Frame rate                               : 0.180 FPS
  407. Count of elements                        : 1073
  408. Stream size                              : 37.8 KiB (0%)
  409. Title                                    : Simplified, Chinese
  410. Language                                 : Chinese
  411. Default                                  : No
  412. Forced                                   : No
  413. Text #27
  414. ID                                       : 29
  415. Format                                   : UTF-8
  416. Codec ID                                 : S_TEXT/UTF8
  417. Codec ID/Info                            : UTF-8 Plain Text
  418. Duration                                 : 1 h 39 min
  419. Bit rate                                 : 51 b/s
  420. Frame rate                               : 0.181 FPS
  421. Count of elements                        : 1078
  422. Stream size                              : 37.9 KiB (0%)
  423. Title                                    : Traditional, Chinese
  424. Language                                 : Chinese
  425. Default                                  : No
  426. Forced                                   : No
  427. Menu
  428. 00:00:00.000                             : en:Part 01
  429. 01:34:25.450                             : en:Credits
复制代码











回复

使用道具 举报

懒得打字嘛,点击右侧快捷回复 【右侧内容,后台自定义】
您需要登录后才可以回帖 登录 | 立即加入

本版积分规则

Archiver|小黑屋| 蓝光电影网 |网站地图

Copyright © 2021 Comsenz Inc. Powered by 蓝光电影网

蓝光电影网

本站内容由用户自主分享和转载自互联网,转载目的在于传递更多信息,并不代表本网赞同其观点和对其真实性负责。

如有侵权、违反国家法律政策行为,请联系我们,我们会第一时间及时清除和处理!

举报反馈邮箱:4k1080.com@gmail.com

快速回复 返回顶部 返回列表