找回密码

查看: 1259|回复: 2

[爱情] 等待都柏林.Waiting.for.Dublin.2007.720p.BluRay.x264-GAZER 4.23GB

[复制链接]
蓝光币
2027
发表于 2023-1-7 15:43:04 | 显示全部楼层 |阅读模式


◎标  题 期待都柏林
◎片  名 Waiting For Dublin
◎年  代 2007
◎产  地 比利时
◎类  别 恋爱
◎语  言 英语
◎上映日期 2008-02-07
◎IMDb评分 4.6/10 (191人评价)
◎IMDb链接 https://www.imdb.com/title/tt0905642/
◎豆瓣链接 https://movie.douban.com/subject/2126845/
◎片  长 Germany: 84 分钟(European Film Market)
◎导  演 Roger Tucker Roger Tucker
◎演  员 安德鲁·凯加 Andrew Keegan
        Maria Anastacia Keogh
       休·奥康纳 Hugh O'Conor
       克拉多·德·克拉伦 Guido De Craene
       Jenne Decleir Jenne Decleir
       嘉德·优瑞尔 Jade Yourell
       ‎弗兰克·凯利‎ Frank Kelly
       大卫·威尔莫特 David Wilmot
       马丁·德维特 Martin Dewitte
       Les Healey Les Healey
       克里斯皮安·萨利斯 Crispian Sallis
◎简  介
  On New Year's Eve 1944, American pilot Mike Clarke inadvertently bets Al Capone's nephew $10,000.00 that he can shoot down five enemy aircrafts. Later, forced to land near a remote village in Ireland after running out of fuel, Mike learns that he is cut off from the rest of the world with no way to rejoin the war and shoot down his fifth plane, which is the only way he can win ...
  1. Video
  2. ID                                       : 1
  3. Format                                   : AVC
  4. Format/Info                              : Advanced Video Codec
  5. Format profile                           : High@L4.1
  6. Format settings                          : CABAC / 9 Ref Frames
  7. Format settings, CABAC                   : Yes
  8. Format settings, Reference frames        : 9 frames
  9. Codec ID                                 : V_MPEG4/ISO/AVC
  10. Duration                                 : 1 h 25 min
  11. Bit rate                                 : 6 599 kb/s
  12. Width                                    : 1 280 pixels
  13. Height                                   : 694 pixels
  14. Display aspect ratio                     : 1.85:1
  15. Frame rate mode                          : Constant
  16. Frame rate                               : 23.976 (24000/1001) FPS
  17. Color space                              : YUV
  18. Chroma subsampling                       : 4:2:0
  19. Bit depth                                : 8 bits
  20. Scan type                                : Progressive
  21. Bits/(Pixel*Frame)                       : 0.310
  22. Stream size                              : 3.96 GiB (94%)
  23. Writing library                          : x264 core 164 r3102 416e3eb
  24. Encoding settings                        : cabac=1 / ref=9 / deblock=1:-3:-3 / analyse=0x3:0x133 / me=umh / subme=10 / psy=1 / psy_rd=1.20:0.00 / mixed_ref=1 / me_range=24 / chroma_me=1 / trellis=2 / 8x8dct=1 / cqm=0 / deadzone=21,11 / fast_pskip=0 / chroma_qp_offset=-2 / threads=22 / lookahead_threads=3 / sliced_threads=0 / nr=0 / decimate=0 / interlaced=0 / bluray_compat=0 / constrained_intra=0 / bframes=8 / b_pyramid=2 / b_adapt=2 / b_bias=0 / direct=3 / weightb=1 / open_gop=0 / weightp=2 / keyint=250 / keyint_min=23 / scenecut=40 / intra_refresh=0 / rc_lookahead=60 / rc=crf / mbtree=1 / crf=19.5 / qcomp=0.60 / qpmin=0 / qpmax=69 / qpstep=4 / ip_ratio=1.40 / aq=3:0.90
  25. Default                                  : Yes
  26. Forced                                   : No
  27. Color range                              : Limited
  28. Matrix coefficients                      : BT.709
  29. Audio
  30. ID                                       : 2
  31. Format                                   : AC-3
  32. Format/Info                              : Audio Coding 3
  33. Commercial name                          : Dolby Digital
  34. Codec ID                                 : A_AC3
  35. Duration                                 : 1 h 25 min
  36. Bit rate mode                            : Constant
  37. Bit rate                                 : 448 kb/s
  38. Channel(s)                               : 6 channels
  39. Channel layout                           : L R C LFE Ls Rs
  40. Sampling rate                            : 48.0 kHz
  41. Frame rate                               : 31.250 FPS (1536 SPF)
  42. Compression mode                         : Lossy
  43. Stream size                              : 275 MiB (6%)
  44. Language                                 : English
  45. Service kind                             : Complete Main
  46. Default                                  : Yes
  47. Forced                                   : No
  48. Menu
  49. 00:00:00.000                             : Chapter 01
  50. 00:00:21.480                             : Chapter 02
  51. 00:09:29.944                             : Chapter 03
  52. 00:17:35.721                             : Chapter 04
  53. 00:32:50.969                             : Chapter 05
  54. 00:41:28.361                             : Chapter 06
  55. 00:54:23.469                             : Chapter 07
  56. 01:02:13.313                             : Chapter 08
  57. 01:11:28.284                             : Chapter 09
  58. 01:20:36.874                             : Chapter 10
  59. 01:21:40.896                             : Chapter 11
复制代码









回复

使用道具 举报

蓝光币
1338
发表于 2023-1-13 19:29:00 | 显示全部楼层
不错不错!!!
回复

使用道具 举报

蓝光币
25
发表于 2023-11-10 08:38:34 | 显示全部楼层

感谢楼主的无私分享!要想蓝光电影网好 就靠你我他
回复

使用道具 举报

懒得打字嘛,点击右侧快捷回复 【右侧内容,后台自定义】
您需要登录后才可以回帖 登录 | 立即加入

本版积分规则

Archiver| |网站地图

Copyright © 2024 Comsenz Inc. Powered by 蓝光电影网

本站内容由用户自主分享和转载自互联网,转载目的在于传递更多信息,并不代表本网赞同其观点和对其真实性负责。

如有侵权、违反国家法律政策行为,请联系我们,我们会第一时间及时清除和处理!

举报反馈邮箱:4k1080.com@gmail.com

快速回复 返回顶部 返回列表