找回密码

蓝光电影网

查看: 491|回复: 1

[剧情] 牛仔之家.Proud.Men.1987.720p.BluRay.x264-GAZER 3.60GB

[复制链接]
蓝光币
1704
发表于 2023-1-7 15:43:04 | 显示全部楼层 |阅读模式


◎标  题 牛仔之家
◎片  名 Proud Men
◎年  代 1987
◎产  地 美国
◎类  别 剧情
◎语  言 英语
◎上映日期 1987-10-01(美国)
◎IMDb评分 6.2/10 (161人评价)
◎IMDb链接 https://www.imdb.com/title/tt0093795/
◎豆瓣链接 https://movie.douban.com/subject/3087647/
◎片  长 100分钟
◎导  演 威廉·A·格雷厄姆 William A. Graham
◎演  员 Alan Autry Alan Autry
       贝琳达·巴拉斯基 Belinda Balaski
       查尔顿·赫斯顿 Charlton Heston
       巴克·泰勒 Buck Taylor
       南·马丁 Nan Martin
       彼得·斯特劳斯 Peter Strauss
       弗兰克·范·泽尔内克 Frank von Zerneck
       罗伯特·M.塞特内尔 Robert M. Sertner
       Stu Samuels Stu Samuels
       劳伦斯·罗森萨尔 Laurence Rosenthal
  1. Video
  2. ID                                       : 1
  3. Format                                   : AVC
  4. Format/Info                              : Advanced Video Codec
  5. Format profile                           : High@L4.1
  6. Format settings                          : CABAC / 12 Ref Frames
  7. Format settings, CABAC                   : Yes
  8. Format settings, Reference frames        : 12 frames
  9. Codec ID                                 : V_MPEG4/ISO/AVC
  10. Duration                                 : 1 h 34 min
  11. Bit rate                                 : 5 138 kb/s
  12. Width                                    : 960 pixels
  13. Height                                   : 720 pixels
  14. Display aspect ratio                     : 4:3
  15. Frame rate mode                          : Constant
  16. Frame rate                               : 24.000 FPS
  17. Color space                              : YUV
  18. Chroma subsampling                       : 4:2:0
  19. Bit depth                                : 8 bits
  20. Scan type                                : Progressive
  21. Bits/(Pixel*Frame)                       : 0.310
  22. Stream size                              : 3.39 GiB (94%)
  23. Writing library                          : x264 core 164 r3102 416e3eb
  24. Encoding settings                        : cabac=1 / ref=12 / deblock=1:-3:-3 / analyse=0x3:0x133 / me=umh / subme=10 / psy=1 / psy_rd=1.20:0.00 / mixed_ref=1 / me_range=24 / chroma_me=1 / trellis=2 / 8x8dct=1 / cqm=0 / deadzone=21,11 / fast_pskip=0 / chroma_qp_offset=-2 / threads=22 / lookahead_threads=3 / sliced_threads=0 / nr=0 / decimate=0 / interlaced=0 / bluray_compat=0 / constrained_intra=0 / bframes=8 / b_pyramid=2 / b_adapt=2 / b_bias=0 / direct=3 / weightb=1 / open_gop=0 / weightp=2 / keyint=250 / keyint_min=24 / scenecut=40 / intra_refresh=0 / rc_lookahead=60 / rc=crf / mbtree=1 / crf=19.5 / qcomp=0.60 / qpmin=0 / qpmax=69 / qpstep=4 / ip_ratio=1.40 / aq=3:0.90
  25. Default                                  : Yes
  26. Forced                                   : No
  27. Color range                              : Limited
  28. Matrix coefficients                      : BT.709
  29. Audio
  30. ID                                       : 2
  31. Format                                   : FLAC
  32. Format/Info                              : Free Lossless Audio Codec
  33. Codec ID                                 : A_FLAC
  34. Duration                                 : 1 h 34 min
  35. Bit rate mode                            : Variable
  36. Bit rate                                 : 321 kb/s
  37. Channel(s)                               : 2 channels
  38. Channel layout                           : L R
  39. Sampling rate                            : 48.0 kHz
  40. Frame rate                               : 11.719 FPS (4096 SPF)
  41. Bit depth                                : 16 bits
  42. Compression mode                         : Lossless
  43. Stream size                              : 217 MiB (6%)
  44. Writing library                          : libFLAC 1.3.3 (UTC 2019-08-04)
  45. Language                                 : English
  46. Default                                  : Yes
  47. Forced                                   : No
  48. Menu
  49. 00:00:00.000                             : Chapter 01
  50. 00:08:36.208                             : Chapter 02
  51. 00:19:23.583                             : Chapter 03
  52. 00:32:19.708                             : Chapter 04
  53. 00:47:40.042                             : Chapter 05
  54. 01:05:36.250                             : Chapter 06
  55. 01:24:02.000                             : Chapter 07
  56. 01:34:25.792                             : Chapter 08
复制代码









回复

使用道具 举报

蓝光币
903
发表于 2023-1-8 18:49:44 | 显示全部楼层

楼主太厉害了!楼主,电影应该很好看我觉得蓝光电影网真是个好地方!
回复 支持 反对

使用道具 举报

懒得打字嘛,点击右侧快捷回复 【右侧内容,后台自定义】
您需要登录后才可以回帖 登录 | 立即加入

本版积分规则

Archiver|小黑屋| 蓝光电影网 |网站地图

Copyright © 2021 Comsenz Inc. Powered by 蓝光电影网

蓝光电影网

本站内容由用户自主分享和转载自互联网,转载目的在于传递更多信息,并不代表本网赞同其观点和对其真实性负责。

如有侵权、违反国家法律政策行为,请联系我们,我们会第一时间及时清除和处理!

举报反馈邮箱:4k1080.com@gmail.com

快速回复 返回顶部 返回列表