找回密码

查看: 885|回复: 0

[其他] 二重のまち/交代地のうたを編む.Double.Layered.Town.Making.a.Song.to.Replace.Our.Positions.2019.JAPANESE.ENSUBBED.1080p.WEBRip.AAC2.0.x264-ODiUM 3.41GB

[复制链接]
蓝光币
1840
发表于 2023-1-7 15:49:10 | 显示全部楼层 |阅读模式


◎标  题 二重のまち/交接地のうたを編む
◎译  名 Double layered town / Making a song to replace our positions / Niju no machi / Kotaichi no uta o amu
◎年  代 2019
◎产  地 日本
◎类  别 记载片
◎语  言 日语
◎上映日期 2019-10(山形国际记载片电影节) / 2021-02-27(日本)
◎IMDb评分 5.8/10 (14人评价)
◎IMDb链接 https://www.imdb.com/title/tt14871086/
◎豆瓣链接 https://movie.douban.com/subject/35343799/
◎片  长 79分钟
◎导  演 小森はるか Haruka Komori
◎简  介
    Set in Rikuzentakata, Iwate, Japan, in the year 2031, Double Layered Town is a story written by Seo Natsumi, which plants the seeds for new folktales to be born in the wake of the Great East Japan Earthquake of 2011. It details the town that once stood, and also the one that was built after the completion of land elevation work. In Double Layered Town / Making a Song to Replace Our Positions, four travellers who do not know each other head to Rikuzentakata in 2018, listening to what the local people have to say, staging dialogues together, and reciting stories. Through these cycles of listening, reporting, and retelling, these travellers find their own speaking voice Double Layered Town / Making a Song to Replace Our Positions is a record of a place where a small “succession” was initiated, captured in this filmic portrait with a delicate touch.
  1. Video
  2. ID                                       : 1
  3. Format                                   : AVC
  4. Format/Info                              : Advanced Video Codec
  5. Format profile                           : High@L4
  6. Format settings                          : CABAC / 1 Ref Frames
  7. Format settings, CABAC                   : Yes
  8. Format settings, Reference frames        : 1 frame
  9. Format settings, GOP                     : M=1, N=48
  10. Codec ID                                 : V_MPEG4/ISO/AVC
  11. Duration                                 : 1 h 19 min
  12. Bit rate                                 : 6 000 kb/s
  13. Width                                    : 1 920 pixels
  14. Height                                   : 1 080 pixels
  15. Display aspect ratio                     : 16:9
  16. Frame rate mode                          : Constant
  17. Frame rate                               : 23.976 (24000/1001) FPS
  18. Color space                              : YUV
  19. Chroma subsampling                       : 4:2:0
  20. Bit depth                                : 8 bits
  21. Scan type                                : Progressive
  22. Bits/(Pixel*Frame)                       : 0.121
  23. Stream size                              : 3.33 GiB (98%)
  24. Title                                    : MPEG-4 AVC / 5859 KiBps / 23.976 fps / 1778:1
  25. Writing library                          : x264 core 148
  26. Encoding settings                        : cabac=1 / ref=1 / deblock=1:0:0 / analyse=0x3:0x3 / me=dia / subme=1 / psy=1 / psy_rd=1.00:0.00 / mixed_ref=0 / me_range=16 / chroma_me=1 / trellis=0 / 8x8dct=1 / cqm=0 / deadzone=21,11 / fast_pskip=1 / chroma_qp_offset=0 / threads=24 / lookahead_threads=4 / sliced_threads=0 / nr=0 / decimate=1 / interlaced=0 / bluray_compat=0 / constrained_intra=0 / bframes=0 / weightp=1 / keyint=48 / keyint_min=25 / scenecut=0 / intra_refresh=0 / rc_lookahead=0 / rc=abr / mbtree=0 / bitrate=6000 / ratetol=1.0 / qcomp=0.60 / qpmin=0 / qpmax=69 / qpstep=4 / vbv_maxrate=9000 / vbv_bufsize=18000 / nal_hrd=none / filler=0 / ip_ratio=1.40 / aq=1:1.00
  27. Language                                 : Japanese
  28. Default                                  : Yes
  29. Forced                                   : No
  30. Color range                              : Limited
  31. Color primaries                          : BT.709
  32. Transfer characteristics                 : BT.709
  33. Matrix coefficients                      : BT.709
  34. Audio
  35. ID                                       : 2
  36. Format                                   : AAC LC
  37. Format/Info                              : Advanced Audio Codec Low Complexity
  38. Codec ID                                 : A_AAC-2
  39. Duration                                 : 1 h 19 min
  40. Bit rate                                 : 128 kb/s
  41. Channel(s)                               : 2 channels
  42. Channel layout                           : L R
  43. Sampling rate                            : 48.0 kHz
  44. Frame rate                               : 46.875 FPS (1024 SPF)
  45. Compression mode                         : Lossy
  46. Stream size                              : 72.3 MiB (2%)
  47. Title                                    : Japanese / AAC LC / 2.0 / 48.000 kHz / 126 KiBps
  48. Language                                 : Japanese
  49. Default                                  : Yes
  50. Forced                                   : No
复制代码











回复

使用道具 举报

懒得打字嘛,点击右侧快捷回复 【右侧内容,后台自定义】
您需要登录后才可以回帖 登录 | 立即加入

本版积分规则

Copyright © 2024 Comsenz Inc. Powered by 蓝光电影网

本站内容由用户自主分享和转载自互联网,转载目的在于传递更多信息,并不代表本网赞同其观点和对其真实性负责。

如有侵权、违反国家法律政策行为,请联系我们,我们会第一时间及时清除和处理!

举报反馈邮箱:4k1080.com@gmail.com

快速回复 返回顶部 返回列表