找回密码

蓝光电影网

查看: 593|回复: 0

[惊悚] 限制.Limit.2022.KOREAN.1080p.WEBRip.AAC2.0.x264-NOGRP 4.97GB

[复制链接]
蓝光币
1432
发表于 2023-1-7 15:49:11 | 显示全部楼层 |阅读模式


◎标  题 限制
◎译  名 界限 / Limit
◎片  名 리미트
◎年  代 2022
◎产  地 韩国
◎类  别 惊悚 / 犯罪
◎语  言 韩语
◎上映日期 2022年8月5日
◎IMDb评分 5.2/10 (17人评价)
◎IMDb链接 https://www.imdb.com/title/tt21632892/
◎豆瓣评分 5.1/10 (219人评价)
◎豆瓣链接 https://movie.douban.com/subject/35123743/
◎片  长 分钟
◎导  演 李承俊
◎演  员 李贞贤
       文晶熙
       京熙妍
       朴明勋
       崔德门
       朴庆惠
◎简  介
  报告在一路诱拐案件,李贞贤饰演的差人“小恩”取代被诱拐的孩子的怙恃,伪装成诱拐事务的成员投入到诱拐案件中,与诱拐犯展开了周密的心理战的故事,文晶熙饰演与绑架事务相关的人物“惠珍”,京熙妍饰演孩子被绑架的母亲“妍珠”。
  1. Video
  2. ID                                       : 1
  3. Format                                   : AVC
  4. Format/Info                              : Advanced Video Codec
  5. Format profile                           : Main@L4
  6. Format settings                          : CABAC / 2 Ref Frames
  7. Format settings, CABAC                   : Yes
  8. Format settings, Reference frames        : 2 frames
  9. Format settings, GOP                     : M=1, N=30
  10. Codec ID                                 : V_MPEG4/ISO/AVC
  11. Duration                                 : 1 h 27 min
  12. Bit rate mode                            : Constant
  13. Bit rate                                 : 8 000 kb/s
  14. Width                                    : 1 920 pixels
  15. Height                                   : 1 080 pixels
  16. Display aspect ratio                     : 16:9
  17. Frame rate mode                          : Constant
  18. Frame rate                               : 23.976 (24000/1001) FPS
  19. Color space                              : YUV
  20. Chroma subsampling                       : 4:2:0
  21. Bit depth                                : 8 bits
  22. Scan type                                : Progressive
  23. Bits/(Pixel*Frame)                       : 0.161
  24. Stream size                              : 4.89 GiB (98%)
  25. Language                                 : Korean
  26. Default                                  : Yes
  27. Forced                                   : No
  28. Audio
  29. ID                                       : 2
  30. Format                                   : AAC LC
  31. Format/Info                              : Advanced Audio Codec Low Complexity
  32. Codec ID                                 : A_AAC-2
  33. Duration                                 : 1 h 27 min
  34. Bit rate                                 : 128 kb/s
  35. Channel(s)                               : 2 channels
  36. Channel layout                           : L R
  37. Sampling rate                            : 48.0 kHz
  38. Frame rate                               : 46.875 FPS (1024 SPF)
  39. Compression mode                         : Lossy
  40. Stream size                              : 80.1 MiB (2%)
  41. Language                                 : Korean
  42. Default                                  : Yes
  43. Forced                                   : No
  44. Text
  45. ID                                       : 3
  46. Format                                   : UTF-8
  47. Codec ID                                 : S_TEXT/UTF8
  48. Codec ID/Info                            : UTF-8 Plain Text
  49. Duration                                 : 1 h 21 min
  50. Bit rate                                 : 39 b/s
  51. Frame rate                               : 0.171 FPS
  52. Count of elements                        : 836
  53. Stream size                              : 23.4 KiB (0%)
  54. Language                                 : English
  55. Default                                  : No
  56. Forced                                   : No
复制代码











回复

使用道具 举报

懒得打字嘛,点击右侧快捷回复 【右侧内容,后台自定义】
您需要登录后才可以回帖 登录 | 立即加入

本版积分规则

Archiver|小黑屋| 蓝光电影网 |网站地图

Copyright © 2021 Comsenz Inc. Powered by 蓝光电影网

蓝光电影网

本站内容由用户自主分享和转载自互联网,转载目的在于传递更多信息,并不代表本网赞同其观点和对其真实性负责。

如有侵权、违反国家法律政策行为,请联系我们,我们会第一时间及时清除和处理!

举报反馈邮箱:4k1080.com@gmail.com

快速回复 返回顶部 返回列表