找回密码

蓝光电影网

查看: 796|回复: 0

[其他] 地狱谷.Mother.Lode.1982.1080p.BluRay.x264-GAZER 7.16GB

[复制链接]
蓝光币
1704
发表于 2023-1-8 00:45:22 | 显示全部楼层 |阅读模式


◎标  题 天堂谷
◎译  名 母矿
◎片  名 Mother Lode
◎年  代 1982
◎产  地 美国
◎类  别 冒险
◎语  言 英语
◎上映日期 1982-09-23
◎IMDb评分 5.8/10 (1434人评价)
◎IMDb链接 https://www.imdb.com/title/tt0084359/
◎豆瓣链接 https://movie.douban.com/subject/2136755/
◎片  长 101 分钟
◎导  演 查尔顿·赫斯顿 Charlton Heston
       弗雷泽·克拉克·赫斯顿 Fraser Clarke Heston
◎编  剧 弗雷泽·克拉克·赫斯顿 Fraser Clarke Heston
       安德鲁·沙因曼 Andrew Scheinman
◎演  员 查尔顿·赫斯顿 Charlton Heston
       尼克‧曼库索 Nick Mancuso
       金·贝辛格 Kim Basinger
       约翰·马利 John Marley
       戴尔·威尔逊 Dale Wilson
       Peter Snell Peter Snell
       弗雷泽·克拉克·赫斯顿 Fraser Clarke Heston
       Les Kimber Les Kimber
       Kenneth Wannberg Kenneth Wannberg
       Richard Leiterman Richard Leiterman
       林恩·斯塔马斯特 Lynn Stalmaster
       Ron Snyder Ron Snyder
  1. Video
  2. ID                                       : 1
  3. Format                                   : AVC
  4. Format/Info                              : Advanced Video Codec
  5. Format profile                           : High@L4.1
  6. Format settings                          : CABAC / 5 Ref Frames
  7. Format settings, CABAC                   : Yes
  8. Format settings, Reference frames        : 5 frames
  9. Codec ID                                 : V_MPEG4/ISO/AVC
  10. Duration                                 : 1 h 42 min
  11. Bit rate                                 : 9 562 kb/s
  12. Width                                    : 1 916 pixels
  13. Height                                   : 816 pixels
  14. Display aspect ratio                     : 2.35:1
  15. Frame rate mode                          : Constant
  16. Frame rate                               : 24.000 FPS
  17. Color space                              : YUV
  18. Chroma subsampling                       : 4:2:0
  19. Bit depth                                : 8 bits
  20. Scan type                                : Progressive
  21. Bits/(Pixel*Frame)                       : 0.255
  22. Stream size                              : 6.86 GiB (96%)
  23. Writing library                          : x264 core 164 r3102 416e3eb
  24. Encoding settings                        : cabac=1 / ref=5 / deblock=1:-3:-3 / analyse=0x3:0x133 / me=umh / subme=10 / psy=1 / psy_rd=1.20:0.00 / mixed_ref=1 / me_range=24 / chroma_me=1 / trellis=2 / 8x8dct=1 / cqm=0 / deadzone=21,11 / fast_pskip=0 / chroma_qp_offset=-2 / threads=24 / lookahead_threads=4 / sliced_threads=0 / nr=0 / decimate=0 / interlaced=0 / bluray_compat=0 / constrained_intra=0 / bframes=8 / b_pyramid=2 / b_adapt=2 / b_bias=0 / direct=3 / weightb=1 / open_gop=0 / weightp=2 / keyint=250 / keyint_min=24 / scenecut=40 / intra_refresh=0 / rc_lookahead=60 / rc=crf / mbtree=1 / crf=18.0 / qcomp=0.60 / qpmin=0 / qpmax=69 / qpstep=4 / ip_ratio=1.40 / aq=3:0.90
  25. Default                                  : Yes
  26. Forced                                   : No
  27. Color range                              : Limited
  28. Matrix coefficients                      : BT.709
  29. Audio
  30. ID                                       : 2
  31. Format                                   : FLAC
  32. Format/Info                              : Free Lossless Audio Codec
  33. Codec ID                                 : A_FLAC
  34. Duration                                 : 1 h 42 min
  35. Bit rate mode                            : Variable
  36. Bit rate                                 : 407 kb/s
  37. Channel(s)                               : 2 channels
  38. Channel layout                           : L R
  39. Sampling rate                            : 48.0 kHz
  40. Frame rate                               : 11.719 FPS (4096 SPF)
  41. Bit depth                                : 16 bits
  42. Compression mode                         : Lossless
  43. Stream size                              : 299 MiB (4%)
  44. Writing library                          : libFLAC 1.3.3 (UTC 2019-08-04)
  45. Language                                 : English
  46. Default                                  : Yes
  47. Forced                                   : No
  48. Menu
  49. 00:00:00.000                             : Chapter 01
  50. 00:14:58.833                             : Chapter 02
  51. 00:33:25.458                             : Chapter 03
  52. 00:44:42.625                             : Chapter 04
  53. 00:58:37.375                             : Chapter 05
  54. 01:10:19.792                             : Chapter 06
  55. 01:32:53.958                             : Chapter 07
  56. 01:42:45.125                             : Chapter 08
复制代码









回复

使用道具 举报

懒得打字嘛,点击右侧快捷回复 【右侧内容,后台自定义】
您需要登录后才可以回帖 登录 | 立即加入

本版积分规则

Archiver|小黑屋| 蓝光电影网 |网站地图

Copyright © 2021 Comsenz Inc. Powered by 蓝光电影网

蓝光电影网

本站内容由用户自主分享和转载自互联网,转载目的在于传递更多信息,并不代表本网赞同其观点和对其真实性负责。

如有侵权、违反国家法律政策行为,请联系我们,我们会第一时间及时清除和处理!

举报反馈邮箱:4k1080.com@gmail.com

快速回复 返回顶部 返回列表