找回密码

蓝光电影网

查看: 849|回复: 1

[喜剧] 碰上爱情.You.Are.So.Beautiful.2005.FRENCH.1080p.BluRay.x264.DDP5.1-SbR 12.82GB

[复制链接]
蓝光币
1704
发表于 2023-1-8 00:45:24 | 显示全部楼层 |阅读模式


◎标  题 碰上恋爱
◎译  名 我感觉你很是英俊
◎片  名 Je vous trouve très beau
◎年  代 2005
◎产  地 法国
◎类  别 笑剧 / 恋爱
◎语  言 法语 / 罗马尼亚语
◎上映日期 2005-11-13
◎IMDb评分 6.7/10 (2991人评价)
◎IMDb链接 https://www.imdb.com/title/tt0450664/
◎豆瓣评分 7.3/10 (164人评价)
◎豆瓣链接 https://movie.douban.com/subject/1987215/
◎片  长 97分钟
◎导  演 伊莎贝尔·莫歌特 Isabelle Mergault
◎编  剧 伊莎贝尔·莫歌特 Isabelle Mergault
◎演  员 米歇尔·布朗 Michel Blanc
       瓦莱丽·博莱同 Valérie Bonneton
       Véronique Silver Véronique Silver
       麦迪尔玛瑞尼斯库 Medeea Marinescu
       Stéphane Hillel Stéphane Hillel
       伊娃·达尔兰 Eva Darlan
       多拉·多尔 Dora Doll
       伊莎贝尔·莫歌特 Isabelle Mergault
       亚瑟·约格诺特 Arthur Jugnot
◎简  介
    故事一路头,男配角和妻子生活在一路,一瞬间,相处几十年的妻子就这么分开。但是,这位孤独的老头,居然在十天之内,就起头想找人整理自己的生活了。因而,他来到了罗马尼亚,这群罗马尼亚年轻女报酬了要分开这里,一见到他就一定会说一句“我感觉您好帅”。说到后来,连他都感觉腻烦了。昔时轻的女配角就在预备说出这句话时,被征友社的人使眼色,才让工作有所起色……
  1. Video
  2. ID                                       : 1
  3. Format                                   : AVC
  4. Format/Info                              : Advanced Video Codec
  5. Format profile                           : High@L4.1
  6. Format settings                          : CABAC / 4 Ref Frames
  7. Format settings, CABAC                   : Yes
  8. Format settings, Reference frames        : 4 frames
  9. Codec ID                                 : V_MPEG4/ISO/AVC
  10. Duration                                 : 1 h 39 min
  11. Bit rate                                 : 17.4 Mb/s
  12. Width                                    : 1 916 pixels
  13. Height                                   : 1 036 pixels
  14. Display aspect ratio                     : 1.85:1
  15. Frame rate mode                          : Constant
  16. Frame rate                               : 24.000 FPS
  17. Color space                              : YUV
  18. Chroma subsampling                       : 4:2:0
  19. Bit depth                                : 8 bits
  20. Scan type                                : Progressive
  21. Bits/(Pixel*Frame)                       : 0.365
  22. Stream size                              : 12.1 GiB (94%)
  23. Writing library                          : x264 core 164 r3098+49M c0c352d devel [(8 & 10)-bit@all X86_64]
  24. Encoding settings                        : cabac=1 / ref=4 / deblock=1:-3:-3 / analyse=0x3:0x133 / me=umh / subme=11 / psy=1 / fade_compensate=0.00 / psy_rd=1.00:0.00 / mixed_ref=1 / me_range=32 / chroma_me=1 / trellis=2 / 8x8dct=1 / cqm=0 / deadzone=21,11 / fast_pskip=1 / chroma_qp_offset=-2 / threads=32 / lookahead_threads=8 / sliced_threads=0 / nr=0 / decimate=1 / interlaced=0 / bluray_compat=0 / constrained_intra=0 / fgo=0 / bframes=10 / b_pyramid=2 / b_adapt=2 / b_bias=0 / direct=3 / weightb=1 / open_gop=0 / weightp=2 / keyint=250 / keyint_min=24 / scenecut=40 / intra_refresh=0 / rc=crf / mbtree=0 / crf=19.0000 / qcomp=0.60 / qpmin=0:0:0 / qpmax=69:69:69 / qpstep=4 / ip_ratio=1.25 / pb_ratio=1.20 / aq=3:0.80 / aq-sensitivity=10.00 / aq-factor=1.00:1.00:1.00 / aq2=0 / aq3=0
  25. Language                                 : French
  26. Default                                  : Yes
  27. Forced                                   : No
  28. Audio
  29. ID                                       : 2
  30. Format                                   : E-AC-3
  31. Format/Info                              : Enhanced AC-3
  32. Commercial name                          : Dolby Digital Plus
  33. Codec ID                                 : A_EAC3
  34. Duration                                 : 1 h 39 min
  35. Bit rate mode                            : Constant
  36. Bit rate                                 : 1 024 kb/s
  37. Channel(s)                               : 6 channels
  38. Channel layout                           : L R C LFE Ls Rs
  39. Sampling rate                            : 48.0 kHz
  40. Frame rate                               : 31.250 FPS (1536 SPF)
  41. Compression mode                         : Lossy
  42. Stream size                              : 730 MiB (6%)
  43. Language                                 : French
  44. Service kind                             : Complete Main
  45. Default                                  : Yes
  46. Forced                                   : No
  47. Text #1
  48. ID                                       : 3
  49. Format                                   : ASS
  50. Codec ID                                 : S_TEXT/ASS
  51. Codec ID/Info                            : Advanced Sub Station Alpha
  52. Duration                                 : 1 h 38 min
  53. Bit rate                                 : 105 b/s
  54. Frame rate                               : 0.206 FPS
  55. Count of elements                        : 1221
  56. Compression mode                         : Lossless
  57. Stream size                              : 75.9 KiB (0%)
  58. Language                                 : Russian
  59. Default                                  : No
  60. Forced                                   : No
  61. Text #2
  62. ID                                       : 4
  63. Format                                   : UTF-8
  64. Codec ID                                 : S_TEXT/UTF8
  65. Codec ID/Info                            : UTF-8 Plain Text
  66. Duration                                 : 1 h 38 min
  67. Bit rate                                 : 68 b/s
  68. Frame rate                               : 0.206 FPS
  69. Count of elements                        : 1221
  70. Stream size                              : 49.6 KiB (0%)
  71. Language                                 : Russian
  72. Default                                  : No
  73. Forced                                   : No
  74. Text #3
  75. ID                                       : 5
  76. Format                                   : ASS
  77. Codec ID                                 : S_TEXT/ASS
  78. Codec ID/Info                            : Advanced Sub Station Alpha
  79. Duration                                 : 1 h 38 min
  80. Bit rate                                 : 64 b/s
  81. Frame rate                               : 0.160 FPS
  82. Count of elements                        : 946
  83. Compression mode                         : Lossless
  84. Stream size                              : 46.5 KiB (0%)
  85. Title                                    : TV5
  86. Language                                 : English
  87. Default                                  : No
  88. Forced                                   : No
  89. Text #4
  90. ID                                       : 6
  91. Format                                   : UTF-8
  92. Codec ID                                 : S_TEXT/UTF8
  93. Codec ID/Info                            : UTF-8 Plain Text
  94. Duration                                 : 1 h 38 min
  95. Bit rate                                 : 36 b/s
  96. Frame rate                               : 0.160 FPS
  97. Count of elements                        : 946
  98. Stream size                              : 26.3 KiB (0%)
  99. Title                                    : TV5
  100. Language                                 : English
  101. Default                                  : No
  102. Forced                                   : No
  103. Text #5
  104. ID                                       : 7
  105. Format                                   : UTF-8
  106. Codec ID                                 : S_TEXT/UTF8
  107. Codec ID/Info                            : UTF-8 Plain Text
  108. Duration                                 : 1 h 38 min
  109. Bit rate                                 : 39 b/s
  110. Frame rate                               : 0.197 FPS
  111. Count of elements                        : 1166
  112. Stream size                              : 28.3 KiB (0%)
  113. Language                                 : English
  114. Default                                  : No
  115. Forced                                   : No
  116. Text #6
  117. ID                                       : 8
  118. Format                                   : UTF-8
  119. Codec ID                                 : S_TEXT/UTF8
  120. Codec ID/Info                            : UTF-8 Plain Text
  121. Duration                                 : 1 h 38 min
  122. Bit rate                                 : 49 b/s
  123. Frame rate                               : 0.195 FPS
  124. Count of elements                        : 1151
  125. Stream size                              : 35.4 KiB (0%)
  126. Language                                 : French
  127. Default                                  : No
  128. Forced                                   : No
  129. Text #7
  130. ID                                       : 9
  131. Format                                   : UTF-8
  132. Codec ID                                 : S_TEXT/UTF8
  133. Codec ID/Info                            : UTF-8 Plain Text
  134. Duration                                 : 1 h 38 min
  135. Bit rate                                 : 45 b/s
  136. Frame rate                               : 0.212 FPS
  137. Count of elements                        : 1254
  138. Stream size                              : 32.7 KiB (0%)
  139. Language                                 : Dutch
  140. Default                                  : No
  141. Forced                                   : No
  142. Text #8
  143. ID                                       : 10
  144. Format                                   : UTF-8
  145. Codec ID                                 : S_TEXT/UTF8
  146. Codec ID/Info                            : UTF-8 Plain Text
  147. Duration                                 : 1 h 38 min
  148. Bit rate                                 : 47 b/s
  149. Frame rate                               : 0.202 FPS
  150. Count of elements                        : 1198
  151. Stream size                              : 34.1 KiB (0%)
  152. Language                                 : German
  153. Default                                  : No
  154. Forced                                   : No
  155. Menu
  156. 00:00:00.000                             : en:Episode 01
  157. 00:08:04.708                             : en:Episode 02
  158. 00:15:50.333                             : en:Episode 03
  159. 00:24:40.125                             : en:Episode 04
  160. 00:31:47.875                             : en:Episode 05
  161. 00:40:42.458                             : en:Episode 06
  162. 00:46:51.083                             : en:Episode 07
  163. 00:58:57.417                             : en:Episode 08
  164. 01:04:12.208                             : en:Episode 09
  165. 01:13:24.667                             : en:Episode 10
  166. 01:24:23.083                             : en:Episode 11
  167. 01:32:28.208                             : en:Episode 12
复制代码











回复

使用道具 举报

蓝光币
616
发表于 2023-1-8 08:29:57 | 显示全部楼层

我看不错噢 谢谢楼主!蓝光电影网越来越好!
回复 支持 反对

使用道具 举报

懒得打字嘛,点击右侧快捷回复 【右侧内容,后台自定义】
您需要登录后才可以回帖 登录 | 立即加入

本版积分规则

Archiver|小黑屋| 蓝光电影网 |网站地图

Copyright © 2021 Comsenz Inc. Powered by 蓝光电影网

蓝光电影网

本站内容由用户自主分享和转载自互联网,转载目的在于传递更多信息,并不代表本网赞同其观点和对其真实性负责。

如有侵权、违反国家法律政策行为,请联系我们,我们会第一时间及时清除和处理!

举报反馈邮箱:4k1080.com@gmail.com

快速回复 返回顶部 返回列表