找回密码

蓝光电影网

查看: 979|回复: 0

[剧情] 属于我们的圣诞节.A.Christmas.Tale.2008.FRENCH.CRITERION.1080p.BluRay.x264.DTS-NOGRP 10.94GB

[复制链接]
蓝光币
1688
发表于 2023-1-8 00:45:24 | 显示全部楼层 |阅读模式


◎标  题 属于我们的圣诞节
◎译  名 圣诞物语(港) / 圣诞故事 / 圣诞节的传闻 / 圣诞童话 / A Christmas Tale
◎片  名 Un conte de Noël
◎年  代 2008
◎产  地 法国
◎类  别 剧情 / 笑剧
◎语  言 法语
◎上映日期 2008-05-21(法国)
◎IMDb评分 7/10 (7282人评价)
◎IMDb链接 https://www.imdb.com/title/tt0993789/
◎豆瓣评分 7.3/10 (2121人评价)
◎豆瓣链接 https://movie.douban.com/subject/2044081/
◎片  长 150分钟
◎导  演 阿诺·戴普勒尚 Arnaud Desplechin
◎编  剧 阿诺·戴普勒尚 Arnaud Desplechin
       伊曼纽尔·布尔迪厄 Emmanuel Bourdieu
◎演  员 凯瑟琳·德纳芙 Catherine Deneuve
       让-保罗·鲁西荣 Jean-Paul Roussillon
       安妮·康斯金尼 Anne Consigny
       马修·阿马立克 Mathieu Amalric
       梅尔维尔·珀波 Melvil Poupaud
       伊波利特·吉拉尔多 Hippolyte Girardot
       艾曼纽·德芙 Emmanuelle Devos
       齐雅拉·马斯楚安尼 Chiara Mastroianni
       洛朗特·卡普洛托 Laurent Capelluto
       埃米尔·贝宁 Emile Berling
       弗朗科西斯·博汀 Françoise Bertin
       萨米尔·盖丝米 Samir Guesmi
       菲利普·莫里尔-热努 Philippe Morier-Genoud
       霍曼·顾皮勒 Romain Goupil
       米格伦·米切夫 Miglen Mirtchev
◎简  介
    阿贝尔(让-保罗·罗斯里昂 Jean-Paul Roussillon 饰)和朱诺(凯瑟琳·德纳芙 Catherine Deneuve 饰)两人成婚多年,配合哺育着一双后代,不幸来临到了这个家庭当中,小儿子抱病了,只要移植骨髓才可以保住他的人命。在配型未果后,阿贝尔和朱诺决议再生一个孩子,令夫妻两人失望非常的是,这个孩子的骨髓也不合适约瑟夫。就这样,小儿子分开了,可是这个家庭里多了一个名叫亨利(马修·阿马立克 Mathieu Amalric 饰)的新生命。                                                                      时候如流水一般逝去,大女儿和亨利之间的关系越来越差,就在这个节骨眼上,朱诺亦被查出得了了和小儿子一样的疾病,而和她的骨髓婚配的只要两人,那就是亨利和亨利那得了严重神经病的小侄子保罗(埃米尔·本宁 Emile Berling 饰)。
  1. Video
  2. ID                                       : 1
  3. Format                                   : AVC
  4. Format/Info                              : Advanced Video Codec
  5. Format profile                           : High@L4.1
  6. Format settings                          : CABAC / 5 Ref Frames
  7. Format settings, CABAC                   : Yes
  8. Format settings, Reference frames        : 5 frames
  9. Codec ID                                 : V_MPEG4/ISO/AVC
  10. Duration                                 : 2 h 32 min
  11. Bit rate                                 : 8 776 kb/s
  12. Width                                    : 1 920 pixels
  13. Height                                   : 816 pixels
  14. Display aspect ratio                     : 2.35:1
  15. Frame rate mode                          : Constant
  16. Frame rate                               : 23.976 (24000/1001) FPS
  17. Color space                              : YUV
  18. Chroma subsampling                       : 4:2:0
  19. Bit depth                                : 8 bits
  20. Scan type                                : Progressive
  21. Bits/(Pixel*Frame)                       : 0.234
  22. Stream size                              : 9.33 GiB (85%)
  23. Title                                    : Un.conte.de.Noel.2008.BluRay.DTS.Fr.Rus.Sub.vs_U
  24. Writing library                          : x264 core 79 r1332 70f8869
  25. Encoding settings                        : cabac=1 / ref=5 / deblock=1:-1:-1 / analyse=0x3:0x113 / me=umh / subme=7 / psy=1 / psy_rd=1.0:0.0 / mixed_ref=1 / me_range=16 / chroma_me=1 / trellis=2 / 8x8dct=1 / cqm=0 / deadzone=21,11 / chroma_qp_offset=-2 / threads=6 / nr=0 / decimate=1 / mbaff=0 / constrained_intra=0 / bframes=3 / b_pyramid=0 / b_adapt=2 / b_bias=0 / direct=3 / wpredb=1 / wpredp=2 / keyint=250 / keyint_min=25 / scenecut=40 / rc_lookahead=40 / rc=2pass / mbtree=1 / bitrate=8776 / ratetol=1.0 / qcomp=0.60 / qpmin=10 / qpmax=51 / qpstep=4 / cplxblur=20.0 / qblur=0.5 / vbv_maxrate=50000 / vbv_bufsize=50000 / ip_ratio=1.40 / aq=1:1.00
  26. Language                                 : French
  27. Default                                  : Yes
  28. Forced                                   : No
  29. Audio
  30. ID                                       : 2
  31. Format                                   : DTS
  32. Format/Info                              : Digital Theater Systems
  33. Codec ID                                 : A_DTS
  34. Duration                                 : 2 h 32 min
  35. Bit rate mode                            : Constant
  36. Bit rate                                 : 1 509 kb/s
  37. Channel(s)                               : 6 channels
  38. Channel layout                           : C L R Ls Rs LFE
  39. Sampling rate                            : 48.0 kHz
  40. Frame rate                               : 93.750 FPS (512 SPF)
  41. Bit depth                                : 24 bits
  42. Compression mode                         : Lossy
  43. Stream size                              : 1.60 GiB (15%)
  44. Language                                 : French
  45. Default                                  : No
  46. Forced                                   : No
  47. Text
  48. ID                                       : 3
  49. Format                                   : UTF-8
  50. Codec ID                                 : S_TEXT/UTF8
  51. Codec ID/Info                            : UTF-8 Plain Text
  52. Duration                                 : 2 h 27 min
  53. Bit rate                                 : 46 b/s
  54. Frame rate                               : 0.214 FPS
  55. Count of elements                        : 1897
  56. Stream size                              : 50.2 KiB (0%)
  57. Language                                 : English
  58. Default                                  : Yes
  59. Forced                                   : No
  60. Menu
  61. 00:00:00.000                             : en:01. The Tale of the Tale
  62. 00:04:06.079                             : en:02. The Eldest
  63. 00:10:32.841                             : en:03. Meanwhile, In Roubaix
  64. 00:14:26.908                             : en:04. The Middle Child
  65. 00:15:36.936                             : en:05. Roubaix Hospital, Hematology Service
  66. 00:18:22.101                             : en:06. The Youngest
  67. 00:23:18.063                             : en:07. Chez Vuillard
  68. 00:29:02.908                             : en:08. December 22: The Letter
  69. 00:32:40.584                             : en:09. Train To Roubaix
  70. 00:38:07.285                             : en:10. Arrival
  71. 00:46:05.763                             : en:11. Family Portraits
  72. 00:51:06.063                             : en:12. The Little Jew
  73. 00:55:45.342                             : en:13. "A Family Of Weirdos"
  74. 01:01:43.700                             : en:14. December 23: Reunited
  75. 01:05:37.267                             : en:15. Probability
  76. 01:08:08.918                             : en:16. Fights
  77. 01:15:15.511                             : en:17. The Choice
  78. 01:24:04.873                             : en:18. Fireworks
  79. 01:31:48.878                             : en:19. December 24: The Phantom
  80. 01:40:56.884                             : en:20. "Zorro The Prince"
  81. 01:45:51.762                             : en:21. Exchanging Gifts/The Toast
  82. 01:51:28.765                             : en:22. The Midnight Mass
  83. 01:58:15.505                             : en:23. Search for Simon
  84. 02:00:05.615                             : en:24. December 25: Jubilations
  85. 02:08:31.245                             : en:25. In The Evening: Farewells
  86. 02:16:27.054                             : en:26. Color Bars
复制代码











回复

使用道具 举报

懒得打字嘛,点击右侧快捷回复 【右侧内容,后台自定义】
您需要登录后才可以回帖 登录 | 立即加入

本版积分规则

Archiver|小黑屋| 蓝光电影网 |网站地图

Copyright © 2021 Comsenz Inc. Powered by 蓝光电影网

蓝光电影网

本站内容由用户自主分享和转载自互联网,转载目的在于传递更多信息,并不代表本网赞同其观点和对其真实性负责。

如有侵权、违反国家法律政策行为,请联系我们,我们会第一时间及时清除和处理!

举报反馈邮箱:4k1080.com@gmail.com

快速回复 返回顶部 返回列表