找回密码

蓝光电影网

查看: 973|回复: 0

[剧情] 反斗大妈2.Carmina.and.Amen.2014.SPANISH.1080p.BluRay.x264.DD5.1-HANDJOB 7.83GB

[复制链接]
蓝光币
1704
发表于 2023-1-8 00:45:24 | 显示全部楼层 |阅读模式


◎标  题 反斗大妈2
◎译  名 神啊寬恕我貪心的母親
◎片  名 Carmina y amén
◎年  代 2014
◎产  地 西班牙
◎类  别 剧情 / 笑剧
◎语  言 西班牙语
◎上映日期 2014年4月30日
◎IMDb评分 6.7/10 (1633人评价)
◎IMDb链接 https://www.imdb.com/title/tt2823088/
◎豆瓣链接 https://movie.douban.com/subject/25961218/
◎片  长 100 分钟
◎导  演 帕科·莱昂
◎编  剧 Paco León
◎演  员 布兰·巴里奥斯 Carmina barrios
       玛利亚·莱昂 María León
       马诺洛·索罗 Manolo Solo
       帕科·凯萨斯 Paco Casaus
       约兰达·拉莫斯 Yolanda Ramos
◎简  介
  布兰大妈(布兰·巴里奥斯饰)的丈夫忽然归天,家里原本就是揭不开锅的状态,这下堕入更深的悲痛。可是斟酌到政府的福利政策,大妈决议把丈夫的尸身隐藏两天再去申报灭亡。女儿玛利亚(玛利亚·莱昂饰)配合大妈的主张对外隐瞒,闹出很多笑泪横飞的的轶事。
  1. Video
  2. ID                                       : 1
  3. Format                                   : AVC
  4. Format/Info                              : Advanced Video Codec
  5. Format profile                           : High@L4.1
  6. Format settings                          : CABAC / 4 Ref Frames
  7. Format settings, CABAC                   : Yes
  8. Format settings, Reference frames        : 4 frames
  9. Codec ID                                 : V_MPEG4/ISO/AVC
  10. Duration                                 : 1 h 37 min
  11. Bit rate                                 : 10.9 Mb/s
  12. Width                                    : 1 920 pixels
  13. Height                                   : 1 036 pixels
  14. Display aspect ratio                     : 1.85:1
  15. Frame rate mode                          : Constant
  16. Frame rate                               : 24.000 FPS
  17. Color space                              : YUV
  18. Chroma subsampling                       : 4:2:0
  19. Bit depth                                : 8 bits
  20. Scan type                                : Progressive
  21. Bits/(Pixel*Frame)                       : 0.228
  22. Stream size                              : 7.38 GiB (94%)
  23. Writing library                          : x264 core 164 r3065 ae03d92
  24. Encoding settings                        : cabac=1 / ref=4 / deblock=1:-3:-3 / analyse=0x3:0x133 / me=umh / subme=10 / psy=1 / psy_rd=1.00:0.00 / mixed_ref=1 / me_range=32 / chroma_me=1 / trellis=2 / 8x8dct=1 / cqm=0 / deadzone=21,11 / fast_pskip=0 / chroma_qp_offset=-2 / threads=32 / lookahead_threads=8 / sliced_threads=0 / nr=0 / decimate=0 / interlaced=0 / bluray_compat=0 / constrained_intra=0 / bframes=16 / b_pyramid=2 / b_adapt=2 / b_bias=0 / direct=3 / weightb=1 / open_gop=0 / weightp=2 / keyint=240 / keyint_min=24 / scenecut=40 / intra_refresh=0 / rc_lookahead=60 / rc=crf / mbtree=0 / crf=15.5 / qcomp=0.60 / qpmin=0 / qpmax=69 / qpstep=4 / vbv_maxrate=62500 / vbv_bufsize=78125 / crf_max=0.0 / nal_hrd=none / filler=0 / ip_ratio=1.40 / pb_ratio=1.30 / aq=2:1.00
  25. Default                                  : Yes
  26. Forced                                   : No
  27. Color range                              : Limited
  28. Color primaries                          : BT.709
  29. Transfer characteristics                 : BT.709
  30. Matrix coefficients                      : BT.709
  31. Audio
  32. ID                                       : 2
  33. Format                                   : AC-3
  34. Format/Info                              : Audio Coding 3
  35. Commercial name                          : Dolby Digital
  36. Codec ID                                 : A_AC3
  37. Duration                                 : 1 h 37 min
  38. Bit rate mode                            : Constant
  39. Bit rate                                 : 640 kb/s
  40. Channel(s)                               : 6 channels
  41. Channel layout                           : L R C LFE Ls Rs
  42. Sampling rate                            : 48.0 kHz
  43. Frame rate                               : 31.250 FPS (1536 SPF)
  44. Compression mode                         : Lossy
  45. Stream size                              : 445 MiB (6%)
  46. Language                                 : Spanish
  47. Service kind                             : Complete Main
  48. Default                                  : Yes
  49. Forced                                   : No
  50. Text #1
  51. ID                                       : 3
  52. Format                                   : UTF-8
  53. Codec ID                                 : S_TEXT/UTF8
  54. Codec ID/Info                            : UTF-8 Plain Text
  55. Duration                                 : 1 h 35 min
  56. Bit rate                                 : 74 b/s
  57. Frame rate                               : 0.282 FPS
  58. Count of elements                        : 1610
  59. Stream size                              : 52.0 KiB (0%)
  60. Language                                 : English
  61. Default                                  : Yes
  62. Forced                                   : No
  63. Text #2
  64. ID                                       : 4
  65. Format                                   : UTF-8
  66. Codec ID                                 : S_TEXT/UTF8
  67. Codec ID/Info                            : UTF-8 Plain Text
  68. Duration                                 : 1 h 35 min
  69. Bit rate                                 : 76 b/s
  70. Frame rate                               : 0.298 FPS
  71. Count of elements                        : 1710
  72. Stream size                              : 53.3 KiB (0%)
  73. Title                                    : SDH
  74. Language                                 : English
  75. Default                                  : No
  76. Forced                                   : No
  77. Text #3
  78. ID                                       : 5
  79. Format                                   : PGS
  80. Muxing mode                              : zlib
  81. Codec ID                                 : S_HDMV/PGS
  82. Codec ID/Info                            : Picture based subtitle format used on BDs/HD-DVDs
  83. Duration                                 : 1 h 35 min
  84. Bit rate                                 : 56.3 kb/s
  85. Frame rate                               : 0.603 FPS
  86. Count of elements                        : 3462
  87. Stream size                              : 38.5 MiB (0%)
  88. Language                                 : Spanish
  89. Default                                  : No
  90. Forced                                   : No
  91. Menu
  92. 00:00:00.000                             : Chapter 1
  93. 00:07:54.250                             : Chapter 2
  94. 00:13:30.125                             : Chapter 3
  95. 00:19:25.083                             : Chapter 4
  96. 00:26:36.458                             : Chapter 5
  97. 00:36:34.542                             : Chapter 6
  98. 00:46:23.292                             : Chapter 7
  99. 00:48:01.750                             : Chapter 8
  100. 01:00:54.000                             : Chapter 9
  101. 01:09:59.708                             : Chapter 10
  102. 01:17:11.208                             : Chapter 11
  103. 01:23:49.167                             : Chapter 12
复制代码











回复

使用道具 举报

懒得打字嘛,点击右侧快捷回复 【右侧内容,后台自定义】
您需要登录后才可以回帖 登录 | 立即加入

本版积分规则

Archiver|小黑屋| 蓝光电影网 |网站地图

Copyright © 2021 Comsenz Inc. Powered by 蓝光电影网

蓝光电影网

本站内容由用户自主分享和转载自互联网,转载目的在于传递更多信息,并不代表本网赞同其观点和对其真实性负责。

如有侵权、违反国家法律政策行为,请联系我们,我们会第一时间及时清除和处理!

举报反馈邮箱:4k1080.com@gmail.com

快速回复 返回顶部 返回列表