找回密码

查看: 1131|回复: 0

[剧情] 掮客[中文字幕].Broker.2022.KOREAN.1080p.BluRay.x264.DDP5.1-PTer 18.39GB

[复制链接]
蓝光币
1848
发表于 2023-1-8 00:45:25 | 显示全部楼层 |阅读模式


◎标  题 掮客
◎译  名 代理人 / 孩子转运站(港) / 婴儿转运站(台) / 经手人 / 掮客人 / 中心人 / 中介人 / 摇篮 / 요람 / ベイビー・ブローカー / ブローカー / Baby Broker / Baby /  Box /  Broker / Broker
◎片  名 브로커
◎年  代 2022
◎产  地 韩国
◎类  别 剧情
◎语  言 韩语
◎上映日期 2022-05-26(戛纳电影节) / 2022-06-08(韩国)
◎IMDb链接 https://www.imdb.com/title/tt13056052/
◎豆瓣链接 https://movie.douban.com/subject/35192111/
◎片  长 126分钟
◎导  演 是枝裕和 Hirokazu Koreeda
◎编  剧 是枝裕和 Hirokazu Koreeda
◎演  员 宋康昊 Kang-ho Song
       姜栋元 Dong-won Kang
       裴斗娜 Doona Bae
       李知恩 IU
       李珠英 Joo-young Lee
       白贤镇 Hyeon-jin Baek
       金艺恩 Ye-eun Kim
       宋早晨 Sae-byeok Song
       李美敬 Miky Lee
       郑在日 Jae-il Jung
       洪坰杓 Kyung-Pyo Hong
       是枝裕和 Hirokazu Koreeda
◎简  介
  尚贤(宋康昊 饰)经营洗衣店,惋惜买卖淡静更欠债累累。好兄弟东洙(姜栋元 饰)自己是孤儿,为“婴儿暂存箱”机构工作。在一个雨夜,他们竟奥秘带走其中一个箱里的男婴。翌日,年轻的母亲素英(李知恩 饰)却找上门要求领回自己的孩子雨盛!本想报警揭发,但素英终极竟赞成让两个“中心人”为儿子寻觅更好的怙恃,并决议跟从两人同业。另一边厢,刑警秀珍(裴斗娜 饰)联同子弟李刑警(李珠英 饰)本来一向跟踪着他们,黑暗收集证据,决心拉人定案!剧情由暂存箱里的婴儿激发,连累方圆5个关键人物,展开一段意想不到的怪异旅程,震动最奥妙的圆滑人情。
  1. Video
  2. ID                                       : 1
  3. Format                                   : AVC
  4. Format/Info                              : Advanced Video Codec
  5. Format profile                           : High@L4.1
  6. Format settings                          : CABAC / 4 Ref Frames
  7. Format settings, CABAC                   : Yes
  8. Format settings, Reference frames        : 4 frames
  9. Codec ID                                 : V_MPEG4/ISO/AVC
  10. Duration                                 : 2 h 9 min
  11. Bit rate                                 : 19.3 Mb/s
  12. Width                                    : 1 920 pixels
  13. Height                                   : 1 038 pixels
  14. Display aspect ratio                     : 1.85:1
  15. Frame rate mode                          : Constant
  16. Frame rate                               : 23.976 (24000/1001) FPS
  17. Color space                              : YUV
  18. Chroma subsampling                       : 4:2:0
  19. Bit depth                                : 8 bits
  20. Scan type                                : Progressive
  21. Bits/(Pixel*Frame)                       : 0.403
  22. Stream size                              : 17.4 GiB (95%)
  23. Writing library                          : x264 core 164 r3094 bfc87b7
  24. Encoding settings                        : cabac=1 / ref=4 / deblock=1:-3:-3 / analyse=0x3:0x133 / me=umh / subme=11 / psy=1 / psy_rd=1.00:0.00 / mixed_ref=1 / me_range=32 / chroma_me=1 / trellis=2 / 8x8dct=1 / cqm=0 / deadzone=21,11 / fast_pskip=0 / chroma_qp_offset=-2 / threads=30 / lookahead_threads=7 / sliced_threads=0 / nr=0 / decimate=0 / interlaced=0 / bluray_compat=0 / constrained_intra=0 / bframes=16 / b_pyramid=2 / b_adapt=2 / b_bias=0 / direct=3 / weightb=1 / open_gop=0 / weightp=2 / keyint=250 / keyint_min=23 / scenecut=40 / intra_refresh=0 / rc_lookahead=250 / rc=crf / mbtree=0 / crf=18.8 / qcomp=0.60 / qpmin=0 / qpmax=69 / qpstep=4 / vbv_maxrate=62500 / vbv_bufsize=78125 / crf_max=0.0 / nal_hrd=none / filler=0 / ip_ratio=1.30 / pb_ratio=1.20 / aq=3:0.80
  25. Language                                 : Korean
  26. Default                                  : Yes
  27. Forced                                   : No
  28. Audio
  29. ID                                       : 2
  30. Format                                   : E-AC-3
  31. Format/Info                              : Enhanced AC-3
  32. Commercial name                          : Dolby Digital Plus
  33. Codec ID                                 : A_EAC3
  34. Duration                                 : 2 h 9 min
  35. Bit rate mode                            : Constant
  36. Bit rate                                 : 1 024 kb/s
  37. Channel(s)                               : 6 channels
  38. Channel layout                           : L R C LFE Ls Rs
  39. Sampling rate                            : 48.0 kHz
  40. Frame rate                               : 31.250 FPS (1536 SPF)
  41. Compression mode                         : Lossy
  42. Delay relative to video                  : 1 ms
  43. Stream size                              : 948 MiB (5%)
  44. Language                                 : Korean
  45. Service kind                             : Complete Main
  46. Default                                  : Yes
  47. Forced                                   : No
  48. Text #1
  49. ID                                       : 3
  50. Format                                   : UTF-8
  51. Codec ID                                 : S_TEXT/UTF8
  52. Codec ID/Info                            : UTF-8 Plain Text
  53. Duration                                 : 2 h 1 min
  54. Bit rate                                 : 44 b/s
  55. Frame rate                               : 0.204 FPS
  56. Count of elements                        : 1490
  57. Stream size                              : 39.3 KiB (0%)
  58. Title                                    : English
  59. Language                                 : English
  60. Default                                  : No
  61. Forced                                   : No
  62. Text #2
  63. ID                                       : 4
  64. Format                                   : UTF-8
  65. Codec ID                                 : S_TEXT/UTF8
  66. Codec ID/Info                            : UTF-8 Plain Text
  67. Duration                                 : 2 h 1 min
  68. Bit rate                                 : 41 b/s
  69. Frame rate                               : 0.224 FPS
  70. Count of elements                        : 1632
  71. Stream size                              : 37.4 KiB (0%)
  72. Title                                    : Simplified Chinese
  73. Language                                 : Chinese
  74. Default                                  : No
  75. Forced                                   : No
  76. Text #3
  77. ID                                       : 5
  78. Format                                   : UTF-8
  79. Codec ID                                 : S_TEXT/UTF8
  80. Codec ID/Info                            : UTF-8 Plain Text
  81. Duration                                 : 2 h 1 min
  82. Bit rate                                 : 41 b/s
  83. Frame rate                               : 0.224 FPS
  84. Count of elements                        : 1632
  85. Stream size                              : 37.4 KiB (0%)
  86. Title                                    : Traditional Chinese
  87. Language                                 : Chinese
  88. Default                                  : No
  89. Forced                                   : No
  90. Text #4
  91. ID                                       : 6
  92. Format                                   : PGS
  93. Muxing mode                              : zlib
  94. Codec ID                                 : S_HDMV/PGS
  95. Codec ID/Info                            : Picture based subtitle format used on BDs/HD-DVDs
  96. Duration                                 : 2 h 5 min
  97. Bit rate                                 : 64.0 kb/s
  98. Frame rate                               : 0.695 FPS
  99. Count of elements                        : 5216
  100. Stream size                              : 57.3 MiB (0%)
  101. Title                                    : Simplified Chinese&Korean
  102. Language                                 : Multiple languages
  103. Default                                  : No
  104. Forced                                   : No
  105. Menu
  106. 00:00:00.000                             : en:Chapter 01
  107. 00:10:04.103                             : en:Chapter 02
  108. 00:20:59.175                             : en:Chapter 03
  109. 00:32:14.891                             : en:Chapter 04
  110. 00:42:42.977                             : en:Chapter 05
  111. 00:53:21.615                             : en:Chapter 06
  112. 01:05:07.695                             : en:Chapter 07
  113. 01:13:52.637                             : en:Chapter 08
  114. 01:24:48.375                             : en:Chapter 09
  115. 01:36:28.866                             : en:Chapter 10
  116. 01:48:11.985                             : en:Chapter 11
  117. 02:00:40.692                             : en:Chapter 12
复制代码











回复

使用道具 举报

懒得打字嘛,点击右侧快捷回复 【右侧内容,后台自定义】
您需要登录后才可以回帖 登录 | 立即加入

本版积分规则

Copyright © 2024 Comsenz Inc. Powered by 蓝光电影网

本站内容由用户自主分享和转载自互联网,转载目的在于传递更多信息,并不代表本网赞同其观点和对其真实性负责。

如有侵权、违反国家法律政策行为,请联系我们,我们会第一时间及时清除和处理!

举报反馈邮箱:4k1080.com@gmail.com

快速回复 返回顶部 返回列表