找回密码

蓝光电影网

查看: 1098|回复: 1

[动作] 阴谋集团.Cabal.2020.1080p.BluRay.x264.FLAC2.0-PTer 9.27GB

[复制链接]
蓝光币
1704
发表于 2023-1-8 00:45:25 | 显示全部楼层 |阅读模式


◎标  题 诡计团体
◎片  名 Cabal
◎年  代 2020
◎产  地 美国
◎类  别 行动 / 惊悚 / 可骇
◎语  言 英语
◎上映日期 2020-03-24(美国)
◎IMDb评分 2.3/10 (219人评价)
◎IMDb链接 https://www.imdb.com/title/tt10850450/
◎豆瓣链接 https://movie.douban.com/subject/34940626/
◎导  演 雷纳·佩雷斯 Rene Perez
◎编  剧 巴里·马索尼 Barry Massoni
       雷纳·佩雷斯 Rene Perez
◎演  员 伊娃·哈密尔顿 Eva Hamilton
◎简  介
  A military assassin who is hired to hunt down and eliminate a bloodthirsty serial killer who is committing murders in a forbidden forest.
  1. Video
  2. ID                                       : 1
  3. Format                                   : AVC
  4. Format/Info                              : Advanced Video Codec
  5. Format profile                           : High@L4.1
  6. Format settings                          : CABAC / 4 Ref Frames
  7. Format settings, CABAC                   : Yes
  8. Format settings, Reference frames        : 4 frames
  9. Codec ID                                 : V_MPEG4/ISO/AVC
  10. Duration                                 : 1 h 17 min
  11. Bit rate                                 : 16.6 Mb/s
  12. Width                                    : 1 920 pixels
  13. Height                                   : 1 014 pixels
  14. Display aspect ratio                     : 1.893
  15. Frame rate mode                          : Constant
  16. Frame rate                               : 23.976 (24000/1001) FPS
  17. Color space                              : YUV
  18. Chroma subsampling                       : 4:2:0
  19. Bit depth                                : 8 bits
  20. Scan type                                : Progressive
  21. Bits/(Pixel*Frame)                       : 0.355
  22. Stream size                              : 8.95 GiB (97%)
  23. Title                                    : English
  24. Writing library                          : x264 core 164 r3094 bfc87b7
  25. Encoding settings                        : cabac=1 / ref=4 / deblock=1:-3:-3 / analyse=0x3:0x133 / me=umh / subme=11 / psy=1 / psy_rd=1.02:0.00 / mixed_ref=1 / me_range=32 / chroma_me=1 / trellis=2 / 8x8dct=1 / cqm=0 / deadzone=21,11 / fast_pskip=0 / chroma_qp_offset=-2 / threads=18 / lookahead_threads=4 / sliced_threads=0 / nr=0 / decimate=0 / interlaced=0 / bluray_compat=0 / constrained_intra=0 / bframes=16 / b_pyramid=2 / b_adapt=2 / b_bias=0 / direct=3 / weightb=1 / open_gop=0 / weightp=2 / keyint=250 / keyint_min=23 / scenecut=40 / intra_refresh=0 / rc_lookahead=250 / rc=crf / mbtree=0 / crf=20.8 / qcomp=0.70 / qpmin=0 / qpmax=69 / qpstep=4 / vbv_maxrate=62500 / vbv_bufsize=78125 / crf_max=0.0 / nal_hrd=none / filler=0 / ip_ratio=1.30 / pb_ratio=1.20 / aq=3:0.80
  26. Language                                 : English
  27. Default                                  : Yes
  28. Forced                                   : No
  29. Color range                              : Limited
  30. Color primaries                          : BT.709
  31. Matrix coefficients                      : BT.709
  32. Audio
  33. ID                                       : 2
  34. Format                                   : FLAC
  35. Format/Info                              : Free Lossless Audio Codec
  36. Codec ID                                 : A_FLAC
  37. Duration                                 : 1 h 17 min
  38. Bit rate mode                            : Variable
  39. Bit rate                                 : 587 kb/s
  40. Channel(s)                               : 2 channels
  41. Channel layout                           : L R
  42. Sampling rate                            : 48.0 kHz
  43. Frame rate                               : 11.719 FPS (4096 SPF)
  44. Bit depth                                : 16 bits
  45. Compression mode                         : Lossless
  46. Stream size                              : 325 MiB (3%)
  47. Title                                    : English
  48. Writing library                          : libFLAC 1.3.4 (UTC 2022-02-20)
  49. Language                                 : English
  50. Default                                  : Yes
  51. Forced                                   : No
  52. MD5 of the unencoded content             : 7D8ED6C8B12CB9DAB4AFAB817AE8078B
  53. Text #1
  54. ID                                       : 3
  55. Format                                   : UTF-8
  56. Codec ID                                 : S_TEXT/UTF8
  57. Codec ID/Info                            : UTF-8 Plain Text
  58. Duration                                 : 1 h 9 min
  59. Bit rate                                 : 33 b/s
  60. Frame rate                               : 0.111 FPS
  61. Count of elements                        : 465
  62. Stream size                              : 17.3 KiB (0%)
  63. Title                                    : English
  64. Language                                 : English
  65. Default                                  : No
  66. Forced                                   : No
  67. Text #2
  68. ID                                       : 4
  69. Format                                   : UTF-8
  70. Codec ID                                 : S_TEXT/UTF8
  71. Codec ID/Info                            : UTF-8 Plain Text
  72. Duration                                 : 1 h 16 min
  73. Bit rate                                 : 46 b/s
  74. Frame rate                               : 0.174 FPS
  75. Count of elements                        : 793
  76. Stream size                              : 25.7 KiB (0%)
  77. Title                                    : English SDH
  78. Language                                 : English
  79. Default                                  : No
  80. Forced                                   : No
  81. Menu
  82. 00:00:00.000                             : en:Chapter 01
  83. 00:08:05.235                             : en:Chapter 02
  84. 00:13:07.620                             : en:Chapter 03
  85. 00:20:42.032                             : en:Chapter 04
  86. 00:30:42.174                             : en:Chapter 05
  87. 00:40:31.429                             : en:Chapter 06
  88. 00:48:26.529                             : en:Chapter 07
  89. 00:55:05.511                             : en:Chapter 08
  90. 01:05:33.179                             : en:Chapter 09
  91. 01:13:12.513                             : en:Chapter 10
复制代码











回复

使用道具 举报

蓝光币
1651
发表于 2023-1-8 17:39:17 | 显示全部楼层
一个军事刺客,怎么和阴谋集团有什么关系?影视介绍中没有体现。
回复 支持 反对

使用道具 举报

懒得打字嘛,点击右侧快捷回复 【右侧内容,后台自定义】
您需要登录后才可以回帖 登录 | 立即加入

本版积分规则

Archiver|小黑屋| 蓝光电影网 |网站地图

Copyright © 2021 Comsenz Inc. Powered by 蓝光电影网

蓝光电影网

本站内容由用户自主分享和转载自互联网,转载目的在于传递更多信息,并不代表本网赞同其观点和对其真实性负责。

如有侵权、违反国家法律政策行为,请联系我们,我们会第一时间及时清除和处理!

举报反馈邮箱:4k1080.com@gmail.com

快速回复 返回顶部 返回列表