找回密码

蓝光电影网

查看: 872|回复: 0

[剧情] 她们.Elles.2011.FRENCH.1080p.BluRay.x264.DDP5.1-SbR 12.35GB

[复制链接]
蓝光币
1688
发表于 2023-1-8 00:45:25 | 显示全部楼层 |阅读模式


◎标  题 她们
◎译  名 裸色广告(台) / 情欲心渊(港) / 援交少女 / Das bessere Leben / Sponsoring
◎片  名 Elles
◎年  代 2011
◎产  地 法国 / 波兰 / 德国
◎类  别 剧情
◎语  言 法语 / 英语 / 波兰语
◎上映日期 2011-09-09(多伦多电影节) / 2012-02-01(法国)
◎IMDb评分 5.6/10 (7190人评价)
◎IMDb链接 https://www.imdb.com/title/tt1549589/
◎豆瓣评分 6.5/10 (5234人评价)
◎豆瓣链接 https://movie.douban.com/subject/4829033/
◎片  长 99分钟
◎导  演 玛高扎塔·施莫夫兹卡 Malgorzata Szumowska
◎编  剧 蒂内·贝兹科 Tine Byrckel
       玛高扎塔·施莫夫兹卡 Malgorzata Szumowska
◎演  员 朱丽叶·比诺什 Juliette Binoche
       阿娜伊斯·德穆斯蒂埃 Anaïs Demoustier
       尤安娜·库里克 Joanna Kulig
       路易多·德·朗克桑 Louis-Do de Lencquesaing
       克里斯提娜·杨达 Krystyna Janda
       阿里·马哈亚 Ali Marhyar
       让-马利•比诺什 Jean-Marie Binoche
       安杰列·查拉 Andrzej Chyra
       弗朗索瓦·西维尔 François Civil
       瓦莱丽·德维尔 Valérie Dréville
       Arthur Moncla Arthur Moncla
       斯卡利·德尔佩拉 Scali Delpeyrat
       阿兰·利博 Alain Libolt
       斯万·阿劳德 Swann Arlaud
       珍妮·贝莱 Jenny Bellay
       马太乌兹·科西基维奇 Mateusz Kosciukiewicz
◎简  介
    安(朱丽叶·比诺什 Juliette Binoche 饰)是一位很著名望的记者,在旁人眼里,工作才能出色同时又被丈夫和孩子蜂拥着的安无疑是成功女性的典型。但在安的心里里,焦虑和焦躁无时不刻不困扰着她,家庭所带来的约束让她越来越没法经心全意的将自己投入到工作中去。                                                                      安今朝手头上的工作是观察社会上流行的支援寒暄的内幕,在某个著名的援交网站上,安结识了阿莉恰(Joanna Kulig 饰)和夏洛特(阿奈丝·德穆斯捷 Anaïs Demoustier 饰)两名女子。从她们的论述中,安发现了一个自己至今不足为奇的残暴天下,在那边,性无关乎爱,仅仅是一笔买卖。在采访的进程中,安没有忘记审阅自己的心里,此时现在,那些深藏其中的愿望和豪情起头发出光芒。
  1. Video
  2. ID                                       : 1
  3. Format                                   : AVC
  4. Format/Info                              : Advanced Video Codec
  5. Format profile                           : High@L4.1
  6. Format settings                          : CABAC / 4 Ref Frames
  7. Format settings, CABAC                   : Yes
  8. Format settings, Reference frames        : 4 frames
  9. Codec ID                                 : V_MPEG4/ISO/AVC
  10. Duration                                 : 1 h 35 min
  11. Bit rate                                 : 17.5 Mb/s
  12. Width                                    : 1 920 pixels
  13. Height                                   : 816 pixels
  14. Display aspect ratio                     : 2.35:1
  15. Frame rate mode                          : Constant
  16. Frame rate                               : 25.000 FPS
  17. Color space                              : YUV
  18. Chroma subsampling                       : 4:2:0
  19. Bit depth                                : 8 bits
  20. Scan type                                : Progressive
  21. Bits/(Pixel*Frame)                       : 0.447
  22. Stream size                              : 11.7 GiB (94%)
  23. Writing library                          : x264 core 164 r3094+49M 0246926 devel [(8 & 10)-bit@all X86_64]
  24. Encoding settings                        : cabac=1 / ref=4 / deblock=1:-3:-3 / analyse=0x3:0x133 / me=umh / subme=11 / psy=1 / fade_compensate=0.00 / psy_rd=1.00:0.00 / mixed_ref=1 / me_range=32 / chroma_me=1 / trellis=2 / 8x8dct=1 / cqm=0 / deadzone=21,11 / fast_pskip=1 / chroma_qp_offset=-2 / threads=32 / lookahead_threads=6 / sliced_threads=0 / nr=0 / decimate=1 / interlaced=0 / bluray_compat=0 / constrained_intra=0 / fgo=0 / bframes=10 / b_pyramid=2 / b_adapt=2 / b_bias=0 / direct=3 / weightb=1 / open_gop=0 / weightp=2 / keyint=250 / keyint_min=25 / scenecut=40 / intra_refresh=0 / rc=crf / mbtree=0 / crf=18.0000 / qcomp=0.60 / qpmin=0:0:0 / qpmax=69:69:69 / qpstep=4 / ip_ratio=1.25 / pb_ratio=1.20 / aq=3:0.80 / aq-sensitivity=10.00 / aq-factor=1.00:1.00:1.00 / aq2=0 / aq3=0
  25. Language                                 : French
  26. Default                                  : Yes
  27. Forced                                   : No
  28. Audio
  29. ID                                       : 2
  30. Format                                   : E-AC-3
  31. Format/Info                              : Enhanced AC-3
  32. Commercial name                          : Dolby Digital Plus
  33. Codec ID                                 : A_EAC3
  34. Duration                                 : 1 h 35 min
  35. Bit rate mode                            : Constant
  36. Bit rate                                 : 1 024 kb/s
  37. Channel(s)                               : 6 channels
  38. Channel layout                           : L R C LFE Ls Rs
  39. Sampling rate                            : 48.0 kHz
  40. Frame rate                               : 31.250 FPS (1536 SPF)
  41. Compression mode                         : Lossy
  42. Stream size                              : 698 MiB (6%)
  43. Language                                 : French
  44. Service kind                             : Complete Main
  45. Default                                  : Yes
  46. Forced                                   : No
  47. Text #1
  48. ID                                       : 3
  49. Format                                   : ASS
  50. Codec ID                                 : S_TEXT/ASS
  51. Codec ID/Info                            : Advanced Sub Station Alpha
  52. Duration                                 : 1 h 29 min
  53. Bit rate                                 : 64 b/s
  54. Frame rate                               : 0.120 FPS
  55. Count of elements                        : 644
  56. Compression mode                         : Lossless
  57. Stream size                              : 42.6 KiB (0%)
  58. Language                                 : Russian
  59. Default                                  : No
  60. Forced                                   : No
  61. Text #2
  62. ID                                       : 4
  63. Format                                   : UTF-8
  64. Codec ID                                 : S_TEXT/UTF8
  65. Codec ID/Info                            : UTF-8 Plain Text
  66. Duration                                 : 1 h 29 min
  67. Bit rate                                 : 43 b/s
  68. Frame rate                               : 0.120 FPS
  69. Count of elements                        : 644
  70. Stream size                              : 28.9 KiB (0%)
  71. Language                                 : Russian
  72. Default                                  : No
  73. Forced                                   : No
  74. Text #3
  75. ID                                       : 5
  76. Format                                   : ASS
  77. Codec ID                                 : S_TEXT/ASS
  78. Codec ID/Info                            : Advanced Sub Station Alpha
  79. Duration                                 : 1 h 33 min
  80. Bit rate                                 : 49 b/s
  81. Frame rate                               : 0.132 FPS
  82. Count of elements                        : 741
  83. Compression mode                         : Lossless
  84. Stream size                              : 34.0 KiB (0%)
  85. Language                                 : English
  86. Default                                  : No
  87. Forced                                   : No
  88. Text #4
  89. ID                                       : 6
  90. Format                                   : UTF-8
  91. Codec ID                                 : S_TEXT/UTF8
  92. Codec ID/Info                            : UTF-8 Plain Text
  93. Duration                                 : 1 h 33 min
  94. Bit rate                                 : 26 b/s
  95. Frame rate                               : 0.132 FPS
  96. Count of elements                        : 741
  97. Stream size                              : 18.1 KiB (0%)
  98. Language                                 : English
  99. Default                                  : No
  100. Forced                                   : No
  101. Text #5
  102. ID                                       : 7
  103. Format                                   : UTF-8
  104. Codec ID                                 : S_TEXT/UTF8
  105. Codec ID/Info                            : UTF-8 Plain Text
  106. Duration                                 : 1 h 30 min
  107. Bit rate                                 : 29 b/s
  108. Frame rate                               : 0.153 FPS
  109. Count of elements                        : 828
  110. Stream size                              : 19.4 KiB (0%)
  111. Title                                    : Durenkian
  112. Language                                 : English
  113. Default                                  : No
  114. Forced                                   : No
  115. Text #6
  116. ID                                       : 8
  117. Format                                   : UTF-8
  118. Codec ID                                 : S_TEXT/UTF8
  119. Codec ID/Info                            : UTF-8 Plain Text
  120. Duration                                 : 1 h 1 min
  121. Bit rate                                 : 1 b/s
  122. Frame rate                               : 0.005 FPS
  123. Count of elements                        : 18
  124. Stream size                              : 621 Bytes (0%)
  125. Title                                    : Forced
  126. Language                                 : French
  127. Default                                  : No
  128. Forced                                   : No
  129. Menu #1
  130. 00:00:00.000                             : en:01. Hard to Stop
  131. 00:13:00.399                             : en:02. I Don\'t Drink
  132. 00:19:08.720                             : en:03. Bored Husbands
  133. 00:27:11.920                             : en:04. Beauty Spots
  134. 00:35:03.280                             : en:05. Completely Normal
  135. 00:43:38.800                             : en:06. You Didn\'t Hear
  136. 00:51:58.039                             : en:07. Call
  137. 01:00:55.480                             : en:08. The Whole Works
  138. 01:09:54.119                             : en:09. Sorry
  139. 01:15:37.279                             : en:10. You OK?
  140. 01:21:53.760                             : en:11. I Loved You
  141. 01:28:48.680                             : en:12. End Credits
  142. Menu #2
  143. 00:00:00.000                             : en:Episode 01
  144. 00:06:42.600                             : en:Episode 02
  145. 00:16:14.600                             : en:Episode 03
  146. 00:28:30.599                             : en:Episode 04
  147. 00:38:13.599                             : en:Episode 05
  148. 00:46:49.599                             : en:Episode 06
  149. 00:52:00.599                             : en:Episode 07
  150. 01:00:56.599                             : en:Episode 08
  151. 01:08:15.599                             : en:Episode 09
  152. 01:15:37.600                             : en:Episode 10
  153. 01:21:02.600                             : en:Episode 11
  154. 01:26:52.600                             : en:Episode 12
复制代码











回复

使用道具 举报

懒得打字嘛,点击右侧快捷回复 【右侧内容,后台自定义】
您需要登录后才可以回帖 登录 | 立即加入

本版积分规则

Archiver|小黑屋| 蓝光电影网 |网站地图

Copyright © 2021 Comsenz Inc. Powered by 蓝光电影网

蓝光电影网

本站内容由用户自主分享和转载自互联网,转载目的在于传递更多信息,并不代表本网赞同其观点和对其真实性负责。

如有侵权、违反国家法律政策行为,请联系我们,我们会第一时间及时清除和处理!

举报反馈邮箱:4k1080.com@gmail.com

快速回复 返回顶部 返回列表